osu file format v14

[General]
AudioFilename: audio.mp3
AudioLeadIn: 0
PreviewTime: 76959
Countdown: 0
SampleSet: Soft
StackLeniency: 0.7
Mode: 0
LetterboxInBreaks: 0
WidescreenStoryboard: 1

[Editor]
DistanceSpacing: 1
BeatDivisor: 2
GridSize: 32
TimelineZoom: 0.8999999

[Metadata]
Title:Euphorium
TitleUnicode:Euphorium
Artist:Suzuyu
ArtistUnicode:鈴湯
Creator:Leaf
Version:Normal
Source:アストラエアの白き永遠 Finale -白き星の夢-
Tags:astralair no shiroki towa hoshi no yume favorite opening eroge settia left sonnyc
BeatmapID:1223313
BeatmapSetID:577420

[Difficulty]
HPDrainRate:4
CircleSize:3.5
OverallDifficulty:4
ApproachRate:5
SliderMultiplier:1.1
SliderTickRate:1

[Events]
//Background and Video events
0,0,"bg.png",0,0
//Break Periods
//Storyboard Layer 0 (Background)
//Storyboard Layer 1 (Fail)
//Storyboard Layer 2 (Pass)
//Storyboard Layer 3 (Foreground)
//Storyboard Sound Samples

[TimingPoints]
1153,322.58064516129,4,2,76,50,1,0
6314,-100,4,2,77,60,0,0
24378,-100,4,2,76,30,0,0
34701,-100,4,2,77,30,0,0
35991,-100,4,2,76,30,0,0
36152,-100,4,2,77,30,0,0
38572,-100,4,2,76,30,0,0
38733,-100,4,2,77,30,0,0
45023,-100,4,2,77,60,0,0
72120,-100,4,2,76,60,0,0
73411,-100,4,2,77,60,0,0
75991,-100,4,2,77,60,0,0
78572,-100,4,2,77,80,0,1
105669,-100,4,2,77,60,0,0
126233,-100,4,2,77,50,0,0
126314,-100,4,2,77,50,0,0
127604,-100,4,2,77,40,0,0
128894,-100,4,2,77,30,0,0
130185,-100,4,2,77,20,0,0
131475,-100,4,2,77,10,0,0
132765,-100,4,2,77,5,0,0

[Colours]
Combo1 : 0,128,255
Combo2 : 213,0,0
Combo3 : 255,128,0

[HitObjects]
159,264,1153,6,0,P|209:287|263:281,1,110,2|0,0:0|0:0,0:0:0:0:
330,193,1798,2,0,P|280:170|226:176,1,110,2|0,0:0|0:0,0:0:0:0:
117,192,2443,2,0,P|139:142|133:88,1,110,2|0,0:0|0:0,0:0:0:0:
45,21,3088,2,0,P|23:71|29:125,1,110,2|0,0:0|0:0,0:0:0:0:
38,234,3733,6,0,L|13:354,1,110,2|0,0:0|0:0,0:0:0:0:
113,291,4378,2,0,L|135:183,1,110,2|0,0:0|0:0,0:0:0:0:
201,95,5023,2,0,P|222:111|236:135,2,55,2|0|0,0:0|0:0|0:0,0:0:0:0:
151,71,5507,1,0,0:0:0:0:
219,221,5991,1,0,0:0:0:0:
329,204,6314,6,0,L|342:86,2,110,6|0|0,0:0|0:0|0:0,0:0:0:0:
315,313,7282,1,4,0:3:0:0:
262,327,7443,2,0,B|213:323|213:323|159:362,1,110,4|8,0:0|0:0,0:0:0:0:
114,259,8088,1,0,0:0:0:0:
100,206,8249,2,0,L|178:187,1,55,0|0,0:0|0:0,0:0:0:0:
193,155,8572,2,0,L|262:167,1,55,0|0,0:0|0:0,0:0:0:0:
272,212,8894,6,0,P|327:215|391:191,1,110,6|2,0:0|0:0,0:0:0:0:
429,176,9378,2,0,L|404:304,1,110,8|8,0:3|0:0,0:0:0:0:
372,326,9862,1,0,0:0:0:0:
319,341,10023,2,0,P|243:313|152:330,1,165,6|2,0:0|0:0,0:0:0:0:
58,286,10830,2,0,L|71:353,2,55,8|8|8,0:0|0:0|0:0,0:0:0:0:
102,184,11475,6,0,L|226:176,1,110,6|8,0:0|0:0,0:0:0:0:
315,139,12120,2,0,P|304:78|336:11,1,110,2|8,0:0|0:0,0:0:0:0:
412,89,12765,2,0,P|452:126|460:179,1,110,2|8,0:0|0:0,0:0:0:0:
431,226,13249,1,0,0:0:0:0:
381,250,13411,2,0,P|327:241|291:201,1,110,2|2,0:0|0:0,0:0:0:0:
187,161,14056,6,0,P|133:150|82:168,1,110,2|2,0:0|0:0,0:0:0:0:
42,206,14540,2,0,L|25:70,1,110,8|8,0:0|0:0,0:0:0:0:
68,59,15023,1,2,0:0:0:0:
121,46,15185,2,0,B|185:33|185:33|290:75,1,165,6|8,0:0|0:0,0:0:0:0:
326,96,15830,2,0,L|326:217,1,110,6|6,0:0|0:0,0:0:0:0:
322,316,16475,1,6,0:0:0:0:
271,295,16636,6,0,P|215:278|157:300,1,110,8|8,0:0|0:0,0:0:0:0:
125,328,17120,2,0,P|73:345|21:330,1,110,2|2,0:0|0:0,0:0:0:0:
71,232,17765,2,0,L|100:44,1,165,2|8,0:0|0:0,0:0:0:0:
203,40,18572,2,0,L|192:107,1,55,8|2,0:0|0:0,0:0:0:0:
199,148,18894,2,0,L|210:215,1,55,8|2,0:0|0:0,0:0:0:0:
198,256,19217,2,0,P|252:232|304:232,1,110,12|0,0:0|0:0,0:0:0:0:
354,252,19701,2,0,P|408:251|457:228,1,110,12|8,0:0|0:0,0:0:0:0:
480,178,20185,1,8,0:0:0:0:
470,122,20346,6,0,P|398:55|335:130,2,220,12|0|0,0:0|0:0|0:0,0:0:0:0:
80,124,24378,6,0,P|182:98|262:177,1,220,2|0,0:0|0:0,0:0:0:0:
155,204,25346,1,0,0:0:0:0:
230,285,25669,2,0,P|128:311|48:232,1,220,4|0,0:1|0:0,0:0:0:0:
51,129,26636,2,0,L|134:110,1,55,0|0,0:0|0:0,0:0:0:0:
158,102,26959,6,0,L|381:131,2,220,2|0|4,0:0|0:0|0:1,0:0:0:0:
331,237,28894,2,0,L|444:221,1,110,0|0,0:0|0:0,0:0:0:0:
352,154,29540,6,0,P|255:199|276:302,1,220,2|0,0:0|0:0,0:0:0:0:
184,365,30507,1,0,0:0:0:0:
86,312,30830,2,0,L|73:180,1,110,4|0,0:1|0:0,0:0:0:0:
71,147,31314,1,0,0:0:0:0:
174,109,31636,2,0,L|300:93,1,110,0|0,0:0|0:0,0:0:0:0:
335,77,32120,6,0,P|430:115|369:202,2,220,2|0|4,0:0|0:0|0:1,0:0:0:0:
311,295,34056,2,0,L|290:172,1,110,0|0,0:0|0:0,0:0:0:0:
225,99,34701,6,0,P|165:154|168:234,2,165,2|2|0,0:0|0:0|0:0,0:0:0:0:
326,57,35991,2,0,B|384:129|384:129|384:256,1,220,4|0,1:3|0:0,0:0:0:0:
302,331,36959,1,0,0:0:0:0:
216,262,37282,6,0,L|196:73,2,165,2|2|2,0:0|0:0|0:0,0:0:0:0:
131,333,38572,2,0,P|202:370|294:337,2,165,4|2|2,0:1|0:0|0:0,0:0:0:0:
69,242,39862,6,0,P|119:222|173:230,1,110,2|2,0:0|0:0,0:0:0:0:
272,275,40507,2,0,P|280:221|260:170,1,110,2|2,0:0|0:0,0:0:0:0:
168,109,41152,2,0,B|362:68,2,165,2|0|0,0:0|0:0|0:0,0:0:0:0:
70,55,42443,6,0,P|52:107|67:158,1,110,2|2,0:0|0:0,0:0:0:0:
104,199,42927,2,0,P|121:250|106:301,1,110,8|2,0:0|0:0,0:0:0:0:
81,351,43411,1,8,0:0:0:0:
189,329,43733,2,0,P|289:304|414:357,1,220,6|4,0:0|0:3,0:0:0:0:
467,257,44701,1,4,0:3:0:0:
476,147,45023,6,0,P|413:160|371:208,1,110,6|8,0:0|0:0,0:0:0:0:
336,290,45669,2,0,P|294:255|240:248,1,110,0|8,0:0|0:0,0:0:0:0:
150,312,46314,2,0,L|131:179,2,110,2|8|2,0:0|0:0|0:0,0:0:0:0:
46,348,47282,1,8,0:0:0:0:
28,239,47604,6,0,P|42:132|159:98,2,220,2|0|2,0:0|0:0|0:0,0:0:0:0:
134,266,49217,1,8,0:0:0:0:
232,218,49540,2,0,P|284:200|336:215,1,110,0|8,0:0|0:0,0:0:0:0:
421,285,50185,6,0,L|435:45,1,220,2|0,0:0|0:0,0:0:0:0:
329,100,51152,2,0,P|286:66|232:60,2,110,8|2|8,0:0|0:0|0:0,0:0:0:0:
352,150,51959,1,2,0:0:0:0:
275,229,52282,2,0,L|161:241,1,110,2|0,0:0|0:0,0:0:0:0:
112,255,52765,6,0,P|96:195|118:137,2,110,2|8|2,0:0|0:0|0:0,0:0:0:0:
167,350,53733,1,8,0:0:0:0:
271,315,54056,2,0,P|321:295|375:304,1,110,2|2,0:0|0:0,0:0:0:0:
429,313,54540,1,8,0:3:0:0:
482,326,54701,2,0,L|468:183,1,110,0|2,0:0|0:0,0:0:0:0:
412,122,55346,6,0,P|368:86|304:87,1,110,2|8,0:0|0:0,0:0:0:0:
235,157,55991,2,0,P|279:193|343:192,1,110,0|8,0:0|0:0,0:0:0:0:
413,267,56636,2,0,P|359:271|317:306,1,110,2|8,0:0|0:0,0:0:0:0:
283,349,57120,2,0,L|267:231,1,110,0|8,0:0|0:0,0:0:0:0:
214,252,57604,1,0,0:0:0:0:
114,204,57927,6,0,P|171:178|197:122,1,110,2|8,0:0|0:0,0:0:0:0:
243,113,58411,2,0,L|123:95,1,110,0|8,0:0|0:0,0:0:0:0:
80,86,58894,1,0,0:0:0:0:
13,173,59217,6,0,L|22:343,2,165,2|2|8,0:0|0:0|0:0,0:0:0:0:
120,198,60507,2,0,P|139:254|127:314,1,110,8|2,0:0|0:0,0:0:0:0:
178,332,60991,2,0,L|287:338,1,110,8|2,0:0|0:0,0:0:0:0:
339,319,61475,1,8,0:0:0:0:
345,208,61798,6,0,L|373:72,1,110,0|2,0:0|0:0,0:0:0:0:
352,47,62282,2,0,P|299:70|245:63,1,110,8|2,0:0|0:0,0:0:0:0:
195,48,62765,1,8,0:0:0:0:
129,136,63088,6,0,P|194:182|208:261,2,165,2|2|8,0:0|0:0|0:0,0:0:0:0:
40,70,64378,2,0,L|54:304,1,220,8|4,0:3|0:3,0:0:0:0:
135,362,65346,1,4,0:3:0:0:
235,318,65669,6,0,P|285:300|345:308,1,110,6|2,0:0|0:0,0:0:0:0:
406,217,66314,2,0,P|351:223|300:205,1,110,2|2,0:0|0:0,0:0:0:0:
192,225,66959,2,0,P|198:170|180:119,1,110,2|2,0:0|0:0,0:0:0:0:
95,49,67604,2,0,L|203:31,1,110,2|2,0:0|0:0,0:0:0:0:
287,102,68249,6,0,P|397:123|486:57,1,220,2|2,0:0|0:0,0:0:0:0:
494,174,69217,1,2,0:0:0:0:
418,253,69540,2,0,P|308:232|219:298,1,220,2|2,0:0|0:0,0:0:0:0:
131,349,70507,1,8,0:0:0:0:
129,238,70830,5,6,0:0:0:0:
378,154,72120,1,4,0:1:0:0:
100,124,73411,6,0,P|97:70|131:28,1,110,8|0,0:0|0:0,0:0:0:0:
185,20,73894,2,0,L|314:52,1,110,8|0,0:0|0:0,0:0:0:0:
345,60,74378,1,8,0:0:0:0:
377,105,74540,2,0,P|411:278|342:116,1,495,2|0,0:0|0:0,0:0:0:0:
178,162,76959,5,0,0:0:0:0:
227,262,77282,2,0,L|55:233,2,165
326,314,78572,6,0,L|313:195,1,110,6|8,0:1|0:0,0:0:0:0:
378,114,79217,2,0,P|309:93|253:113,1,110,2|8,0:0|0:0,0:0:0:0:
231,137,79701,1,0,0:0:0:0:
187,171,79862,2,0,P|133:178|82:158,1,110,2|8,0:0|0:0,0:0:0:0:
52,264,80507,2,0,P|105:256|156:276,1,110,2|8,0:0|0:0,0:0:0:0:
196,314,80991,1,0,0:0:0:0:
240,344,81152,6,0,P|293:351|344:331,1,110,2|8,0:0|0:0,0:0:0:0:
439,274,81798,1,2,0:0:0:0:
442,164,82120,2,0,L|374:179,1,55,8|0,0:0|0:0,0:0:0:0:
340,148,82443,2,0,L|328:224,2,55,6|8|8,0:0|0:0|0:0,0:0:0:0:
308,102,82927,2,0,L|177:121,1,110,2|6,0:0|0:0,0:0:0:0:
91,93,83572,1,2,0:0:0:0:
96,147,83733,6,0,L|113:283,1,110,6|8,0:0|0:0,0:0:0:0:
71,358,84378,2,0,P|125:365|174:340,1,110,2|8,0:0|0:0,0:0:0:0:
259,271,85023,2,0,P|307:246|361:252,1,110,2|8,0:0|0:0,0:0:0:0:
449,319,85669,2,0,L|454:198,1,110,2|8,0:0|0:0,0:0:0:0:
378,128,86314,6,0,L|238:128,1,110,2|8,0:0|0:0,0:0:0:0:
223,95,86798,2,0,L|200:169,1,55,0|2,0:0|0:0,0:0:0:0:
220,200,87120,2,0,L|225:272,1,55,8|8,0:0|0:0,0:0:0:0:
184,293,87443,2,0,L|317:313,1,110,8|8,0:0|0:0,0:0:0:0:
346,321,87927,2,0,P|379:273|369:195,2,110,2|2|2,0:0|0:0|0:0,0:0:0:0:
251,122,89217,6,0,L|121:111,1,110,6|2,0:1|0:0,0:0:0:0:
114,219,89862,1,8,0:0:0:0:
203,263,90185,2,0,P|239:221|309:215,1,110,2|8,0:0|0:0,0:0:0:0:
339,236,90669,1,2,0:0:0:0:
392,254,90830,2,0,L|376:132,1,110,0|8,0:0|0:0,0:0:0:0:
275,104,91475,6,0,L|162:90,1,110,2|8,0:0|0:0,0:0:0:0:
55,96,92120,2,0,L|67:164,1,55,2|2,0:0|0:0,0:0:0:0:
82,203,92443,2,0,L|94:271,1,55,8|2,0:0|0:0,0:0:0:0:
134,291,92765,2,0,P|171:245|232:236,1,110,6|8,0:0|0:0,0:0:0:0:
270,215,93249,1,6,0:0:0:0:
322,198,93411,2,0,P|376:194|422:165,1,110,8|0,0:0|0:0,0:0:0:0:
499,86,94056,6,0,L|504:209,1,110,4|8,0:0|0:0,0:0:0:0:
444,289,94701,1,8,0:0:0:0:
347,340,95023,2,0,P|290:347|222:304,2,110,8|8|8,0:0|0:0|0:0,0:0:0:0:
308,236,95991,1,8,0:0:0:0:
198,225,96314,1,8,0:0:0:0:
141,131,96636,6,0,P|195:114|272:143,1,110,2|0,0:0|0:0,0:0:0:0:
285,163,97120,2,0,P|339:180|416:151,1,110,2|2,0:0|0:0,0:0:0:0:
439,144,97604,1,0,0:0:0:0:
483,111,97765,2,0,L|477:241,2,110,2|4|4,0:0|0:3|0:3,0:0:0:0:
375,88,98733,2,0,L|395:17,2,55,0|0|0,0:0|0:0|0:0,0:0:0:0:
349,135,99217,6,0,P|312:187|320:263,1,110,6|2,0:0|0:0,0:0:0:0:
343,274,99701,1,0,0:0:0:0:
233,268,100023,1,12,0:0:0:0:
282,366,100346,1,12,0:0:0:0:
84,259,101798,6,0,P|136:259|192:219,1,110,6|8,0:0|0:0,0:0:0:0:
227,194,102282,2,0,P|281:194|327:223,1,110,2|8,0:0|0:0,0:0:0:0:
367,261,102765,1,6,0:0:0:0:
436,175,103088,2,0,L|424:118,1,55,8|8,0:0|0:3,0:0:0:0:
331,61,103572,2,0,L|254:66,1,55,2|8,0:0|0:0,0:0:0:0:
222,77,103894,2,0,L|227:8,2,55,4|4|8,0:3|0:3|0:3,0:0:0:0:
242,128,104378,6,0,L|235:266,1,110,6|2,0:0|0:0,0:0:0:0:
234,293,104862,1,2,0:0:0:0:
126,268,105185,1,12,0:0:0:0:
156,373,105507,1,12,0:0:0:0:
96,105,106959,6,0,P|146:83|200:91,1,110,6|8,0:0|0:0,0:0:0:0:
285,159,107604,2,0,P|338:167|388:145,1,110,2|8,0:0|0:0,0:0:0:0:
471,71,108249,2,0,L|480:196,1,110,2|8,0:0|0:0,0:0:0:0:
454,230,108733,1,8,0:0:0:0:
421,274,108894,2,0,P|367:265|317:287,1,110,2|8,0:0|0:0,0:0:0:0:
224,345,109540,2,0,P|170:353|120:331,1,110,2|8,0:0|0:0,0:0:0:0:
74,231,110185,6,0,L|83:106,1,110,2|8,0:0|0:0,0:0:0:0:
176,63,110830,2,0,P|227:85|285:84,1,110,2|8,0:0|0:0,0:0:0:0:
384,47,111475,1,2,0:0:0:0:
477,105,111798,1,8,0:0:0:0:
398,181,112120,6,0,P|343:180|294:205,1,110,0|8,0:0|0:0,0:0:0:0:
224,290,112765,1,2,0:0:0:0:
188,185,113088,1,8,0:0:0:0:
161,77,113411,2,0,P|109:106|82:156,1,110,2|8,0:0|0:0,0:0:0:0:
15,235,114056,2,0,L|142:245,1,110,2|8,0:0|0:0,0:0:0:0:
213,308,114701,5,2,0:0:0:0:
264,288,114862,2,0,L|381:270,1,110,0|0,0:0|0:0,0:0:0:0:
423,249,115346,2,0,L|440:173,1,55,2|8,0:0|0:0,0:0:0:0:
444,140,115669,2,0,L|427:64,1,55,8|12,0:0|0:0,0:0:0:0:
399,42,115991,2,0,P|346:17|280:34,1,110,2|2,0:0|0:0,0:0:0:0:
226,108,116636,2,0,P|279:133|345:116,1,110,2|2,0:0|0:0,0:0:0:0:
278,224,117282,6,0,L|145:212,1,110,6|8,0:0|0:0,0:0:0:0:
103,303,117927,2,0,L|236:315,1,110,2|8,0:0|0:0,0:0:0:0:
315,353,118572,2,0,P|356:306|349:238,1,110,2|8,0:0|0:0,0:0:0:0:
303,164,119217,2,0,P|241:151|186:192,1,110,2|8,0:0|0:0,0:0:0:0:
122,249,119862,6,0,L|100:117,1,110,2|8,0:0|0:0,0:0:0:0:
160,45,120507,2,0,P|213:61|268:60,1,110,2|8,0:0|0:0,0:0:0:0:
378,57,121152,1,2,0:0:0:0:
453,136,121475,1,8,0:0:0:0:
396,230,121798,2,0,L|421:344,1,110,2|8,0:0|0:0,0:0:0:0:
309,337,122443,6,0,P|263:300|152:335,1,165,6|8,0:0|0:0,0:0:0:0:
114,341,123088,2,0,P|83:334|49:308,1,55,2|2,0:0|0:0,0:0:0:0:
32,276,123411,2,0,P|23:239|30:199,1,55,2|8,0:0|0:0,0:0:0:0:
44,171,123733,2,0,P|125:144|199:54,1,165,6|2,0:0|0:0,0:0:0:0:
235,78,124378,2,0,P|244:108|238:159,1,55,2|8,0:0|0:0,0:0:0:0:
241,186,124701,2,0,P|232:216|238:267,1,55,2|8,0:0|0:0,0:0:0:0:
229,294,125023,6,0,P|340:274|374:288,1,110,6|2,0:0|0:0,0:0:0:0:
384,295,125507,2,0,L|405:154,1,110,8|2,0:0|0:0,0:0:0:0:
408,131,125991,1,0,0:0:0:0:
408,131,126152,1,6,0:0:0:0:
256,192,126314,12,0,132765,0:0:0:0:
