osu file format v14

[General]
AudioFilename: audio.mp3
AudioLeadIn: 0
PreviewTime: 76959
Countdown: 0
SampleSet: Soft
StackLeniency: 0.7
Mode: 0
LetterboxInBreaks: 0
WidescreenStoryboard: 0

[Editor]
DistanceSpacing: 2.3
BeatDivisor: 4
GridSize: 32
TimelineZoom: 1.9

[Metadata]
Title:Euphorium
TitleUnicode:Euphorium
Artist:Suzuyu
ArtistUnicode:鈴湯
Creator:Leaf
Version:AstralAir
Source:アストラエアの白き永遠 Finale -白き星の夢-
Tags:astralair no shiroki towa hoshi no yume favorite opening eroge settia left sonnyc
BeatmapID:1222081
BeatmapSetID:577420

[Difficulty]
HPDrainRate:6
CircleSize:4
OverallDifficulty:9
ApproachRate:9.3
SliderMultiplier:1.8
SliderTickRate:1

[Events]
//Background and Video events
0,0,"bg.png",0,0
//Break Periods
//Storyboard Layer 0 (Background)
//Storyboard Layer 1 (Fail)
//Storyboard Layer 2 (Pass)
//Storyboard Layer 3 (Foreground)
//Storyboard Sound Samples

[TimingPoints]
1153,322.58064516129,4,2,76,50,1,0
6314,-100,4,2,77,60,0,0
21798,-100,4,2,77,30,0,0
21959,-100,4,2,76,30,0,0
24378,-133.333333333333,4,2,76,30,0,0
34701,-133.333333333333,4,2,77,40,0,0
45023,-100,4,2,77,60,0,0
72120,-100,4,2,76,60,0,0
73411,-100,4,2,77,60,0,0
74540,-200,4,2,77,60,0,0
75991,-100,4,2,77,60,0,0
76959,-71.4285714285714,4,2,77,60,0,0
77201,-71.4285714285714,4,2,77,5,0,0
77282,-119.047619047619,4,2,77,60,0,0
77685,-119.047619047619,4,2,77,5,0,0
77765,-119.047619047619,4,2,77,60,0,0
78169,-119.047619047619,4,2,77,5,0,0
78249,-71.4285714285714,4,2,77,60,0,0
78491,-71.4285714285714,4,2,77,5,0,0
78572,-95.2380952380952,4,2,77,80,0,1
79056,-83.3333333333333,4,2,77,80,0,1
105669,-100,4,2,77,60,0,0
126233,-100,4,2,77,50,0,0
127604,-100,4,2,77,40,0,0
128894,-100,4,2,77,30,0,0
130185,-100,4,2,77,20,0,0
131475,-100,4,2,77,10,0,0
132765,-100,4,2,77,5,0,0

[Colours]
Combo1 : 0,128,255
Combo2 : 213,0,0
Combo3 : 255,128,0

[HitObjects]
167,214,1153,6,0,L|207:305,2,90
126,132,1636,1,0,0:0:0:0:
267,235,1798,2,0,P|308:226|373:225,1,90
164,350,2120,2,0,P|123:341|58:340,1,90
425,261,2443,6,0,P|433:218|418:176,1,90
253,145,2765,2,0,P|244:101|259:59,1,90
389,364,3088,2,0,P|426:339|470:337,1,90
203,269,3411,2,0,P|165:244|121:242,1,90
409,101,3733,6,0,P|453:108|483:140,1,90
196,28,4056,2,0,P|152:35|122:67,1,90
298,366,4378,2,0,L|313:266,1,90
303,14,4701,2,0,L|318:114,1,90
467,321,5023,5,0,0:0:0:0:
222,345,5185,1,0,0:0:0:0:
368,168,5346,1,0,0:0:0:0:
407,384,5507,1,0,0:0:0:0:
100,224,5991,1,0,0:0:0:0:
100,224,6072,1,0,0:0:0:0:
100,224,6152,1,0,0:0:0:0:
100,224,6233,1,0,0:0:0:0:
100,224,6314,6,0,P|171:174|258:207,1,180,6|0,0:0|0:0,0:0:0:0:
409,340,6798,1,0,0:0:0:0:
409,340,6878,1,0,0:0:0:0:
409,340,6959,1,0,0:0:0:0:
185,272,7120,1,8,0:3:0:0:
364,136,7282,1,4,0:3:0:0:
324,376,7443,6,0,B|292:292|368:292|324:204,1,180,6|2,0:0|0:0,0:0:0:0:
194,100,7927,1,8,0:0:0:0:
364,136,8088,1,8,0:0:0:0:
234,255,8249,1,0,0:0:0:0:
280,49,8411,1,8,0:3:0:0:
406,213,8572,1,4,0:3:0:0:
147,195,8733,1,4,0:3:0:0:
471,144,8894,6,0,P|501:225|452:297,1,180,6|2,0:0|0:0,0:0:0:0:
363,56,9378,1,8,0:3:0:0:
178,254,9540,1,4,0:3:0:0:
406,213,9701,1,8,0:0:0:0:
243,98,9862,1,4,0:3:0:0:
275,375,10023,6,0,P|280:285|289:195,1,180,6|2,0:0|0:0,0:0:0:0:
77,74,10507,2,0,P|88:119|95:183,1,90,2|0,0:0|0:0,0:0:0:0:
168,384,10830,5,8,0:0:0:0:
166,348,10910,1,8,0:0:0:0:
163,312,10991,1,8,0:0:0:0:
160,276,11071,1,8,0:0:0:0:
157,240,11152,1,8,0:0:0:0:
157,240,11475,6,0,P|200:238|252:255,1,90
452,310,11798,1,0,0:0:0:0:
363,97,11959,1,0,0:0:0:0:
327,274,12120,2,0,L|303:360,1,90
474,217,12443,1,8,0:0:0:0:
255,159,12604,1,0,0:0:0:0:
350,360,12765,6,0,L|326:273,1,90
278,69,13088,1,0,0:0:0:0:
223,263,13249,1,0,0:0:0:0:
223,263,13330,1,8,0:0:0:0:
223,263,13411,1,0,0:0:0:0:
428,150,13572,1,0,0:0:0:0:
207,127,13733,2,0,P|155:116|105:114,1,90
422,323,14056,6,0,P|404:235|427:149,1,180
288,280,14540,1,8,0:0:0:0:
487,242,14701,1,2,0:0:0:0:
288,280,14862,1,8,0:0:0:0:
487,242,15023,1,10,0:0:0:0:
395,25,15185,6,0,P|359:107|376:213,1,180,6|0,0:0|0:0,0:0:0:0:
437,326,15669,1,8,0:0:0:0:
437,326,15749,1,0,0:0:0:0:
437,326,15830,2,0,L|337:308,1,90,6|0,0:0|0:0,0:0:0:0:
107,368,16152,2,0,L|207:350,1,90,6|0,0:0|0:0,0:0:0:0:
363,229,16475,1,6,0:0:0:0:
107,199,16636,5,8,0:0:0:0:
344,131,16798,1,0,0:0:0:0:
52,281,16959,1,8,0:0:0:0:
268,61,17120,1,2,0:0:0:0:
114,334,17282,1,8,0:0:0:0:
166,37,17443,1,2,0:0:0:0:
195,352,17604,1,8,0:0:0:0:
69,67,17765,1,2,0:0:0:0:
289,207,17927,5,8,0:0:0:0:
13,186,18088,1,2,0:0:0:0:
289,207,18249,1,8,0:0:0:0:
13,186,18411,1,2,0:0:0:0:
340,126,18572,5,8,0:0:0:0:
364,147,18652,1,0,0:0:0:0:
380,174,18733,1,2,0:0:0:0:
385,205,18813,1,0,0:0:0:0:
381,236,18894,1,8,0:0:0:0:
367,264,18975,1,0,0:0:0:0:
344,286,19055,1,2,0:0:0:0:
315,299,19136,1,0,0:0:0:0:
284,302,19217,6,0,P|262:216|249:112,1,180,12|2,0:0|0:0,0:0:0:0:
121,341,19701,2,0,P|170:347|230:361,1,90,12|2,0:0|0:0,0:0:0:0:
437,308,20023,1,0,0:0:0:0:
437,308,20104,1,0,0:0:0:0:
437,308,20185,1,10,0:0:0:0:
161,163,20346,5,12,0:0:0:0:
256,192,20427,12,0,21798,0:0:0:0:
196,147,21959,5,0,0:0:0:0:
325,189,22120,1,0,0:0:0:0:
196,232,22282,1,0,0:0:0:0:
276,120,22443,1,0,0:0:0:0:
276,257,22604,1,0,0:0:0:0:
276,120,22765,5,0,0:0:0:0:
196,232,22927,1,0,0:0:0:0:
325,189,23088,1,0,0:0:0:0:
196,147,23249,1,0,0:0:0:0:
276,257,23411,1,0,0:0:0:0:
276,120,23572,5,0,0:0:0:0:
142,272,24378,6,0,P|209:257|280:257,1,135.000005149842,2|0,0:0|0:0,0:0:0:0:
429,356,24862,2,0,P|417:288|414:218,1,135.000005149842,2|0,0:0|0:0,0:0:0:0:
342,121,25346,1,0,0:0:0:0:
307,324,25507,1,0,0:0:0:0:
149,162,25669,6,0,P|216:177|287:177,1,135.000005149842,4|0,0:1|0:0,0:0:0:0:
418,87,26152,2,0,P|370:41|305:48,1,135.000005149842
266,266,26636,1,0,0:0:0:0:
211,78,26798,1,0,0:0:0:0:
446,171,26959,6,0,P|374:176|312:188,2,135.000005149842,2|0|0,0:0|0:0|0:0,0:0:0:0:
209,339,27765,2,0,P|172:284|185:220,1,135.000005149842
322,54,28249,6,0,L|311:205,1,135.000005149842,4|0,0:1|0:0,0:0:0:0:
370,308,28733,1,0,0:0:0:0:
230,159,28894,1,0,0:0:0:0:
230,159,29056,1,0,0:0:0:0:
283,304,29217,2,0,P|275:271|255:245,1,67.5000025749208
61,350,29540,6,0,P|120:353|221:370,1,135.000005149842,2|0,0:0|0:0,0:0:0:0:
138,162,30023,2,0,P|71:172|3:176,1,135.000005149842
195,107,30507,2,0,P|216:136|218:176,1,67.5000025749208
325,284,30830,6,0,P|325:216|349:154,1,135.000005149842,4|0,0:1|0:0,0:0:0:0:
495,100,31314,2,0,P|426:97|352:72,1,135.000005149842
259,25,31798,2,0,L|277:108,1,67.5000025749208
201,276,32120,6,0,P|264:256|324:283,1,135.000005149842,2|0,0:0|0:0,0:0:0:0:
496,194,32604,2,0,L|361:212,1,135.000005149842
252,360,33088,1,0,0:0:0:0:
271,134,33249,1,0,0:0:0:0:
456,306,33411,6,0,P|391:297|324:318,1,135.000005149842,4|0,0:1|0:0,0:0:0:0:
176,384,33894,1,0,0:0:0:0:
105,231,34056,2,0,L|240:249,1,135.000005149842
262,109,34540,1,0,0:0:0:0:
453,182,34701,6,0,L|318:200,1,135.000005149842,2|0,0:0|0:0,0:0:0:0:
256,329,35185,2,0,P|331:305|400:322,1,135.000005149842,2|0,0:0|0:0,0:0:0:0:
278,136,35669,2,0,P|253:158|243:189,1,67.5000025749208
168,370,35991,6,0,L|142:227,1,135.000005149842,8|0,0:3|0:0,0:0:0:0:
50,106,36475,2,0,B|66:138|99:153|99:153|66:170|56:204,1,135.000005149842,8|8,0:3|0:3,0:0:0:0:
147,52,36959,1,0,0:0:0:0:
226,230,37120,1,0,0:0:0:0:
367,90,37282,6,0,P|301:93|216:130,1,135.000005149842,2|0,0:0|0:0,0:0:0:0:
423,155,37765,2,0,P|453:94|425:26,1,135.000005149842,2|0,0:0|0:0,0:0:0:0:
340,174,38249,2,0,P|339:218|358:263,1,67.5000025749208,2|0,0:0|0:0,0:0:0:0:
420,335,38572,6,0,P|348:322|269:318,1,135.000005149842,2|0,0:0|0:0,0:0:0:0:
47,230,39056,2,0,P|119:243|198:247,1,135.000005149842,2|0,0:0|0:0,0:0:0:0:
256,207,39540,1,2,0:0:0:0:
256,207,39862,6,0,P|268:239|264:272,1,67.5000025749208,2|0,0:0|0:0,0:0:0:0:
253,130,40185,2,0,P|285:135|312:155,1,67.5000025749208,2|0,0:0|0:0,0:0:0:0:
184,95,40507,2,0,P|205:69|236:55,1,67.5000025749208,2|0,0:0|0:0,0:0:0:0:
120,138,40830,2,0,P|108:106|112:73,1,67.5000025749208,2|0,0:0|0:0,0:0:0:0:
47,242,41152,6,0,P|105:218|186:228,1,135.000005149842,2|0,0:0|0:0,0:0:0:0:
369,294,41636,2,0,P|311:318|265:270,1,135.000005149842,8|2,0:0|0:0,0:0:0:0:
343,137,42120,2,0,L|356:209,1,67.5000025749208,0|2,0:0|0:0,0:0:0:0:
227,112,42443,5,8,0:3:0:0:
355,203,42604,1,2,0:0:0:0:
324,40,42765,1,2,0:0:0:0:
134,188,42927,2,0,P|207:195|272:212,1,135.000005149842,8|2,0:0|0:0,0:0:0:0:
406,301,43411,2,0,P|364:305|322:316,1,67.5000025749208,8|2,0:0|0:0,0:0:0:0:
199,353,43733,5,6,0:0:0:0:
199,353,43894,1,8,0:3:0:0:
451,204,44217,5,8,0:3:0:0:
309,168,44378,1,4,0:3:0:0:
443,114,44540,1,4,0:3:0:0:
367,237,44701,1,4,0:3:0:0:
357,92,44862,1,4,0:3:0:0:
438,329,45023,6,0,P|348:320|248:319,1,180,6|8,0:0|0:0,0:0:0:0:
141,358,45507,1,0,0:0:0:0:
168,240,45669,2,0,P|180:193|185:151,1,90,0|2,0:0|0:0,0:0:0:0:
221,40,45991,1,8,0:0:0:0:
258,237,46152,1,0,0:0:0:0:
12,167,46314,6,0,B|109:199|89:126|184:151,1,180,2|8,0:0|0:0,0:0:0:0:
317,291,46798,2,0,P|336:251|326:201,1,90
147,222,47120,1,0,0:0:0:0:
310,114,47282,2,0,L|398:136,1,90
215,308,47604,6,0,P|126:311|40:337,1,180
330,207,48088,1,0,0:0:0:0:
305,380,48249,2,0,P|304:331|291:273,1,90
256,161,48572,1,0,0:0:0:0:
387,333,48733,1,0,0:0:0:0:
125,322,48894,6,0,P|207:286|296:290,1,180,2|8,0:0|0:0,0:0:0:0:
411,183,49378,1,2,0:0:0:0:
329,116,49540,2,0,L|360:12,1,90
496,258,49862,2,0,P|451:260|412:281,1,90
231,178,50185,6,0,P|250:93|194:26,1,180,2|8,0:0|0:0,0:0:0:0:
320,208,50669,1,0,0:0:0:0:
75,127,50830,2,0,L|182:111,1,90,2|2,0:0|0:0,0:0:0:0:
257,357,51152,2,0,P|279:319|277:275,1,90,8|0,0:0|0:0,0:0:0:0:
258,112,51475,5,2,0:0:0:0:
154,288,51636,1,0,0:0:0:0:
258,112,51798,1,8,0:0:0:0:
360,297,51959,2,0,P|320:275|276:274,1,90,2|0,0:0|0:0,0:0:0:0:
114,183,52282,1,2,0:0:0:0:
258,112,52443,2,0,P|321:102|388:125,1,135,8|0,0:0|0:0,0:0:0:0:
437,184,52765,6,0,B|347:226|351:146|264:185,1,180,2|8,0:0|0:0,0:0:0:0:
463,111,53249,2,0,P|498:137|512:179,1,90
408,51,53572,1,2,0:0:0:0:
462,261,53733,2,0,L|495:367,1,90,8|0,0:0|0:0,0:0:0:0:
437,184,54056,5,2,0:0:0:0:
306,253,54217,1,8,0:0:0:0:
437,184,54378,1,2,0:0:0:0:
241,194,54540,1,8,0:3:0:0:
403,321,54701,1,0,0:0:0:0:
221,278,54862,1,0,0:0:0:0:
362,121,55023,1,0,0:0:0:0:
297,359,55185,1,8,0:0:0:0:
297,359,55265,1,8,0:0:0:0:
297,359,55346,6,0,L|187:376,1,90,2|0,0:0|0:0,0:0:0:0:
53,254,55669,2,0,L|163:271,1,90,8|0,0:0|0:0,0:0:0:0:
302,140,55991,2,0,P|320:178|313:230,1,90,0|2,0:0|0:0,0:0:0:0:
238,280,56314,1,8,0:0:0:0:
188,104,56475,1,2,0:0:0:0:
395,143,56636,6,0,P|318:107|396:96,1,180,2|8,0:0|0:0,0:0:0:0:
485,88,57120,1,2,0:0:0:0:
457,281,57282,2,0,L|472:175,1,90,0|2,0:0|0:0,0:0:0:0:
364,313,57604,1,8,0:0:0:0:
512,359,57765,1,2,0:0:0:0:
315,236,57927,6,0,P|284:268|272:311,1,90,2|0,0:0|0:0,0:0:0:0:
151,177,58249,2,0,P|194:187|237:175,1,90,8|2,0:0|0:0,0:0:0:0:
181,348,58572,2,0,P|168:305|137:273,1,90,0|2,0:0|0:0,0:0:0:0:
41,206,58894,1,8,0:0:0:0:
85,354,59056,1,2,0:0:0:0:
293,193,59217,6,0,L|111:174,1,180,2|8,0:0|0:0,0:0:0:0:
348,272,59701,2,0,P|389:196|347:113,1,180,2|2,0:0|0:0,0:0:0:0:
179,51,60185,1,8,0:0:0:0:
293,193,60346,1,2,0:0:0:0:
288,29,60507,5,8,0:0:0:0:
181,209,60669,1,2,0:0:0:0:
352,117,60830,1,2,0:0:0:0:
137,132,60991,2,0,P|95:207|138:282,1,180,8|2,0:0|0:0,0:0:0:0:
271,71,61475,1,8,0:0:0:0:
329,252,61636,6,0,L|426:262,2,90,2|8|2,0:0|0:0|0:0,0:0:0:0:
279,338,62120,1,2,0:0:0:0:
470,194,62282,2,0,P|497:229|501:274,1,90,8|0,0:0|0:0,0:0:0:0:
320,160,62604,1,2,0:0:0:0:
384,332,62765,1,8,0:0:0:0:
345,87,62927,1,0,0:0:0:0:
196,284,63088,6,0,B|127:283|127:283|90:267|90:267|19:267,1,180,2|8,0:0|0:0,0:0:0:0:
229,363,63572,2,0,P|277:292|238:212,1,180,2|2,0:0|0:0,0:0:0:0:
137,74,64056,2,0,L|158:199,1,90
196,284,64378,5,8,0:3:0:0:
276,81,64540,1,4,0:3:0:0:
276,81,64620,1,4,0:3:0:0:
276,81,64701,1,4,0:3:0:0:
58,153,64862,1,8,0:3:0:0:
340,228,65023,1,0,0:0:0:0:
58,153,65185,1,0,0:0:0:0:
340,228,65346,1,0,0:0:0:0:
197,77,65507,1,8,0:3:0:0:
197,77,65588,1,8,0:3:0:0:
196,77,65669,6,0,P|144:145|178:224,1,180,6|2,0:0|0:0,0:0:0:0:
305,133,66152,1,0,0:0:0:0:
369,327,66314,2,0,P|324:324|279:328,1,90,2|0,0:0|0:0,0:0:0:0:
88,225,66636,2,0,P|133:228|178:224,1,90,2|0,0:0|0:0,0:0:0:0:
363,198,66959,5,0,0:0:0:0:
234,68,67120,1,0,0:0:0:0:
234,68,67201,1,0,0:0:0:0:
234,68,67282,1,0,0:0:0:0:
178,224,67443,1,0,0:0:0:0:
344,120,67604,2,0,P|387:122|427:151,1,90
512,322,67927,2,0,P|467:324|431:350,1,90
246,333,68249,5,2,0:0:0:0:
103,187,68411,1,8,0:0:0:0:
103,187,68491,1,8,0:0:0:0:
103,187,68572,1,2,0:0:0:0:
315,212,68733,1,0,0:0:0:0:
106,310,68894,1,2,0:0:0:0:
224,90,69056,1,8,0:0:0:0:
224,90,69136,1,8,0:0:0:0:
224,90,69217,1,2,0:0:0:0:
347,327,69378,1,0,0:0:0:0:
204,225,69540,5,2,0:0:0:0:
402,131,69701,1,8,0:0:0:0:
151,120,69862,1,2,0:0:0:0:
385,252,70023,1,8,0:0:0:0:
385,252,70104,1,8,0:0:0:0:
385,252,70185,1,2,0:0:0:0:
314,53,70346,1,8,0:0:0:0:
137,221,70507,5,8,0:0:0:0:
167,214,70587,1,8,0:0:0:0:
199,210,70668,1,8,0:0:0:0:
230,208,70748,1,8,0:0:0:0:
261,209,70829,1,6,0:0:0:0:
468,255,72120,5,4,0:1:0:0:
167,133,73411,5,12,0:0:0:0:
414,174,73572,2,0,P|430:133|417:91,1,90,2|2,0:0|0:0,0:0:0:0:
101,91,73894,2,0,P|84:132|98:174,1,90,2|2,0:0|0:0,0:0:0:0:
250,306,74217,1,0,0:0:0:0:
256,32,74378,1,8,0:0:0:0:
322,311,74540,6,0,P|179:325|308:262,1,405,10|2,0:0|0:0,0:0:0:0:
315,208,76959,6,0,B|364:188|371:136|371:136|325:114|283:147,1,188.999994232178
269,257,77282,6,0,B|301:297|353:288|353:288|360:237|315:208,1,188.999994232178
208,230,77765,6,0,B|179:272|204:318|204:318|255:309|269:258,1,188.999994232178
219,163,78249,6,0,B|168:148|132:186|132:186|156:232|209:230,1,188.999994232178
286,153,78572,6,0,B|284:100|237:77|237:77|201:114|219:164,1,188.999994232178,4|8,0:1|0:0,0:0:0:0:
291,365,79056,1,0,0:0:0:0:
408,174,79217,2,0,P|413:119|424:52,1,107.999996704102,2|0,0:0|0:0,0:0:0:0:
269,256,79540,1,8,0:0:0:0:
465,306,79701,1,0,0:0:0:0:
226,175,79862,6,0,P|187:212|179:265,1,107.999996704102,2|0,0:0|0:0,0:0:0:0:
382,323,80185,1,8,0:0:0:0:
300,68,80346,1,0,0:0:0:0:
300,68,80427,1,8,0:0:0:0:
300,68,80507,1,0,0:0:0:0:
105,238,80669,1,0,0:0:0:0:
347,248,80830,1,8,0:0:0:0:
196,30,80991,1,0,0:0:0:0:
100,330,81152,6,0,B|149:326|180:291|180:291|240:327|299:327,1,215.999993408203,2|8,0:0|0:0,0:0:0:0:
105,238,81636,1,0,0:0:0:0:
371,277,81798,2,0,P|386:329|370:380,1,107.999996704102,2|0,0:0|0:0,0:0:0:0:
331,110,82120,1,8,0:0:0:0:
297,326,82282,1,0,0:0:0:0:
247,43,82443,5,6,0:0:0:0:
495,157,82604,1,8,0:0:0:0:
495,157,82685,1,8,0:0:0:0:
495,157,82765,1,8,0:0:0:0:
234,289,82927,2,0,L|255:117,1,161.999995056153,2|0,0:0|0:0,0:0:0:0:
399,64,83249,2,0,P|407:126|359:186,1,107.999996704102,6|0,0:0|0:0,0:0:0:0:
97,95,83572,2,0,P|68:94|43:87,1,53.9999983520508,2|8,0:0|0:0,0:0:0:0:
119,194,83733,6,0,P|213:154|290:225,1,215.999993408203,6|8,0:0|0:0,0:0:0:0:
328,53,84217,1,0,0:0:0:0:
198,245,84378,1,2,0:0:0:0:
432,181,84540,1,0,0:0:0:0:
167,109,84701,1,8,0:0:0:0:
432,181,84862,1,0,0:0:0:0:
120,283,85023,5,2,0:0:0:0:
328,53,85185,1,0,0:0:0:0:
311,364,85346,1,8,0:0:0:0:
55,130,85507,1,0,0:0:0:0:
389,257,85669,5,2,0:0:0:0:
85,362,85830,1,0,0:0:0:0:
205,52,85991,1,8,0:0:0:0:
396,350,86152,1,0,0:0:0:0:
80,219,86314,6,0,P|147:140|249:169,1,215.999993408203,2|8,0:0|0:0,0:0:0:0:
306,347,86798,1,0,0:0:0:0:
434,159,86959,1,2,0:0:0:0:
176,232,87120,1,8,0:0:0:0:
176,232,87201,1,8,0:0:0:0:
176,232,87282,1,8,0:0:0:0:
437,270,87443,5,8,0:0:0:0:
111,117,87604,1,2,0:0:0:0:
348,257,87765,5,8,0:0:0:0:
86,313,87927,1,2,0:0:0:0:
332,120,88088,5,8,0:0:0:0:
29,207,88249,1,2,0:0:0:0:
272,335,88411,5,8,0:0:0:0:
272,335,88491,1,8,0:0:0:0:
272,335,88572,1,2,0:0:0:0:
190,51,88733,2,0,L|179:103,1,53.9999983520508,2|2,0:0|0:0,0:0:0:0:
148,264,88894,5,0,0:0:0:0:
148,264,89217,2,0,B|203:242|203:242|268:254,1,107.999996704102,6|0,0:1|0:0,0:0:0:0:
423,346,89540,2,0,P|426:290|434:229,1,107.999996704102,2|2,0:0|0:0,0:0:0:0:
346,96,89862,1,8,0:0:0:0:
288,341,90023,1,0,0:0:0:0:
83,176,90185,6,0,P|194:173|253:274,1,215.999993408203,2|8,0:0|0:0,0:0:0:0:
207,381,90669,1,2,0:0:0:0:
317,191,90830,2,0,P|309:139|327:88,1,107.999996704102
432,33,91152,1,8,0:0:0:0:
484,300,91314,1,0,0:0:0:0:
251,251,91475,6,0,B|143:203|143:299|43:251,1,215.999993408203,2|8,0:0|0:0,0:0:0:0:
93,152,91959,1,0,0:0:0:0:
197,350,92120,1,2,0:0:0:0:
266,111,92282,1,2,0:0:0:0:
43,251,92443,1,8,0:0:0:0:
338,217,92604,1,2,0:0:0:0:
176,54,92765,5,6,0:0:0:0:
278,310,92927,1,8,0:0:0:0:
327,329,93007,1,8,0:0:0:0:
380,322,93088,1,8,0:0:0:0:
424,291,93168,1,8,0:0:0:0:
447,242,93249,1,2,0:0:0:0:
278,33,93411,5,0,0:0:0:0:
193,321,93572,1,12,0:0:0:0:
278,33,93733,5,0,0:0:0:0:
193,321,93894,1,12,0:0:0:0:
31,98,94056,6,0,P|124:101|251:145,1,215.999993408203,4|8,0:0|0:0,0:0:0:0:
408,317,94540,1,2,0:0:0:0:
365,56,94701,1,8,0:0:0:0:
155,225,94862,1,2,0:0:0:0:
435,181,95023,1,8,0:0:0:0:
135,88,95185,1,2,0:0:0:0:
212,361,95346,5,8,0:0:0:0:
340,148,95507,1,2,0:0:0:0:
41,230,95669,1,8,0:0:0:0:
360,330,95830,5,2,0:0:0:0:
231,46,95991,1,8,0:0:0:0:
212,361,96152,1,2,0:0:0:0:
470,194,96314,5,8,0:0:0:0:
121,198,96475,1,8,0:0:0:0:
121,198,96556,1,8,0:0:0:0:
121,198,96636,6,0,B|183:171|183:171|331:183,1,215.999993408203,2|0,0:0|0:0,0:0:0:0:
470,194,97120,1,2,0:0:0:0:
200,272,97282,1,8,0:0:0:0:
371,71,97443,1,2,0:0:0:0:
369,337,97604,1,8,0:0:0:0:
155,108,97765,6,0,P|231:95|296:150,1,161.999995056153,2|0,0:0|0:0,0:0:0:0:
191,240,98088,2,0,L|208:186,1,53.9999983520508,4|4,0:3|0:3,0:0:0:0:
310,247,98249,2,0,L|293:298,1,53.9999983520508,4|4,0:3|0:3,0:0:0:0:
204,374,98411,1,4,0:3:0:0:
106,182,98733,5,0,0:0:0:0:
355,87,98894,1,0,0:0:0:0:
106,182,99056,1,0,0:0:0:0:
342,333,99217,6,0,P|442:355|512:280,1,215.999993408203,6|2,0:0|0:0,0:0:0:0:
223,210,99701,1,0,0:0:0:0:
242,373,99862,1,2,0:0:0:0:
411,156,100023,2,0,P|357:156|300:176,1,107.999996704102,12|0,0:0|0:0,0:0:0:0:
90,279,100346,1,12,0:0:0:0:
64,252,101798,6,0,B|168:200|168:297|280:252,1,215.999993408203
296,128,102282,2,0,P|276:87|244:177,1,215.999993408203,6|8,0:0|0:0,0:0:0:0:
443,335,102765,2,0,B|375:343|335:307|335:307|295:343|239:335,1,215.999993408203
380,144,103249,6,0,L|412:260,1,107.999996704102,8|0,0:3|0:0,0:0:0:0:
242,336,103572,1,2,0:0:0:0:
354,63,103733,1,8,0:0:0:0:
496,224,103894,1,4,0:3:0:0:
188,187,104056,1,4,0:3:0:0:
492,80,104217,1,8,0:3:0:0:
402,358,104378,6,0,P|385:245|380:133,1,215.999993408203,6|2,0:0|0:0,0:0:0:0:
134,226,104862,2,0,P|187:236|239:248,1,107.999996704102,2|0,0:0|0:0,0:0:0:0:
485,120,105185,2,0,P|432:133|379:143,1,107.999996704102,12|0,0:0|0:0,0:0:0:0:
166,41,105507,1,12,0:0:0:0:
283,349,106959,6,0,P|302:310|302:265,1,90,6|0,0:0|0:0,0:0:0:0:
69,126,107282,2,0,P|49:165|49:210,1,90,8|0,0:0|0:0,0:0:0:0:
176,330,107604,1,2,0:0:0:0:
262,115,107765,1,0,0:0:0:0:
301,264,107927,1,8,0:0:0:0:
129,186,108088,1,0,0:0:0:0:
371,207,108249,6,0,P|391:252|389:296,1,90,2|0,0:0|0:0,0:0:0:0:
162,255,108572,1,8,0:0:0:0:
333,132,108733,1,0,0:0:0:0:
333,132,108814,1,8,0:0:0:0:
333,132,108894,1,2,0:0:0:0:
329,346,109056,1,0,0:0:0:0:
226,212,109217,1,8,0:0:0:0:
455,237,109378,1,0,0:0:0:0:
348,50,109540,5,2,0:0:0:0:
307,258,109701,1,0,0:0:0:0:
503,149,109862,2,0,L|413:154,1,90,8|0,0:0|0:0,0:0:0:0:
238,130,110185,1,2,0:0:0:0:
413,153,110346,1,0,0:0:0:0:
160,72,110507,2,0,P|143:117|154:176,1,90,8|0,0:0|0:0,0:0:0:0:
449,356,110830,6,0,L|460:176,1,180,2|8,0:0|0:0,0:0:0:0:
382,40,111314,1,0,0:0:0:0:
382,40,111394,1,8,0:0:0:0:
382,40,111475,1,2,0:0:0:0:
341,283,111636,1,0,0:0:0:0:
142,135,111798,1,8,0:0:0:0:
371,194,111959,1,0,0:0:0:0:
371,194,112040,1,8,0:0:0:0:
371,194,112120,6,0,L|471:173,1,90,4|0,0:0|0:0,0:0:0:0:
220,103,112443,1,8,0:0:0:0:
279,328,112604,1,0,0:0:0:0:
334,57,112765,1,2,0:0:0:0:
124,176,112927,1,0,0:0:0:0:
371,194,113088,1,8,0:0:0:0:
129,77,113249,1,0,0:0:0:0:
187,322,113411,5,2,0:0:0:0:
409,112,113572,1,0,0:0:0:0:
47,126,113733,1,8,0:0:0:0:
341,265,113894,1,0,0:0:0:0:
190,27,114056,1,2,0:0:0:0:
89,285,114217,1,0,0:0:0:0:
341,165,114378,1,8,0:0:0:0:
47,126,114540,1,0,0:0:0:0:
269,361,114701,6,0,L|260:270,1,90,2|0,0:0|0:0,0:0:0:0:
243,56,115023,1,8,0:0:0:0:
424,217,115185,1,0,0:0:0:0:
151,160,115346,1,2,0:0:0:0:
419,99,115507,1,8,0:0:0:0:
419,99,115588,1,8,0:0:0:0:
419,99,115669,1,8,0:0:0:0:
267,320,115830,1,8,0:0:0:0:
346,26,115991,5,2,0:0:0:0:
453,298,116152,1,12,0:0:0:0:
151,160,116314,5,2,0:0:0:0:
424,217,116475,1,12,0:0:0:0:
150,323,116636,5,2,0:0:0:0:
333,112,116798,1,8,0:0:0:0:
333,112,116878,1,8,0:0:0:0:
333,112,116959,1,8,0:0:0:0:
365,360,117120,1,8,0:0:0:0:
90,260,117282,5,6,0:0:0:0:
119,248,117362,1,0,0:0:0:0:
149,241,117443,1,0,0:0:0:0:
181,239,117523,1,0,0:0:0:0:
212,243,117604,1,8,0:0:0:0:
242,252,117685,1,0,0:0:0:0:
271,265,117765,1,0,0:0:0:0:
297,283,117846,1,0,0:0:0:0:
319,305,117927,5,2,0:0:0:0:
305,276,118007,1,0,0:0:0:0:
297,246,118088,1,0,0:0:0:0:
297,214,118168,1,0,0:0:0:0:
303,183,118249,1,8,0:0:0:0:
315,155,118330,1,0,0:0:0:0:
334,129,118410,1,0,0:0:0:0:
357,108,118491,1,0,0:0:0:0:
385,93,118572,6,0,P|412:84|445:89,3,45,2|0|0|0,0:0|0:0|0:0|0:0,0:0:0:0:
503,77,118894,2,0,P|503:99|495:120,3,45,8|0|0|8,0:0|0:0|0:0|0:0,0:0:0:0:
419,236,119217,5,2,0:0:0:0:
390,223,119297,1,0,0:0:0:0:
360,214,119378,1,0,0:0:0:0:
328,211,119458,1,0,0:0:0:0:
297,217,119539,1,8,0:0:0:0:
267,226,119620,1,0,0:0:0:0:
236,227,119700,1,0,0:0:0:0:
205,220,119781,1,0,0:0:0:0:
176,208,119862,6,0,P|137:182|110:141,1,90,2|0,0:0|0:0,0:0:0:0:
260,44,120185,2,0,L|250:148,1,90,8|0,0:0|0:0,0:0:0:0:
226,329,120507,1,2,0:0:0:0:
328,211,120669,1,0,0:0:0:0:
112,147,120830,2,0,P|93:187|99:231,1,90,8|0,0:0|0:0,0:0:0:0:
311,364,121152,6,0,P|316:318|290:271,1,90,2|0,0:0|0:0,0:0:0:0:
251,133,121475,1,8,0:0:0:0:
204,337,121636,1,0,0:0:0:0:
204,337,121717,1,8,0:0:0:0:
204,337,121798,1,2,0:0:0:0:
385,229,121959,1,0,0:0:0:0:
216,62,122120,2,0,P|174:113|186:177,1,135,8|8,0:0|0:0,0:0:0:0:
340,142,122443,6,0,L|245:132,1,90,6|8,0:0|0:0,0:0:0:0:
96,121,122765,1,2,0:0:0:0:
294,43,122927,1,8,0:0:0:0:
262,241,123088,1,2,0:0:0:0:
145,27,123249,1,8,0:0:0:0:
340,142,123411,1,2,0:0:0:0:
117,235,123572,1,8,0:0:0:0:
387,62,123733,5,6,0:0:0:0:
176,135,123894,1,8,0:0:0:0:
176,135,123975,1,8,0:0:0:0:
176,135,124056,1,2,0:0:0:0:
430,204,124217,1,8,0:0:0:0:
247,52,124378,1,2,0:0:0:0:
281,290,124540,1,8,0:0:0:0:
382,95,124701,1,2,0:0:0:0:
152,208,124863,1,8,0:0:0:0:
152,208,125023,6,0,B|236:252|236:172|325:209,1,180,2|2,0:0|0:0,0:0:0:0:
109,285,125507,2,0,P|64:211|101:133,1,180,8|2,0:0|0:0,0:0:0:0:
226,66,125991,1,0,0:0:0:0:
271,343,126152,1,6,0:0:0:0:
256,192,126233,12,0,132765,0:0:0:0:
