osu file format v14

[General]
AudioFilename: audio.mp3
AudioLeadIn: 0
PreviewTime: 223487
Countdown: 0
SampleSet: Soft
StackLeniency: 0.7
Mode: 0
LetterboxInBreaks: 0
WidescreenStoryboard: 1

[Editor]
Bookmarks: 39293,83164,180745,207035,212196,216067,230987,231148,235987,248325,262358
DistanceSpacing: 2
BeatDivisor: 4
GridSize: 16
TimelineZoom: 2.4

[Metadata]
Title:Euphorium
TitleUnicode:ユーフォリアム
Artist:Suzuyu
ArtistUnicode:鈴湯
Creator:GodKei
Version:Dream
Source:アストラエアの白き永遠 Finale -白き星の夢-
Tags:Astral Air no Shiroki Towa Finale Hoshi no Yume Galgame Eroge Visual Novel Opening Full Version j-pop pop jpop japanese rock MiyohashiKoori Kyle Y climbx3145
BeatmapID:2691949
BeatmapSetID:1297647

[Difficulty]
HPDrainRate:5.5
CircleSize:4
OverallDifficulty:9.2
ApproachRate:9.4
SliderMultiplier:1.86
SliderTickRate:1

[Events]
//Background and Video events
0,0,"BG.jpg",0,0
//Break Periods
//Storyboard Layer 0 (Background)
//Storyboard Layer 1 (Fail)
//Storyboard Layer 2 (Pass)
//Storyboard Layer 3 (Foreground)
//Storyboard Layer 4 (Overlay)
//Storyboard Sound Samples

[TimingPoints]
584,322.58064516129,4,2,1,40,1,0
584,-125,4,2,1,40,0,0
5745,-125,4,2,1,55,0,0
6229,-125,4,2,1,55,0,0
9776,-125,4,2,1,5,0,0
9858,-125,4,2,1,55,0,0
10906,-100,4,2,1,60,0,0
15503,-100,4,2,1,5,0,0
15583,-100,4,2,1,60,0,0
16067,-100,4,2,1,70,0,0
21390,-125,4,2,1,40,0,0
23809,-166.666666666667,4,2,1,45,0,0
34132,-166.666666666667,4,2,1,50,0,0
39293,-125,4,2,1,50,0,0
44454,-125,4,2,1,55,0,0
54777,-111.111111111111,4,2,1,60,0,0
58567,-111.111111111111,4,2,1,5,0,0
58648,-111.111111111111,4,2,1,60,0,0
65100,-111.111111111111,4,2,1,55,0,0
72842,-111.111111111111,4,2,1,70,0,0
76390,-76.9230769230769,4,2,1,70,0,0
76632,-76.9230769230769,4,2,1,5,0,0
76713,-128.205128205128,4,2,1,70,0,0
77116,-128.205128205128,4,2,1,5,0,0
77196,-128.205128205128,4,2,1,70,0,0
77600,-128.205128205128,4,2,1,5,0,0
77680,-76.9230769230769,4,2,1,70,0,0
77922,-76.9230769230769,4,2,1,5,0,0
78003,-76.9230769230769,4,2,1,80,0,1
78245,-76.9230769230769,4,2,1,5,0,1
78325,-90.9090909090909,4,2,1,80,0,1
82680,-111.111111111111,4,2,1,80,0,1
83164,-90.9090909090908,4,2,1,80,0,1
83809,-90.9090909090909,4,2,1,80,0,1
84051,-90.9090909090909,4,2,1,5,0,1
84132,-90.9090909090909,4,2,1,80,0,1
84696,-90.9090909090909,4,2,1,5,0,1
84777,-90.9090909090909,4,2,1,80,0,1
85342,-90.9090909090909,4,2,1,5,0,1
85422,-90.9090909090909,4,2,1,80,0,1
88325,-250,4,2,1,80,0,1
88567,-250,4,2,1,5,0,1
88648,-90.9090909090909,4,2,1,80,0,1
88889,-90.9090909090909,4,2,1,5,0,1
88971,-90.9090909090909,4,2,1,80,0,1
91148,-90.9090909090909,4,2,1,5,0,1
91229,-90.9090909090909,4,2,1,80,0,1
96067,-111.111111111111,4,2,1,70,0,0
97922,-111.111111111111,4,2,1,5,0,0
98164,-111.111111111111,4,2,1,70,0,0
101229,-166.666666666667,4,2,1,40,0,0
101874,-166.666666666667,4,2,1,40,0,0
104454,-166.666666666667,4,2,1,40,0,0
105100,-166.666666666667,4,2,1,40,0,0
105745,-166.666666666667,4,2,1,40,0,0
106390,-125,4,2,1,40,0,0
107358,-125,4,2,1,40,0,0
109293,-125,4,2,1,40,0,0
111551,-125,4,2,1,55,0,0
113164,-125,4,2,1,55,0,0
115422,-125,4,2,1,55,0,0
118003,-125,4,2,1,55,0,0
118325,-125,4,2,1,55,0,0
119293,-125,4,2,1,55,0,0
119616,-125,4,2,1,55,0,0
120583,-125,4,2,1,55,0,0
121874,-111.111111111111,4,2,1,60,0,0
125664,-111.111111111111,4,2,1,5,0,0
125745,-111.111111111111,4,2,1,60,0,0
132196,-111.111111111111,4,2,1,55,0,0
139938,-111.111111111111,4,2,1,70,0,0
141229,-128.205128205128,4,2,1,70,0,0
141632,-128.205128205128,4,2,1,5,0,0
141713,-128.205128205128,4,2,1,70,0,0
142116,-128.205128205128,4,2,1,5,0,0
142196,-76.9230769230769,4,2,1,70,0,0
142438,-76.9230769230769,4,2,1,5,0,0
142519,-76.9230769230769,4,2,1,80,0,1
142761,-76.9230769230769,4,2,1,5,0,1
142842,-90.9090909090909,4,2,1,80,0,1
143164,-90.9090909090909,4,2,1,80,0,1
143487,-90.9090909090909,4,2,1,80,0,1
144132,-90.9090909090909,4,2,1,80,0,1
145422,-90.9090909090909,4,2,1,80,0,1
145745,-90.9090909090909,4,2,1,80,0,1
146067,-90.9090909090909,4,2,1,80,0,1
147196,-111.111111111111,4,2,1,80,0,1
147680,-90.9090909090909,4,2,1,80,0,1
148003,-90.9090909090909,4,2,1,80,0,1
148325,-90.9090909090909,4,2,1,80,0,1
148567,-90.9090909090909,4,2,1,5,0,1
148648,-90.9090909090909,4,2,1,80,0,1
148971,-90.9090909090909,4,2,1,80,0,1
149213,-90.9090909090909,4,2,1,5,0,1
149293,-90.9090909090909,4,2,1,80,0,1
149616,-90.9090909090909,4,2,1,80,0,1
149858,-90.9090909090909,4,2,1,5,0,1
149938,-90.9090909090909,4,2,1,80,0,1
150261,-90.9090909090909,4,2,1,80,0,1
150583,-90.9090909090909,4,2,1,80,0,1
153083,-90.9090909090909,4,2,1,5,0,1
153164,-90.9090909090909,4,2,1,80,0,1
153487,-90.9090909090909,4,2,1,80,0,1
153809,-90.9090909090909,4,2,1,80,0,1
155664,-90.9090909090909,4,2,1,5,0,1
155745,-90.9090909090909,4,2,1,80,0,1
156067,-90.9090909090909,4,2,1,80,0,1
157842,-90.9090909090909,4,2,1,80,0,1
160583,-111.111111111111,4,2,1,70,0,0
165745,-100,4,2,1,75,0,0
168648,-100,4,2,1,75,0,0
171229,-100,4,2,1,75,0,0
171713,-100,4,2,1,75,0,0
172196,-100,4,2,1,75,0,0
172680,-100,4,2,1,75,0,0
173809,-100,4,2,1,75,0,0
174293,-100,4,2,1,75,0,0
180745,-166.666666666667,4,2,1,40,0,0
185422,-166.666666666667,4,2,1,40,0,0
186067,-166.666666666667,4,2,1,40,0,0
186874,-166.666666666667,4,2,1,40,0,0
187358,-166.666666666667,4,2,1,40,0,0
188164,-166.666666666667,4,2,1,40,0,0
188648,-166.666666666667,4,2,1,40,0,0
189454,-166.666666666667,4,2,1,40,0,0
191551,-125,4,2,1,50,0,0
192035,-125,4,2,1,50,0,0
195100,-125,4,2,1,50,0,0
197035,-125,4,2,1,50,0,0
197680,-125,4,2,1,50,0,0
198325,-125,4,2,1,50,0,0
200583,-125,4,2,1,50,0,0
202196,-125,4,2,1,50,0,0
203164,-125,4,2,1,50,0,0
207035,-166.666666666667,4,2,1,40,0,0
208971,-166.666666666667,4,2,1,40,0,0
210583,-166.666666666667,4,2,1,40,0,0
212196,-125,4,2,1,55,0,0
212519,-125,4,2,1,55,0,0
213003,-125,4,2,1,55,0,0
213487,-125,4,2,1,55,0,0
214777,-111.111111111111,4,2,1,60,0,0
216067,-100,4,2,1,60,0,0
217358,-100,4,2,1,70,0,0
219938,-100,4,2,1,85,0,0
223809,-100,4,2,1,50,0,0
225100,-125,4,2,1,50,0,0
225583,-125,4,2,1,50,0,0
226067,-125,4,2,1,50,0,0
226713,-125,4,2,1,50,0,0
227519,-125,4,2,1,50,0,0
228164,-125,4,2,1,50,0,0
228648,-125,4,2,1,50,0,0
230261,-100,4,2,1,70,0,0
232842,-100,4,2,1,80,0,0
234454,-76.9230769230769,4,2,1,80,0,0
234696,-76.9230769230769,4,2,1,5,0,0
234777,-166.666666666667,4,2,1,80,0,0
235019,-166.666666666667,4,2,1,5,0,0
235100,-76.9230769230769,4,2,1,80,0,0
235342,-76.9230769230769,4,2,1,5,0,0
235422,-166.666666666667,4,2,1,80,0,0
235664,-166.666666666667,4,2,1,5,0,0
235745,-76.9230769230769,4,2,1,70,0,1
235987,-76.9230769230769,4,2,1,5,0,1
236067,-90.9090909090909,4,2,1,70,0,1
236390,-90.9090909090909,4,2,1,70,0,1
238245,-90.9090909090909,4,2,1,5,0,1
238325,-90.9090909090909,4,2,1,70,0,1
238648,-90.9090909090909,4,2,1,70,0,1
240422,-90.9090909090909,4,2,1,70,0,1
243164,-111.111111111111,4,2,1,70,0,0
245019,-111.111111111111,4,2,1,5,0,0
245261,-111.111111111111,4,2,1,70,0,0
248325,-99.9999999999999,4,2,1,70,0,0
248648,-100,4,2,1,70,0,0
249132,-100,4,2,1,70,0,0
249616,-100,4,2,1,70,0,0
251229,-100,4,2,1,70,0,0
251713,-100,4,2,1,70,0,0
253487,-100,4,2,1,65,0,0
253729,-100,4,2,1,5,0,0
253809,-100,4,2,1,65,0,0
254132,-100,4,2,1,65,0,0
254454,-100,4,2,1,65,0,0
255100,-100,4,2,1,65,0,0
255745,-100,4,2,1,65,0,0
256309,-100,4,2,1,5,0,0
256390,-100,4,2,1,65,0,0
256713,-100,4,2,1,65,0,0
257035,-100,4,2,1,65,0,0
257680,-100,4,2,1,65,0,0
258164,-100,4,2,1,5,0,0
258325,-100,4,2,1,65,0,0
258890,-100,4,2,1,5,0,0
258971,-100,4,2,1,65,0,0
259293,-100,4,2,1,65,0,0
259616,-100,4,2,1,65,0,0
259938,-100,4,2,1,65,0,0
260261,-100,4,2,1,65,0,0
260583,-100,4,2,1,65,0,0
260906,-100,4,2,1,65,0,0
261229,-100,4,2,1,65,0,0
262358,-90.9090909090909,4,2,1,65,0,0
263809,-100,4,2,1,70,0,0
266067,-100,4,2,1,70,0,0
266390,-100,4,2,1,70,0,0
266713,-100,4,2,1,70,0,0
267035,-100,4,2,1,70,0,0
267358,-100,4,2,1,70,0,0
267680,-100,4,2,1,70,0,0
268648,-100,4,2,1,70,0,0
271551,-100,4,2,1,60,0,0
271554,-100,4,2,1,60,0,0
271874,-100,4,2,1,60,0,0

[Colours]
Combo1 : 83,162,172
Combo2 : 228,27,133
Combo3 : 72,117,183
Combo4 : 217,136,38

[HitObjects]
228,117,584,5,2,0:0:0:0:
228,117,745,2,0,L|196:24,2,74.4
314,136,1229,5,2,0:0:0:0:
314,136,1390,2,0,L|378:61,2,74.4
340,219,1874,5,2,0:0:0:0:
340,219,2035,2,0,L|436:237,2,74.4
281,283,2519,5,2,0:0:0:0:
281,283,2680,2,0,L|312:376,2,74.4
196,263,3164,5,2,0:0:0:0:
196,263,3325,2,0,L|131:337,2,74.4
170,179,3809,5,2,0:0:0:0:
170,179,3970,2,0,L|73:160,2,74.4
196,263,4454,5,2,0:0:0:0:
281,283,4616,1,2,0:0:0:0:
340,219,4777,1,2,0:0:0:0:
314,136,4938,1,2,0:0:0:0:
228,117,5422,6,0,L|211:67,3,37.2,2|0|0|0,0:0|0:0|0:0|0:0,0:0:0:0:
194,51,5745,6,0,P|116:51|43:53,1,148.8,4|0,1:2|0:0,0:0:0:0:
1,167,6229,1,2,1:2:0:0:
1,167,6309,1,2,0:0:0:0:
1,167,6390,1,0,0:0:0:0:
89,192,6551,1,8,3:2:0:0:
154,128,6713,1,2,0:0:0:0:
112,281,6874,6,0,P|186:279|260:279,1,148.8,12|2,0:2|0:0,0:0:0:0:
386,364,7358,1,10,0:0:0:0:
291,360,7519,1,10,0:0:0:0:
437,284,7680,1,2,0:0:0:0:
481,368,7842,1,0,1:2:0:0:
342,280,8003,1,2,1:2:0:0:
393,200,8164,1,2,1:2:0:0:
272,21,8325,6,0,P|314:60|303:146,1,148.8,6|0,1:2|1:2,0:0:0:0:
136,151,8809,1,8,0:0:0:0:
241,94,8971,1,2,0:0:0:0:
237,214,9132,1,8,0:2:0:0:
140,31,9293,1,2,0:0:0:0:
1,250,9454,6,0,P|47:247|163:247,1,148.8,12|0,0:0|0:0,0:0:0:0:
207,312,9858,1,0,0:0:0:0:
207,312,9938,2,0,L|258:308,3,37.2,0|0|2|0,1:2|0:0|0:0|0:0,0:0:0:0:
275,384,10261,1,10,0:0:0:0:
309,370,10341,1,8,0:0:0:0:
331,341,10422,1,10,0:0:0:0:
336,305,10502,1,8,0:0:0:0:
321,271,10583,1,10,0:0:0:0:
241,94,10906,6,0,P|301:94|437:93,1,186,6|8,1:2|0:0,0:0:0:0:
433,248,11390,1,0,0:0:0:0:
324,186,11551,2,0,P|267:183|211:233,1,93,2|2,1:2|0:0,0:0:0:0:
207,312,11874,1,10,0:0:0:0:
332,340,12035,1,2,0:0:0:0:
86,206,12196,6,0,B|104:244|132:253|132:253|125:378,1,186,2|8,1:2|0:0,0:0:0:0:
6,193,12680,1,0,1:2:0:0:
6,193,12761,1,0,1:2:0:0:
6,193,12842,2,0,P|26:150|134:135,1,139.5,2|0,1:2|0:0,0:0:0:0:
162,172,13164,2,0,L|283:152,1,93,10|0,0:0|0:0,0:0:0:0:
486,85,13487,6,0,P|447:62|384:67,1,93,2|0,1:2|0:0,0:0:0:0:
309,228,13809,1,8,0:0:0:0:
433,235,13971,2,0,L|424:127,1,93,10|0,0:0|0:0,0:0:0:0:
236,320,14293,1,10,0:0:0:0:
360,327,14454,1,8,0:0:0:0:
203,245,14616,6,0,P|170:271|158:344,1,93,14|0,0:0|0:0,0:0:0:0:
309,228,14938,1,2,0:2:0:0:
308,195,15018,1,2,0:2:0:0:
308,162,15099,1,0,1:2:0:0:
307,130,15179,1,0,0:0:0:0:
307,97,15261,2,0,P|287:56|178:49,1,139.5,12|0,0:0|0:0,0:0:0:0:
143,123,15583,2,0,P|189:126|241:95,1,93,12|0,0:0|0:0,0:0:0:0:
363,24,15906,1,8,0:0:0:0:
42,43,16067,5,12,0:0:0:0:
209,223,16229,1,0,0:0:0:0:
134,52,16390,1,8,0:0:0:0:
13,226,16551,2,0,P|74:224|119:226,1,93,2|8,1:2|0:0,0:0:0:0:
294,126,16874,2,0,P|233:124|188:126,1,93,2|8,1:2|0:0,0:0:0:0:
21,136,17196,1,2,1:2:0:0:
297,265,17358,5,8,0:0:0:0:
201,125,17519,1,0,1:2:0:0:
216,320,17680,1,8,0:0:0:0:
378,210,17842,1,0,1:2:0:0:
209,223,18003,1,8,0:0:0:0:
181,229,18083,1,0,0:0:0:0:
157,243,18164,1,0,1:2:0:0:
138,262,18244,1,0,0:0:0:0:
125,287,18325,1,8,0:0:0:0:
119,314,18406,1,0,0:0:0:0:
121,342,18486,1,0,1:2:0:0:
420,279,18648,6,0,P|460:228|453:184,1,93,12|0,0:0|1:2,0:0:0:0:
324,45,18971,1,0,0:0:0:0:
285,222,19132,2,0,P|361:211|392:209,1,93,14|0,0:0|1:2,0:0:0:0:
452,58,19454,2,0,L|405:52,1,46.5,10|8,0:0|0:0,0:0:0:0:
217,108,19616,2,0,L|263:101,1,46.5,10|0,0:0|0:0,0:0:0:0:
355,133,19777,5,14,0:0:0:0:
256,192,19938,12,0,21229,0:0:0:0:
103,205,21390,6,0,P|63:209|26:234,2,74.4,2|0|0,0:0|0:0|0:0,0:0:0:0:
193,268,21874,6,0,P|209:231|206:186,2,74.4,2|0|0,0:0|0:0|0:0,0:0:0:0:
93,314,22358,6,0,P|117:346|157:366,2,74.4,2|0|0,0:0|0:0|0:0,0:0:0:0:
103,205,22842,6,0,P|63:209|26:234,1,74.4,2|2,0:0|0:0,0:0:0:0:
279,30,23809,6,0,P|333:47|362:91,2,111.599996594238,2|0|0,0:0|0:0|0:0,0:0:0:0:
210,122,24777,2,0,L|265:122,1,55.7999982971192,2|2,0:0|0:0,0:0:0:0:
196,30,25100,2,0,P|142:47|113:91,2,111.599996594238,2|0|0,0:0|0:0|0:0,0:0:0:0:
270,197,26067,2,0,L|214:197,1,55.7999982971192,2|2,0:0|0:0,0:0:0:0:
167,289,26390,6,0,P|204:257|207:177,1,111.599996594238,2|0,0:0|0:0,0:0:0:0:
68,289,27035,2,0,P|77:337|144:379,1,111.599996594238,2|0,0:0|0:0,0:0:0:0:
117,203,27680,2,0,P|70:186|1:224,1,111.599996594238,2|0,0:0|0:0,0:0:0:0:
225,365,28325,2,0,L|287:364,1,55.7999982971192,2|2,0:0|0:0,0:0:0:0:
339,268,28648,2,0,L|270:267,1,55.7999982971192,2|2,0:0|0:0,0:0:0:0:
505,356,28971,6,0,L|501:232,2,111.599996594238,2|0|0,1:2|0:0|0:0,0:0:0:0:
422,231,29938,2,0,L|422:150,1,55.7999982971192,2|0,0:0|0:0,0:0:0:0:
438,43,30261,2,0,P|383:44|342:80,1,111.599996594238,2|2,0:0|0:0,0:0:0:0:
297,153,30745,2,0,L|221:148,1,55.7999982971192,2|0,0:0|0:0,0:0:0:0:
237,52,31067,2,0,L|113:58,1,111.599996594238,2|0,0:0|0:0,0:0:0:0:
9,212,31551,6,0,L|91:212,1,55.7999982971192,2|0,0:0|0:0,0:0:0:0:
148,172,31874,1,2,0:0:0:0:
148,172,32035,2,0,P|150:226|120:273,1,111.599996594238,2|0,0:0|0:0,0:0:0:0:
167,352,32519,1,2,0:0:0:0:
167,352,32842,2,0,L|296:343,1,111.599996594238,2|0,0:0|0:0,0:0:0:0:
400,247,33487,2,0,P|436:271|444:351,1,111.599996594238,2|2,0:0|0:0,0:0:0:0:
315,208,34132,6,0,L|313:92,1,111.599996594238,0|2,1:2|0:0,0:0:0:0:
401,15,34616,1,0,1:2:0:0:
401,15,35100,2,0,L|403:95,1,55.7999982971192,2|2,0:0|1:2,0:0:0:0:
400,163,35422,1,8,0:3:0:0:
489,95,35583,2,0,L|489:34,1,55.7999982971192,8|8,0:3|0:3,0:0:0:0:
313,40,35906,2,0,L|313:95,1,55.7999982971192,8|0,0:3|0:0,0:0:0:0:
315,208,36229,1,8,3:2:0:0:
400,163,36390,1,10,3:2:0:0:
481,214,36551,1,2,1:2:0:0:
401,359,36713,6,0,L|400:242,1,111.599996594238,0|2,1:2|0:0,0:0:0:0:
402,70,37196,1,0,1:2:0:0:
402,70,37680,1,2,1:2:0:0:
312,124,38003,2,0,P|252:124|201:124,1,111.599996594238,2|0,1:2|0:0,0:0:0:0:
71,121,38487,1,2,1:2:0:0:
71,121,38971,1,2,1:2:0:0:
199,211,39293,6,0,P|233:240|240:279,1,74.4,0|0,1:2|0:0,0:0:0:0:
109,359,39616,2,0,P|117:315|147:289,1,74.4,0|0,1:2|0:0,0:0:0:0:
282,362,39938,2,0,P|239:376|202:363,1,74.4,0|0,1:2|0:0,0:0:0:0:
356,286,40261,2,0,P|380:314|385:351,1,74.4,0|0,1:2|0:0,0:0:0:0:
199,211,40583,5,0,1:2:0:0:
307,161,40745,2,0,L|398:161,1,74.4,10|0,0:0|0:0,0:0:0:0:
439,63,41067,2,0,L|267:57,1,148.8,10|0,0:2|1:2,0:0:0:0:
151,31,41551,1,2,0:0:0:0:
228,126,41713,1,0,1:2:0:0:
15,267,41874,5,10,0:2:0:0:
119,197,42035,1,0,1:2:0:0:
42,102,42196,1,0,1:2:0:0:
103,280,42358,5,10,0:0:0:0:
207,210,42519,1,0,0:0:0:0:
135,114,42680,1,0,1:2:0:0:
191,293,42842,5,10,0:0:0:0:
295,223,43003,1,2,1:2:0:0:
119,197,43164,5,4,1:2:0:0:
228,126,43325,2,0,L|323:123,1,74.4,8|0,0:3|1:2,0:0:0:0:
366,278,43648,1,2,1:2:0:0:
390,99,43809,1,2,1:2:0:0:
447,245,43971,1,2,1:2:0:0:
295,223,44132,1,2,1:2:0:0:
460,158,44293,1,2,1:2:0:0:
307,134,44454,6,0,P|291:75|206:44,2,148.8,6|8|0,1:2|0:0|0:0,0:0:0:0:
212,258,45261,1,0,1:2:0:0:
149,169,45422,2,0,P|111:164|63:161,1,74.4,10|2,0:0|0:0,0:0:0:0:
174,327,45745,6,0,P|210:342|255:330,1,74.4,0|0,1:2|0:0,0:0:0:0:
295,223,46067,1,8,0:0:0:0:
466,273,46229,2,0,L|462:365,1,74.4,0|0,1:2|0:0,0:0:0:0:
348,304,46551,1,0,1:2:0:0:
393,212,46713,2,0,L|387:117,1,74.4,8|2,0:0|0:2,0:0:0:0:
337,6,47035,6,0,P|287:10|244:105,2,148.8,2|8|2,1:2|0:0|0:0,0:0:0:0:
461,104,47842,1,0,1:2:0:0:
307,150,48003,2,0,L|309:248,1,74.4,8|0,0:0|0:0,0:0:0:0:
115,351,48325,6,0,P|185:340|219:258,1,148.8,2|8,1:2|0:0,0:0:0:0:
131,173,48809,1,0,1:2:0:0:
50,231,48971,1,2,0:0:0:0:
141,272,49132,1,2,1:2:0:0:
184,102,49293,2,0,P|213:151|216:174,1,74.4,10|0,0:0|0:0,0:0:0:0:
226,30,49616,6,0,P|164:20|99:83,2,148.8,2|8|0,1:2|0:0|0:0,0:0:0:0:
307,158,50422,1,0,1:2:0:0:
383,76,50583,2,0,L|471:73,1,74.4,10|0,0:0|0:0,0:0:0:0:
331,240,50906,6,0,P|366:229|391:202,1,74.4,0|0,1:2|0:0,0:0:0:0:
244,214,51229,1,10,0:0:0:0:
266,299,51390,2,0,P|292:324|328:333,1,74.4,2|0,1:2|0:0,0:0:0:0:
307,158,51713,1,2,1:2:0:0:
182,272,51874,2,0,P|173:307|183:343,1,74.4,8|0,0:0|0:0,0:0:0:0:
387,176,52196,6,0,L|477:176,1,74.4,2|0,1:2|0:0,0:0:0:0:
333,242,52519,1,10,0:0:0:0:
361,92,52680,2,0,L|451:92,1,74.4,2|0,0:0|1:2,0:0:0:0:
307,158,53003,1,2,1:2:0:0:
335,8,53164,2,0,L|425:8,1,74.4,10|0,0:0|0:0,0:0:0:0:
281,74,53487,5,0,1:2:0:0:
307,158,53648,1,0,1:2:0:0:
333,242,53809,1,0,1:2:0:0:
387,176,53971,5,0,1:2:0:0:
249,229,54132,1,2,1:2:0:0:
361,92,54293,1,2,1:2:0:0:
223,145,54454,1,2,1:2:0:0:
333,242,54616,1,0,1:0:0:0:
340,259,54696,1,0,1:2:0:0:
347,277,54777,6,0,P|393:274|440:271,1,83.6999974456788,0|0,1:2|0:0,0:0:0:0:
268,371,55100,2,0,P|305:373|353:375,1,83.6999974456788,8|0,0:0|0:0,0:0:0:0:
177,279,55422,2,0,P|214:281|263:282,1,83.6999974456788,2|0,0:0|1:2,0:0:0:0:
126,363,55745,1,8,0:0:0:0:
79,277,55906,1,2,1:2:0:0:
119,105,56067,6,0,P|73:102|26:99,1,83.6999974456788,2|0,1:2|0:0,0:0:0:0:
198,199,56390,2,0,P|161:201|113:203,1,83.6999974456788,8|0,0:0|1:2,0:0:0:0:
289,107,56712,2,0,P|252:109|203:110,1,83.6999974456788,0|0,0:0|1:2,0:0:0:0:
340,191,57035,1,10,0:0:0:0:
387,105,57196,1,2,1:2:0:0:
252,24,57358,6,0,L|356:22,1,83.6999974456788,2|0,1:2|0:0,0:0:0:0:
438,189,57680,1,10,0:0:0:0:
495,113,57842,2,0,L|486:26,1,83.6999974456788,2|0,1:2|0:0,0:0:0:0:
387,105,58164,1,0,1:2:0:0:
489,273,58325,2,0,P|441:278|353:283,1,125.549996168518,8|0,0:0|0:0,0:0:0:0:
338,354,58648,6,0,B|301:346|287:299|287:299|174:309,1,167.399994891358,2|8,1:2|0:0,0:0:0:0:
31,265,59132,2,0,P|89:276|127:179,1,167.399994891358,2|0,1:2|1:2,0:0:0:0:
206,73,59616,2,0,P|266:67|313:63,1,83.6999974456788,10|0,0:0|1:2,0:0:0:0:
369,266,59938,5,8,0:0:0:0:
371,174,60100,1,0,1:2:0:0:
288,310,60261,1,0,1:2:0:0:
445,215,60422,2,0,P|441:318|366:352,1,167.399994891358,8|0,0:0|1:2,0:0:0:0:
290,218,60906,1,10,0:0:0:0:
373,82,61067,1,2,0:0:0:0:
211,266,61229,5,8,0:0:0:0:
213,174,61391,1,0,1:2:0:0:
288,310,61551,1,0,1:2:0:0:
135,214,61713,2,0,P|126:294|186:348,1,167.399994891358,8|0,0:0|1:2,0:0:0:0:
290,218,62197,1,10,0:0:0:0:
207,82,62358,1,2,0:0:0:0:
379,0,62519,6,0,P|433:29|427:141,1,167.399994891358,2|10,1:2|0:0,0:0:0:0:
196,0,63003,2,0,P|142:29|148:141,1,167.399994891358,2|0,1:2|1:2,0:0:0:0:
296,116,63487,2,0,L|292:15,1,83.6999974456788,10|0,0:0|1:2,0:0:0:0:
15,149,63809,6,0,P|68:148|126:148,1,83.6999974456788,6|0,1:2|1:2,0:0:0:0:
125,168,64051,1,0,1:2:0:0:
125,168,64132,1,0,1:2:0:0:
297,185,64293,1,0,1:2:0:0:
198,262,64454,1,10,1:2:0:0:
220,96,64616,1,8,0:0:0:0:
114,251,64777,1,8,0:0:0:0:
282,273,64938,1,8,0:0:0:0:
293,63,65100,6,0,P|265:28|224:18,1,83.6999974456788,4|0,1:2|0:0,0:0:0:0:
361,116,65422,2,0,P|377:74|365:33,1,83.6999974456788,0|0,1:2|0:0,0:0:0:0:
213,186,65745,2,0,L|317:184,1,83.6999974456788,2|0,1:2|0:0,0:0:0:0:
136,97,66067,2,0,L|240:95,1,83.6999974456788,0|0,1:2|0:0,0:0:0:0:
169,255,66390,6,0,P|136:217|138:168,1,83.6999974456788,0|0,1:2|0:0,0:0:0:0:
208,330,66713,2,0,P|158:339|117:313,1,83.6999974456788,0|0,1:2|0:0,0:0:0:0:
339,267,67035,2,0,L|255:264,1,83.6999974456788,2|0,1:2|0:0,0:0:0:0:
387,356,67358,2,0,L|303:353,1,83.6999974456788,0|0,1:2|0:0,0:0:0:0:
488,252,67680,6,0,L|484:84,2,167.399994891358,2|0|0,1:2|1:2|1:2,0:0:0:0:
390,172,68487,1,0,0:0:0:0:
390,172,68648,2,0,L|389:83,1,83.6999974456788,2|2,1:2|0:0,0:0:0:0:
213,144,68971,5,2,1:2:0:0:
230,26,69132,2,0,P|276:38|304:78,1,83.6999974456788,8|0,0:2|1:2,0:0:0:0:
137,77,69454,1,8,0:0:0:0:
116,77,69534,1,8,0:0:0:0:
95,77,69616,1,10,0:0:0:0:
42,180,69777,1,0,1:2:0:0:
197,234,69938,1,8,0:0:0:0:
238,233,70018,1,8,0:0:0:0:
274,212,70099,1,8,0:0:0:0:
295,177,70179,1,8,0:0:0:0:
296,136,70260,5,14,0:2:0:0:
296,136,71551,5,2,0:0:0:0:
296,136,72680,1,2,0:0:0:0:
296,136,72761,1,2,0:0:0:0:
296,136,72842,5,14,0:0:0:0:
167,119,73003,1,0,1:2:0:0:
297,239,73164,1,0,1:2:0:0:
294,32,73325,5,12,0:0:0:0:
168,222,73487,1,0,1:2:0:0:
384,84,73648,1,2,1:2:0:0:
166,15,73809,1,10,0:2:0:0:
386,187,73971,1,0,1:2:0:0:
256,192,74132,12,2,75422,0:0:0:0:
265,207,76390,6,0,P|356:214|397:133,1,181.349991698456,2|0,0:0|0:0,0:0:0:0:
276,182,76713,6,0,P|312:103|257:36,1,181.349991698456,2|0,0:0|0:0,0:0:0:0:
256,162,77196,6,0,P|186:102|105:144,1,181.349991698456,2|0,0:0|0:0,0:0:0:0:
231,176,77680,6,0,P|155:217|159:303,1,181.349991698456,2|0,0:0|0:0,0:0:0:0:
236,204,78003,6,0,P|253:288|336:310,1,181.349991698456,6|0,1:2|0:0,0:0:0:0:
412,257,78325,2,0,L|408:120,1,102.300003121948,8|0,0:0|0:0,0:0:0:0:
282,40,78648,2,0,P|326:31|398:66,1,102.300003121948,0|0,1:2|0:0,0:0:0:0:
255,163,78971,1,10,0:0:0:0:
177,45,79132,1,2,0:0:0:0:
53,200,79293,6,0,P|130:193|165:189,1,102.300003121948,2|0,1:2|0:0,0:0:0:0:
283,341,79616,2,0,P|206:334|171:330,1,102.300003121948,10|8,0:0|0:0,0:0:0:0:
267,247,79858,1,8,0:0:0:0:
267,247,79938,2,0,P|350:270|373:379,1,204.600006243897,2|8,1:2|0:0,0:0:0:0:
163,260,80422,1,2,0:0:0:0:
339,50,80583,6,0,P|365:107|351:163,1,102.300003121948,2|0,1:2|0:0,0:0:0:0:
174,78,80906,2,0,P|210:26|265:11,1,102.300003121948,8|0,0:0|0:0,0:0:0:0:
255,163,81229,2,0,P|184:161|140:160,1,102.300003121948,0|0,1:2|0:0,0:0:0:0:
28,132,81551,1,10,0:0:0:0:
90,28,81713,1,2,0:0:0:0:
249,245,81874,5,14,0:0:0:0:
431,117,82035,1,10,0:0:0:0:
456,117,82115,1,8,0:0:0:0:
482,117,82196,1,10,0:0:0:0:
378,373,82358,2,0,L|377:300,1,51.1500015609742,6|0,1:2|0:0,0:0:0:0:
55,297,82680,2,0,P|115:271|93:174,1,167.399994891358,4|8,1:2|0:0,0:0:0:0:
28,132,83083,1,8,0:0:0:0:
28,132,83164,6,0,P|30:71|27:15,1,102.300003121948,4|0,1:2|0:0,0:0:0:0:
209,118,83487,2,0,P|207:169|209:220,1,102.300003121948,8|0,0:0|0:0,0:0:0:0:
136,55,83809,2,0,P|207:21|274:49,1,153.450004682922,2|0,1:2|0:0,0:0:0:0:
334,119,84132,2,0,P|387:115|455:121,1,102.300003121948,10|0,0:0|0:0,0:0:0:0:
189,384,84454,6,0,P|188:342|181:224,1,153.450004682922,2|0,1:2|0:0,0:0:0:0:
275,223,84777,2,0,L|281:332,1,102.300003121948,10|0,0:0|0:0,0:0:0:0:
134,137,85100,2,0,P|69:140|23:226,1,153.450004682922,2|0,1:2|0:0,0:0:0:0:
107,254,85422,2,0,P|180:247|230:247,1,102.300003121948,10|0,0:0|0:0,0:0:0:0:
344,24,85745,6,0,P|316:70|321:117,1,102.300003121948,6|0,1:2|0:0,0:0:0:0:
489,330,86067,1,8,0:0:0:0:
507,92,86229,1,2,0:0:0:0:
284,181,86390,1,8,0:0:0:0:
447,212,86551,1,10,0:0:0:0:
472,211,86631,1,8,0:0:0:0:
498,211,86712,1,8,0:0:0:0:
343,383,86874,2,0,L|337:267,1,102.300003121948,12|0,0:0|1:2,0:0:0:0:
257,97,87196,5,12,0:0:0:0:
90,211,87357,1,2,1:2:0:0:
258,270,87519,1,12,0:0:0:0:
156,127,87680,1,2,1:2:0:0:
89,331,87842,1,8,0:0:0:0:
63,331,87922,1,8,0:0:0:0:
37,331,88003,1,2,1:2:0:0:
229,185,88165,1,8,0:2:0:0:
255,185,88245,1,8,2:0:0:0:
281,185,88325,6,0,L|349:184,1,55.8,2|0,1:2|0:0,0:0:0:0:
169,45,88648,2,0,P|129:48|86:178,1,153.450004682922,12|0,0:0|0:0,0:0:0:0:
138,213,88971,2,0,P|198:211|237:169,1,102.300003121948,0|0,1:2|0:0,0:0:0:0:
305,61,89293,1,10,0:0:0:0:
156,127,89454,1,2,0:0:0:0:
436,251,89616,6,0,P|435:188|435:140,1,102.300003121948,2|0,1:2|1:2,0:0:0:0:
504,73,89938,1,10,0:0:0:0:
336,184,90100,1,0,1:2:0:0:
474,325,90261,2,0,B|381:359|390:251|249:330,1,204.600006243897,2|8,0:0|0:0,0:0:0:0:
186,377,90745,1,2,0:0:0:0:
1,207,90906,6,0,B|57:241|57:241|167:185,1,153.450004682922,0|0,1:2|0:0,0:0:0:0:
156,127,91229,2,0,P|223:129|279:131,1,102.300003121948,8|0,0:0|0:0,0:0:0:0:
161,13,91551,2,0,P|94:15|38:17,1,102.300003121948,0|0,1:2|1:2,0:0:0:0:
66,140,91874,1,10,0:0:0:0:
239,47,92035,1,2,1:2:0:0:
148,274,92196,5,14,0:0:0:0:
339,107,92358,1,8,0:0:0:0:
383,111,92438,1,8,0:0:0:0:
416,142,92519,1,8,0:0:0:0:
423,187,92599,1,8,0:0:0:0:
400,226,92680,2,0,P|356:256|288:239,1,102.300003121948,12|2,0:0|0:0,0:0:0:0:
59,358,93003,2,0,P|110:382|176:361,1,102.300003121948,12|0,0:0|0:0,0:0:0:0:
335,182,93325,1,4,1:2:0:0:
108,45,93487,5,6,0:0:0:0:
115,309,93648,1,0,1:2:0:0:
194,26,93809,5,8,0:0:0:0:
201,290,93971,1,0,1:2:0:0:
280,7,94132,5,8,0:0:0:0:
287,271,94293,1,0,1:2:0:0:
367,54,94454,5,10,0:0:0:0:
142,127,94616,1,0,1:2:0:0:
418,138,94777,5,10,0:0:0:0:
195,49,94938,1,0,1:2:0:0:
420,236,95100,5,10,0:0:0:0:
280,7,95261,1,0,1:2:0:0:
372,321,95422,5,10,0:0:0:0:
367,54,95583,1,0,1:2:0:0:
287,370,95745,5,10,0:0:0:0:
418,138,95906,1,0,1:2:0:0:
418,138,95987,1,0,1:2:0:0:
418,138,96067,6,0,P|461:103|439:-17,1,167.399994891358,4|2,1:2|0:0,0:0:0:0:
281,109,96551,1,2,1:2:0:0:
363,212,96713,2,0,P|424:212|470:211,1,83.6999974456788,8|0,0:0|1:2,0:0:0:0:
372,321,97035,1,2,0:0:0:0:
372,321,97196,6,0,P|301:303|183:293,1,167.399994891358,4|8,1:2|0:0,0:0:0:0:
177,213,97600,1,8,0:0:0:0:
177,213,97680,2,0,L|225:211,1,41.8499987228394,8|8,0:0|0:0,0:0:0:0:
167,368,97842,2,0,L|115:369,1,41.8499987228394,8|0,0:0|0:0,0:0:0:0:
1,219,98164,5,2,0:0:0:0:
154,282,98325,1,2,0:0:0:0:
23,384,98487,1,2,0:0:0:0:
260,131,98648,6,0,P|167:131|66:133,1,167.399994891358,6|0,1:2|1:2,0:0:0:0:
146,16,99132,2,0,P|192:15|255:13,1,83.6999974456788,0|0,0:0|1:2,0:0:0:0:
346,82,99454,1,12,0:0:0:0:
107,209,99777,1,12,0:0:0:0:
93,171,101229,6,0,P|150:171|187:133,1,111.599996594238,2|0,0:0|0:0,0:0:0:0:
224,55,101874,2,0,P|288:57|351:64,1,111.599996594238,2|2,0:0|0:0,0:0:0:0:
470,148,102358,1,2,0:0:0:0:
470,148,102519,2,0,L|467:281,2,111.599996594238,2|2|2,0:0|0:0|0:0,0:0:0:0:
406,69,103487,1,2,0:0:0:0:
371,164,103648,1,2,0:0:0:0:
371,164,103809,6,0,P|311:167|247:169,1,111.599996594238,2|0,0:0|0:0,0:0:0:0:
273,273,104454,2,0,P|328:274|384:277,1,111.599996594238,2|0,0:0|0:0,0:0:0:0:
232,343,105100,2,0,P|197:303|207:229,1,111.599996594238,2|0,0:0|0:0,0:0:0:0:
259,168,105745,2,0,L|314:166,1,55.7999982971192,2|2,0:0|0:0,0:0:0:0:
361,56,106067,1,2,0:0:0:0:
361,56,106148,1,0,0:0:0:0:
361,56,106229,1,2,0:0:0:0:
361,56,106309,1,0,0:0:0:0:
361,56,106390,6,0,P|301:60|193:65,1,148.8,6|2,1:2|0:0,0:0:0:0:
120,99,106874,1,2,0:0:0:0:
51,36,107035,2,0,P|24:75|22:119,1,74.4,2|0,0:0|0:0,0:0:0:0:
103,201,107358,1,2,0:0:0:0:
323,150,107519,6,0,P|388:148|442:216,1,148.8,4|2,1:2|1:2,0:0:0:0:
319,373,108003,1,2,0:0:0:0:
351,248,108164,1,2,0:2:0:0:
445,339,108325,1,2,0:2:0:0:
234,301,108487,2,0,L|271:301,1,37.2,10|0,0:2|0:0,0:0:0:0:
479,253,108648,2,0,L|442:253,1,37.2,10|0,0:2|0:0,0:0:0:0:
232,220,108809,2,0,L|269:220,1,37.2,10|0,0:2|0:0,0:0:0:0:
447,74,108971,6,0,L|343:69,1,74.4,4|0,1:2|0:0,0:0:0:0:
269,32,109293,1,0,1:2:0:0:
269,32,109374,1,0,0:0:0:0:
269,32,109454,2,0,L|218:27,1,37.2,8|0,0:0|0:0,0:0:0:0:
182,124,109616,2,0,L|226:128,1,37.2,2|0,0:0|0:0,0:0:0:0:
116,47,109777,1,8,0:0:0:0:
309,129,109938,1,2,0:0:0:0:
78,220,110100,1,4,1:2:0:0:
256,192,110261,12,2,111229,0:0:0:0:
78,220,111551,6,0,P|94:279|179:310,2,148.8,6|0|0,1:2|1:2|1:2,0:0:0:0:
168,171,112358,1,0,0:0:0:0:
81,118,112519,2,0,P|43:113|-5:110,1,74.4,2|2,1:2|0:0,0:0:0:0:
226,8,112842,6,0,P|255:34|268:74,1,74.4,2|0,1:2|0:0,0:0:0:0:
177,84,113164,1,0,1:2:0:0:
375,119,113326,2,0,L|378:44,1,74.4,0|0,0:0|1:2,0:0:0:0:
257,146,113648,1,0,0:0:0:0:
414,203,113810,2,0,L|418:277,1,74.4,2|2,1:2|0:0,0:0:0:0:
204,216,114132,6,0,P|272:233|339:167,2,148.8,6|0|2,1:2|1:2|1:2,0:0:0:0:
257,146,114938,1,0,0:0:0:0:
169,135,115100,2,0,P|136:157|116:198,1,74.4,0|0,1:2|0:0,0:0:0:0:
225,380,115422,5,2,1:2:0:0:
257,146,115583,1,8,2:3:0:0:
358,278,115745,1,0,1:2:0:0:
125,248,115906,1,8,0:3:0:0:
279,312,116067,5,10,1:2:0:0:
205,215,116229,1,10,0:0:0:0:
290,226,116390,1,8,0:2:0:0:
193,300,116551,1,8,0:0:0:0:
391,190,116713,6,0,P|439:232|440:319,2,148.8,6|0|0,1:2|1:2|1:2,0:0:0:0:
346,106,117519,1,0,0:0:0:0:
360,18,117680,2,0,P|401:33|434:73,1,74.4,2|0,1:2|0:0,0:0:0:0:
296,200,118003,6,0,L|197:197,1,74.4,2|0,1:2|0:0,0:0:0:0:
136,198,118325,1,0,1:2:0:0:
293,358,118487,2,0,L|296:259,1,74.4,2|0,0:0|1:2,0:0:0:0:
296,200,118809,1,2,0:0:0:0:
135,355,118971,2,0,L|234:358,1,74.4,0|0,1:2|0:0,0:0:0:0:
124,116,119293,6,0,P|80:136|62:169,1,74.4,4|0,1:2|0:0,0:0:0:0:
213,228,119616,1,2,1:2:0:0:
190,65,119777,2,0,P|150:36|113:37,1,74.4,10|0,0:0|1:2,0:0:0:0:
136,198,120100,1,2,0:0:0:0:
267,96,120261,2,0,P|271:47|252:15,1,74.4,2|0,1:2|0:0,0:0:0:0:
124,116,120583,5,0,1:2:0:0:
136,198,120745,1,0,0:0:0:0:
213,228,120906,1,0,1:2:0:0:
277,176,121067,5,8,0:0:0:0:
124,116,121229,1,2,1:2:0:0:
267,96,121390,1,8,0:0:0:0:
136,198,121551,1,8,0:0:0:0:
189,62,121713,1,8,1:2:0:0:
189,62,121793,1,8,0:2:0:0:
189,62,121874,6,0,P|248:10|346:52,1,167.399994891358,4|0,1:2|1:2,0:0:0:0:
392,100,122358,2,0,P|433:101|475:102,1,83.6999974456788,0|0,0:0|1:2,0:0:0:0:
303,178,122680,2,0,P|344:179|386:180,1,83.6999974456788,0|2,0:0|1:2,0:0:0:0:
267,96,123003,1,2,0:0:0:0:
418,294,123164,6,0,P|356:346|278:326,1,167.399994891358,2|8,1:2|0:0,0:0:0:0:
214,256,123648,2,0,P|172:254|130:253,1,83.6999974456788,0|0,1:2|0:0,0:0:0:0:
303,178,123970,2,0,P|261:176|219:175,1,83.6999974456788,0|10,1:2|0:0,0:0:0:0:
339,260,124293,1,2,0:0:0:0:
110,149,124454,6,0,P|134:98|165:79,1,83.6999974456788,0|0,1:2|0:0,0:0:0:0:
219,175,124777,1,8,0:0:0:0:
286,62,124938,2,0,B|378:39|351:121|456:81,1,167.399994891358,0|0,1:2|1:2,0:0:0:0:
475,246,125422,2,0,P|414:234|366:295,1,125.549996168518,10|0,0:0|0:0,0:0:0:0:
341,351,125745,6,0,B|295:312|295:312|177:314,1,167.399994891358,2|8,1:2|0:0,0:0:0:0:
45,289,126229,2,0,P|47:212|54:95,1,167.399994891358,2|0,1:2|1:2,0:0:0:0:
178,18,126713,2,0,P|174:65|173:117,1,83.6999974456788,10|0,0:0|1:2,0:0:0:0:
255,158,127035,5,10,0:2:0:0:
257,66,127197,1,0,1:2:0:0:
174,202,127358,1,0,1:2:0:0:
331,107,127519,2,0,P|413:106|503:110,1,167.399994891358,8|0,0:0|1:2,0:0:0:0:
334,207,128003,1,10,0:0:0:0:
336,17,128164,1,2,1:2:0:0:
255,158,128325,5,8,0:2:0:0:
257,66,128487,1,0,1:2:0:0:
334,207,128648,1,0,1:2:0:0:
176,110,128809,2,0,P|94:109|4:113,1,167.399994891358,8|0,0:0|1:2,0:0:0:0:
174,202,129293,1,10,0:0:0:0:
178,18,129454,1,2,1:2:0:0:
284,269,129616,6,0,P|360:284|413:204,1,167.399994891358,4|10,1:2|0:0,0:0:0:0:
512,134,130100,2,0,P|508:84|507:43,1,83.6999974456788,2|0,1:2|0:0,0:0:0:0:
433,143,130422,1,0,1:2:0:0:
489,214,130583,2,0,P|487:255|484:297,1,83.6999974456788,10|0,0:0|1:2,0:0:0:0:
379,73,130906,5,2,1:2:0:0:
433,143,131067,1,0,1:2:0:0:
345,156,131229,1,0,1:2:0:0:
401,227,131390,1,0,1:2:0:0:
291,86,131551,1,10,0:0:0:0:
467,60,131713,1,8,0:0:0:0:
313,240,131874,1,8,0:0:0:0:
489,214,132035,1,8,0:0:0:0:
133,185,132196,6,0,P|98:162|79:125,1,83.6999974456788,4|0,1:2|0:0,0:0:0:0:
169,254,132519,2,0,P|128:262|89:249,1,83.6999974456788,0|0,1:2|0:0,0:0:0:0:
244,277,132842,2,0,P|221:311|184:330,1,83.6999974456788,2|0,1:2|0:0,0:0:0:0:
313,240,133164,2,0,P|321:280|308:319,1,83.6999974456788,0|0,1:2|0:0,0:0:0:0:
161,28,133487,6,0,P|147:67|156:107,1,83.6999974456788,0|0,1:2|0:0,0:0:0:0:
287,19,133809,2,0,P|249:37|227:72,1,83.6999974456788,0|0,1:2|0:0,0:0:0:0:
382,98,134132,2,0,P|342:84|302:93,1,83.6999974456788,2|0,1:2|0:0,0:0:0:0:
391,225,134454,2,0,P|372:187|337:165,1,83.6999974456788,0|0,1:2|0:0,0:0:0:0:
235,180,134777,6,0,L|67:180,2,167.399994891358,2|0|0,1:2|1:2|1:2,0:0:0:0:
314,239,135583,1,0,0:0:0:0:
314,239,135745,2,0,L|316:329,1,83.6999974456788,2|2,1:2|0:0,0:0:0:0:
427,258,136067,5,2,1:2:0:0:
223,213,136229,1,8,0:2:0:0:
363,369,136390,1,0,1:2:0:0:
342,163,136551,1,8,0:0:0:0:
237,342,136713,1,10,0:0:0:0:
433,171,136874,1,8,0:0:0:0:
429,137,136954,1,8,0:0:0:0:
413,108,137035,1,8,0:0:0:0:
389,86,137115,1,8,0:0:0:0:
358,73,137196,1,8,0:0:0:0:
324,73,137277,1,8,0:0:0:0:
293,84,137357,5,14,0:2:0:0:
223,213,137680,1,8,2:3:0:0:
342,163,137842,1,0,1:2:0:0:
173,111,138164,1,8,2:3:0:0:
110,174,138325,2,0,L|108:263,1,83.6999974456788,10|2,2:3|0:0,0:0:0:0:
312,378,138648,6,0,P|354:352|330:242,1,167.399994891358,4|2,1:2|0:0,0:0:0:0:
257,113,139132,2,0,L|139:111,1,83.6999974456788,2|0,0:0|0:0,0:0:0:0:
48,110,139454,1,2,0:0:0:0:
223,213,139616,2,0,L|277:209,1,41.8499987228394,0|0,1:2|0:0,0:0:0:0:
251,34,139777,2,0,L|209:33,1,41.8499987228394
115,186,139938,5,12,0:0:0:0:
257,113,140100,1,0,1:2:0:0:
331,240,140261,1,0,1:2:0:0:
146,294,140422,5,12,0:0:0:0:
365,140,140583,1,0,1:2:0:0:
361,347,140745,1,0,1:2:0:0:
223,213,140906,5,10,0:2:0:0:
439,267,141067,1,12,1:2:0:0:
164,128,141229,6,0,P|86:115|45:209,1,181.350006087799,2|0,0:0|0:0,0:0:0:0:
261,142,141713,6,0,P|274:64|180:23,1,181.350006087799,2|0,0:0|0:0,0:0:0:0:
247,239,142196,6,0,P|325:252|366:158,1,181.350006087799,2|0,0:0|0:0,0:0:0:0:
150,225,142519,6,0,P|137:303|231:344,1,181.350006087799,6|0,1:2|0:0,0:0:0:0:
335,384,142842,2,0,L|329:268,1,102.300003121948,8|0,0:0|0:0,0:0:0:0:
378,87,143164,2,0,P|439:122|455:182,1,102.300003121948,0|0,1:2|0:0,0:0:0:0:
258,99,143487,1,10,0:0:0:0:
398,0,143648,1,2,0:0:0:0:
136,30,143809,6,0,P|213:23|248:19,1,102.300003121948,2|0,1:2|0:0,0:0:0:0:
122,212,144132,2,0,P|45:205|10:201,1,102.300003121948,10|8,0:0|0:0,0:0:0:0:
106,118,144374,1,8,0:0:0:0:
106,118,144454,2,0,P|189:141|212:250,1,204.600006243897,2|8,1:2|0:0,0:0:0:0:
69,295,144938,1,2,0:0:0:0:
278,104,145100,6,0,P|342:106|384:110,1,102.300003121948,2|0,1:2|0:0,0:0:0:0:
449,276,145422,2,0,P|496:240|501:176,1,102.300003121948,8|0,0:0|0:0,0:0:0:0:
343,284,145745,2,0,P|350:342|403:379,1,102.300003121948,0|0,1:2|0:0,0:0:0:0:
363,192,146067,1,10,0:0:0:0:
220,246,146229,1,2,0:0:0:0:
318,22,146390,5,6,1:2:0:0:
150,117,146551,1,10,0:0:0:0:
124,117,146632,1,8,0:0:0:0:
99,117,146712,1,10,0:0:0:0:
449,276,146874,2,0,L|454:183,1,51.1500015609742,6|0,1:2|0:0,0:0:0:0:
157,375,147196,2,0,P|210:344|211:233,1,167.399994891358,4|8,1:2|0:0,0:0:0:0:
128,191,147600,1,8,0:0:0:0:
128,191,147680,6,0,P|77:190|10:188,1,102.300003121948,4|0,1:2|0:0,0:0:0:0:
118,27,148003,2,0,P|169:26|236:24,1,102.300003121948,8|0,0:0|0:0,0:0:0:0:
374,251,148325,2,0,P|416:191|373:109,1,153.450004682922,2|0,1:2|0:0,0:0:0:0:
300,117,148648,2,0,P|249:116|182:114,1,102.300003121948,10|0,0:0|0:0,0:0:0:0:
2,322,148971,6,0,L|164:324,1,153.450004682922,2|0,1:2|0:0,0:0:0:0:
227,292,149293,2,0,P|232:341|205:384,1,102.300003121948,10|0,0:0|0:0,0:0:0:0:
128,242,149616,2,0,P|169:186|251:176,1,153.450004682922,2|0,1:2|0:0,0:0:0:0:
320,244,149938,2,0,P|372:241|421:236,1,102.300003121948,10|0,0:0|0:0,0:0:0:0:
364,17,150261,6,0,P|336:63|341:110,1,102.300003121948,6|0,1:2|0:0,0:0:0:0:
497,338,150583,1,8,0:0:0:0:
497,85,150745,1,2,0:0:0:0:
275,176,150906,1,8,0:0:0:0:
497,235,151067,1,10,0:0:0:0:
497,211,151148,1,8,0:0:0:0:
497,187,151228,1,8,0:0:0:0:
398,366,151390,6,0,P|341:375|299:346,1,102.300003121948,12|0,0:0|1:2,0:0:0:0:
275,176,151713,1,12,0:0:0:0:
409,179,151873,1,2,1:2:0:0:
232,278,152035,1,12,0:0:0:0:
171,30,152196,1,2,1:2:0:0:
275,176,152358,1,8,0:0:0:0:
275,150,152438,1,8,0:0:0:0:
275,124,152519,1,2,1:2:0:0:
58,26,152681,1,8,0:2:0:0:
58,52,152761,1,8,2:0:0:0:
58,78,152842,6,0,P|57:159|60:247,1,153.450004682922,6|0,1:2|0:0,0:0:0:0:
145,313,153164,2,0,P|146:258|145:201,1,102.300003121948,8|0,0:0|0:0,0:0:0:0:
272,46,153487,2,0,P|332:73|352:114,1,102.300003121948,0|0,1:2|0:0,0:0:0:0:
260,238,153809,1,10,0:0:0:0:
156,101,153971,1,2,0:0:0:0:
385,178,154132,6,0,P|445:190|485:243,1,102.300003121948,2|0,1:2|1:2,0:0:0:0:
262,338,154454,1,10,0:0:0:0:
258,138,154616,1,0,1:2:0:0:
398,257,154777,2,0,B|305:291|314:183|173:262,1,204.600006243897,2|8,0:0|0:0,0:0:0:0:
154,337,155261,1,2,0:0:0:0:
11,152,155422,6,0,P|65:183|110:107,1,153.450004682922,0|0,1:2|0:0,0:0:0:0:
136,27,155745,2,0,P|203:29|259:31,1,102.300003121948,8|0,0:0|0:0,0:0:0:0:
317,158,156067,2,0,P|250:160|194:162,1,102.300003121948,0|0,1:2|1:2,0:0:0:0:
35,67,156390,1,10,0:0:0:0:
199,240,156551,1,2,1:2:0:0:
317,56,156712,5,14,0:0:0:0:
220,313,156874,1,8,0:0:0:0:
174,314,156954,1,8,0:0:0:0:
136,289,157035,1,8,0:0:0:0:
119,248,157115,1,8,0:0:0:0:
128,203,157196,2,0,P|175:165|232:167,1,102.300003121948,8|2,0:0|0:0,0:0:0:0:
404,342,157519,2,0,P|357:380|300:378,1,102.300003121948,12|0,0:0|0:0,0:0:0:0:
199,240,157842,1,12,0:2:0:0:
395,119,158003,5,6,0:0:0:0:
128,203,158164,1,0,1:2:0:0:
437,196,158325,5,8,0:0:0:0:
114,178,158487,1,0,1:2:0:0:
434,284,158648,5,8,0:0:0:0:
102,154,158809,1,0,1:2:0:0:
387,358,158971,5,10,0:0:0:0:
308,110,159132,1,0,1:2:0:0:
238,349,159293,5,10,0:0:0:0:
308,88,159454,1,0,1:2:0:0:
388,342,159616,5,10,0:0:0:0:
308,67,159777,1,0,1:2:0:0:
237,333,159938,5,10,0:0:0:0:
308,46,160100,1,0,1:2:0:0:
389,326,160261,5,10,0:0:0:0:
193,12,160422,1,0,1:2:0:0:
193,12,160503,1,0,1:2:0:0:
193,12,160583,6,0,P|194:100|194:203,1,167.399994891358,4|2,1:2|0:0,0:0:0:0:
237,333,161067,1,2,1:2:0:0:
402,220,161229,2,0,P|462:227|508:268,1,83.6999974456788,8|0,0:0|1:2,0:0:0:0:
406,310,161551,1,2,0:0:0:0:
406,310,161712,6,0,P|345:286|330:168,1,167.399994891358,4|8,1:2|0:0,0:0:0:0:
449,67,162196,2,0,L|503:65,2,41.8499987228394,8|8|8,0:0|0:0|0:0,0:0:0:0:
309,61,162680,5,2,0:0:0:0:
396,219,162841,1,2,0:0:0:0:
490,65,163003,1,2,0:0:0:0:
252,170,163164,6,0,L|152:163,1,83.6999974456788,6|0,1:2|0:0,0:0:0:0:
204,285,163487,2,0,L|304:278,1,83.6999974456788,0|0,1:2|0:0,0:0:0:0:
449,143,163809,1,0,1:2:0:0:
131,83,163971,6,0,P|89:120|77:170,1,83.6999974456788,8|2,0:0|0:0,0:0:0:0:
337,164,164293,2,0,P|320:122|284:94,1,83.6999974456788,12|2,0:0|0:0,0:0:0:0:
123,241,164616,1,0,1:2:0:0:
270,371,164777,1,8,0:0:0:0:
270,371,164938,2,0,L|322:361,1,41.8499987228394,10|8,0:0|0:0,0:0:0:0:
411,336,165100,1,8,0:0:0:0:
266,196,165261,5,8,0:0:0:0:
280,219,165342,1,8,0:0:0:0:
301,237,165422,1,8,0:0:0:0:
327,246,165502,1,8,0:0:0:0:
355,246,165583,1,8,0:0:0:0:
381,236,165664,1,8,0:0:0:0:
403,219,165745,6,0,P|422:201|433:177,3,46.5,12|0|0|0,0:0|0:0|0:0|0:0,0:0:0:0:
344,154,166067,2,0,P|337:128|322:107,3,46.5,8|0|0|0,0:2|0:0|0:0|0:0,0:0:0:0:
258,172,166390,2,0,P|232:164|206:167,3,46.5,0|0|0|0,1:2|0:0|0:0|0:0,0:0:0:0:
230,255,166713,2,0,P|210:273|199:297,3,46.5,8|0|0|0,0:0|0:0|0:0|0:0,0:0:0:0:
96,352,167035,5,0,1:2:0:0:
54,332,167115,1,0,0:0:0:0:
31,292,167196,1,0,0:0:0:0:
34,247,167276,1,0,0:0:0:0:
62,210,167357,1,8,0:0:0:0:
105,194,167438,1,0,0:0:0:0:
136,160,167519,1,8,0:0:0:0:
149,116,167599,1,8,0:0:0:0:
142,70,167680,6,0,L|143:14,1,46.5,0|0,1:2|0:0,0:0:0:0:
9,118,167842,2,0,L|65:118,1,46.5
310,172,168003,2,0,L|264:172,1,46.5,8|0,0:0|0:0,0:0:0:0:
110,276,168164,2,0,L|157:277,1,46.5
332,96,168325,6,0,P|384:131|399:183,1,93,2|0,1:2|0:0,0:0:0:0:
462,307,168648,1,10,0:0:0:0:
310,265,168809,2,0,L|310:160,1,93,2|0,0:0|1:2,0:0:0:0:
443,44,169132,1,2,0:0:0:0:
393,240,169293,1,10,0:0:0:0:
249,99,169454,1,2,0:0:0:0:
118,346,169616,6,0,P|188:348|226:237,1,186,4|10,1:2|0:0,0:0:0:0:
36,194,170100,1,0,1:2:0:0:
106,82,170261,2,0,P|149:129|153:179,1,93,2|4,0:0|1:2,0:0:0:0:
70,282,170583,1,8,0:0:0:0:
2,106,170745,1,4,1:2:0:0:
327,182,170906,6,0,P|369:202|395:240,1,93,14|0,0:0|0:0,0:0:0:0:
315,352,171229,1,0,1:2:0:0:
316,102,171390,6,0,P|274:121|248:159,1,93,14|0,0:0|0:0,0:0:0:0:
321,267,171713,1,0,1:2:0:0:
328,20,171874,6,0,P|369:40|395:78,1,93,14|0,0:0|0:0,0:0:0:0:
327,182,172196,1,0,1:2:0:0:
148,18,172358,6,0,P|91:12|28:10,1,93,12|0,0:0|0:0,0:0:0:0:
19,195,172680,1,10,0:2:0:0:
175,108,172842,1,2,0:0:0:0:
155,339,173003,1,10,0:0:0:0:
126,321,173083,1,8,0:0:0:0:
107,294,173164,1,10,0:0:0:0:
102,261,173244,1,8,0:0:0:0:
111,229,173325,1,10,0:0:0:0:
133,204,173406,1,8,0:0:0:0:
163,191,173487,6,0,L|277:189,1,93,14|0,0:2|0:0,0:0:0:0:
341,314,173809,1,0,1:2:0:0:
244,40,173971,6,0,L|302:137,1,93,14|0,0:0|0:0,0:0:0:0:
263,277,174293,1,0,1:2:0:0:
423,40,174454,6,0,L|367:139,1,93,14|8,0:0|0:0,0:0:0:0:
256,190,174777,1,0,1:2:0:0:
413,265,174938,1,8,0:0:0:0:
259,365,175100,1,8,0:0:0:0:
406,178,175261,1,8,0:0:0:0:
406,178,175342,1,8,0:0:0:0:
406,178,175422,1,10,0:0:0:0:
420,352,175583,1,8,0:0:0:0:
263,277,175745,1,10,0:0:0:0:
230,280,175825,1,8,0:0:0:0:
201,295,175906,1,8,0:0:0:0:
179,319,175986,1,8,0:0:0:0:
167,348,176067,5,6,1:2:0:0:
90,384,176551,1,0,1:2:0:0:
61,342,177035,1,0,1:2:0:0:
96,161,177358,5,8,0:0:0:0:
98,63,177519,1,8,0:0:0:0:
10,208,177680,1,8,0:0:0:0:
179,211,177842,1,8,0:0:0:0:
12,110,178003,1,8,0:0:0:0:
181,113,178164,1,8,0:0:0:0:
94,259,178325,1,8,0:0:0:0:
264,163,178487,1,8,0:0:0:0:
96,161,178648,5,12,0:0:0:0:
256,192,178809,12,0,180583,0:0:0:0:
344,92,180745,6,0,L|417:92,2,55.7999982971192,2|2|2,0:0|0:0|0:0,0:0:0:0:
259,141,181229,6,0,L|123:135,2,111.599996594238,2|0|0,0:0|0:0|0:0,0:0:0:0:
319,212,182196,2,0,L|383:213,1,55.7999982971192,2|2,0:0|0:0,0:0:0:0:
427,145,182519,2,0,P|458:180|456:246,2,111.599996594238
376,294,183487,2,0,L|310:296,1,55.7999982971192,2|0,0:0|0:0,0:0:0:0:
236,349,183809,6,0,P|179:345|145:287,1,111.599996594238,2|2,0:0|0:0,0:0:0:0:
202,212,184293,1,2,0:0:0:0:
110,216,184616,1,2,0:0:0:0:
202,212,184938,2,0,P|202:156|200:100,1,111.599996594238,2|0,0:0|0:0,0:0:0:0:
89,22,185422,2,0,P|87:69|87:133,1,111.599996594238,2|0,0:0|0:0,0:0:0:0:
223,23,186067,1,2,0:0:0:0:
283,88,186229,1,2,0:0:0:0:
476,31,186390,6,0,P|415:31|359:36,1,111.599996594238,2|0,0:0|0:0,0:0:0:0:
375,123,186874,2,0,P|430:123|486:127,1,111.599996594238,2|0,0:0|0:0,0:0:0:0:
326,303,187358,1,2,0:0:0:0:
326,303,187680,2,0,P|355:244|336:192,1,111.599996594238,2|0,0:0|0:0,0:0:0:0:
254,265,188164,2,0,P|243:318|271:365,1,111.599996594238,2|0,0:0|0:0,0:0:0:0:
465,320,188648,1,2,0:0:0:0:
465,320,188971,6,0,L|464:201,1,111.599996594238,2|0,0:2|0:0,0:0:0:0:
375,123,189454,1,2,0:0:0:0:
375,123,189616,2,0,L|302:125,1,55.7999982971192,2|0,0:0|0:0,0:0:0:0:
206,125,189938,1,2,0:0:0:0:
206,125,190261,5,0,1:2:0:0:
73,168,190422,1,4,1:2:0:0:
123,304,190583,1,0,1:2:0:0:
259,254,190745,1,0,1:2:0:0:
166,211,190906,1,8,0:0:0:0:
30,261,191067,5,10,0:0:0:0:
216,347,191229,1,10,0:0:0:0:
302,161,191390,1,10,0:0:0:0:
116,75,191551,6,0,P|156:29|251:28,1,148.8,4|0,1:2|0:0,0:0:0:0:
166,211,192035,1,2,1:2:0:0:
259,254,192196,2,0,L|347:277,1,74.4,8|0,0:0|1:2,0:0:0:0:
373,179,192519,2,0,L|301:160,1,74.4,2|0,0:0|1:2,0:0:0:0:
409,99,192842,6,0,P|452:146|441:234,2,148.8,4|0|8,1:2|1:2|0:0,0:0:0:0:
272,29,193648,1,0,1:2:0:0:
321,104,193809,1,2,0:0:0:0:
361,25,193971,1,2,1:2:0:0:
232,108,194132,6,0,P|154:106|58:102,1,148.8,6|0,1:2|1:2,0:0:0:0:
16,193,194616,1,2,0:0:0:0:
91,249,194777,2,0,P|129:249|166:250,1,74.4,8|0,0:0|0:0,0:0:0:0:
6,287,195100,1,2,1:2:0:0:
370,358,195422,6,0,P|314:332|311:228,1,148.8,12|0,0:2|1:2,0:0:0:0:
364,173,195906,1,10,0:0:0:0:
451,262,196067,2,0,P|415:268|369:275,1,74.4,0|8,1:2|0:2,0:0:0:0:
211,355,196390,1,2,1:2:0:0:
211,355,196713,6,0,L|210:260,1,74.4,6|0,1:2|0:0,0:0:0:0:
163,175,197035,1,0,1:2:0:0:
252,72,197196,2,0,P|181:73|97:76,1,148.8
69,177,197680,1,2,1:2:0:0:
257,173,197842,1,2,0:0:0:0:
429,29,198003,6,0,P|455:64|464:113,1,74.4,8|0,0:0|0:0,0:0:0:0:
351,171,198325,1,0,1:2:0:0:
349,77,198487,1,8,0:2:0:0:
446,182,198648,2,0,L|449:256,1,74.4,2|0,0:0|1:2,0:0:0:0:
408,347,198971,1,8,0:0:0:0:
353,265,199132,1,0,1:2:0:0:
160,374,199293,6,0,P|112:368|-1:362,1,148.8,2|0,1:2|1:2,0:0:0:0:
21,260,199777,1,2,0:0:0:0:
60,181,199938,2,0,P|100:222|105:257,1,74.4,2|2,1:2|0:0,0:0:0:0:
170,289,200180,1,2,0:0:0:0:
170,289,200261,2,0,L|261:290,1,74.4,0|0,1:2|0:0,0:0:0:0:
351,171,200583,5,8,0:0:0:0:
257,173,200745,1,0,1:2:0:0:
353,265,200906,1,8,1:2:0:0:
445,169,201067,1,8,2:3:0:0:
302,91,201390,5,8,0:0:0:0:
396,88,201551,1,10,0:0:0:0:
351,171,201713,1,0,1:2:0:0:
208,94,201874,6,0,P|167:137|161:179,1,74.4,6|0,1:2|0:0,0:0:0:0:
269,253,202196,1,2,1:2:0:0:
194,340,202358,2,0,P|149:338|104:337,1,74.4,2|0,0:0|1:2,0:0:0:0:
185,241,202680,1,0,0:0:0:0:
350,339,202842,2,0,L|353:248,1,74.4,2|0,1:2|0:0,0:0:0:0:
294,102,203164,5,0,1:2:0:0:
379,117,203325,1,8,0:0:0:0:
239,168,203487,1,8,0:0:0:0:
349,35,203648,1,10,0:0:0:0:
209,87,203809,1,8,0:0:0:0:
435,50,203971,1,8,0:0:0:0:
154,153,204132,1,10,0:0:0:0:
352,264,204293,1,8,0:0:0:0:
265,21,204454,5,12,0:0:0:0:
256,192,204616,12,2,206874,0:0:0:0:
150,70,207035,6,0,L|223:73,1,55.7999982971192,2|0,0:0|0:0,0:0:0:0:
309,75,207358,1,2,0:0:0:0:
150,159,207519,2,0,L|223:162,1,55.7999982971192,2|2,0:0|0:0,0:0:0:0:
309,164,207842,1,2,0:0:0:0:
243,267,208003,2,0,P|208:251|190:233,1,55.7999982971192,2|0,0:0|0:0,0:0:0:0:
327,254,208325,5,2,0:0:0:0:
327,254,208487,2,0,P|324:291|266:351,1,111.599996594238,2|0,0:0|0:0,0:0:0:0:
179,374,208971,1,2,0:0:0:0:
135,264,209616,5,2,0:0:0:0:
57,200,209777,2,0,L|58:129,1,55.7999982971192,0|2,0:0|0:0,0:0:0:0:
158,61,210100,2,0,L|157:198,1,111.599996594238,2|0,0:0|0:0,0:0:0:0:
48,293,210583,1,2,0:0:0:0:
270,209,210906,6,0,L|264:79,1,111.599996594238,2|2,0:0|0:0,0:0:0:0:
397,37,211551,2,0,L|355:34,3,27.8999991485596,8|8|8|8,2:3|2:3|2:3|2:3,0:0:0:0:
448,123,211874,2,0,L|490:120,3,27.8999991485596,8|8|8|8,2:3|0:3|0:3|0:3,0:0:0:0:
350,210,212196,6,0,L|448:206,1,74.4,12|0,0:2|0:0,0:0:0:0:
370,36,212519,1,0,1:2:0:0:
327,293,212680,6,0,L|425:289,1,74.4,12|0,0:0|0:0,0:0:0:0:
360,123,213003,1,0,1:2:0:0:
304,376,213164,6,0,L|402:372,1,74.4,12|0,0:0|0:0,0:0:0:0:
350,210,213487,1,0,1:2:0:0:
220,349,213648,6,0,P|146:320|135:236,1,148.8,0|8,0:0|0:3,0:0:0:0:
216,183,214132,2,0,L|213:94,2,74.4,8|8|8,0:3|0:3|0:3,0:0:0:0:
218,266,214616,1,10,0:3:0:0:
442,95,214777,6,0,P|477:116|502:152,1,83.6999974456788,6|0,1:2|0:0,0:0:0:0:
352,119,215100,2,0,P|352:78|371:38,1,83.6999974456788,0|0,1:2|0:0,0:0:0:0:
418,185,215422,2,0,P|382:204|338:208,1,83.6999974456788,0|2,1:2|0:0,0:0:0:0:
278,36,215745,1,0,1:2:0:0:
442,95,215906,1,2,0:0:0:0:
97,188,216067,6,0,L|14:137,1,93,12|0,0:0|1:2,0:0:0:0:
193,204,216390,2,0,L|277:157,1,93,0|0,1:2|1:2,0:0:0:0:
129,279,216713,2,0,L|126:375,1,93,0|2,1:2|1:2,0:0:0:0:
0,251,217035,1,10,0:0:0:0:
148,118,217196,1,2,1:2:0:0:
360,231,217358,5,0,1:2:0:0:
284,169,217519,1,8,0:0:0:0:
269,266,217680,1,8,0:0:0:0:
375,134,217842,1,10,0:0:0:0:
193,204,218003,1,8,0:0:0:0:
437,293,218164,1,8,0:0:0:0:
300,73,218325,1,10,0:0:0:0:
315,346,218487,1,8,0:0:0:0:
453,196,218648,5,8,0:0:0:0:
204,121,218809,1,8,0:0:0:0:
375,134,218971,1,10,0:0:0:0:
193,204,219132,1,8,0:0:0:0:
391,39,219293,1,10,0:0:0:0:
142,67,219454,1,8,0:0:0:0:
225,311,219616,1,10,0:0:0:0:
267,293,219696,1,8,0:0:0:0:
295,257,219777,1,8,0:0:0:0:
302,212,219857,1,8,0:0:0:0:
284,169,219938,5,14,0:0:0:0:
62,128,220100,1,0,1:2:0:0:
125,361,220261,1,0,1:2:0:0:
235,105,220422,5,12,0:0:0:0:
34,318,220583,1,0,1:2:0:0:
310,248,220745,1,0,1:2:0:0:
142,67,220906,5,12,0:0:0:0:
407,82,221067,1,0,1:2:0:0:
116,261,221229,5,0,1:2:0:0:
315,44,221390,1,12,0:0:0:0:
392,316,221551,1,8,0:0:0:0:
235,105,221713,1,8,0:0:0:0:
235,376,221874,1,8,0:0:0:0:
328,144,222035,1,8,0:0:0:0:
512,350,222196,1,8,0:0:0:0:
511,317,222276,1,8,0:0:0:0:
510,284,222357,1,8,0:0:0:0:
509,252,222437,1,8,0:0:0:0:
508,219,222519,6,0,L|506:159,1,46.5,12|0,0:0|0:0,0:0:0:0:
315,44,222680,1,12,0:0:0:0:
428,280,223003,6,0,L|426:220,1,46.5,12|0,0:0|0:0,0:0:0:0:
235,105,223164,1,12,0:0:0:0:
348,341,223487,6,0,L|346:281,1,46.5,12|0,0:0|0:0,0:0:0:0:
155,166,223648,1,12,0:0:0:0:
155,166,225100,6,0,P|82:143|59:72,1,148.8,6|0,1:2|0:0,0:0:0:0:
150,31,225583,1,8,2:3:0:0:
150,31,225745,2,0,L|234:31,1,74.4,0|0,1:2|0:0,0:0:0:0:
298,113,226067,1,2,0:0:0:0:
371,37,226229,1,10,0:0:0:0:
453,208,226390,6,0,L|457:130,1,74.4,2|0,0:0|0:0,0:0:0:0:
328,196,226713,2,0,L|331:270,1,74.4,2|8,0:0|0:0,0:0:0:0:
431,350,227035,2,0,B|363:311|373:388|262:335,1,148.8,2|0,0:0|0:0,0:0:0:0:
234,267,227519,1,2,0:0:0:0:
34,384,227680,6,0,P|35:302|35:226,1,148.8,4|0,1:2|0:0,0:0:0:0:
130,110,228164,2,0,P|130:184|131:258,1,148.8,0|0,1:2|0:0,0:0:0:0:
234,267,228648,1,2,1:2:0:0:
236,168,228809,1,2,0:0:0:0:
408,71,228971,5,14,0:0:0:0:
238,69,229132,1,10,0:0:0:0:
320,219,229293,1,10,0:0:0:0:
324,21,229454,1,10,0:0:0:0:
38,150,229777,1,10,0:0:0:0:
335,307,230100,1,0,0:0:0:0:
335,307,230180,1,0,0:0:0:0:
335,307,230261,6,0,P|385:280|410:229,1,93,6|8,1:2|0:0,0:0:0:0:
427,146,230503,1,8,0:0:0:0:
427,146,230583,2,0,L|369:142,3,46.5,8|0|8|8,0:0|0:0|0:0|0:0,0:0:0:0:
496,239,230906,1,8,0:0:0:0:
479,68,231067,1,8,0:0:0:0:
320,219,231229,1,10,0:0:0:0:
287,220,231309,1,8,0:0:0:0:
258,206,231390,1,8,0:0:0:0:
239,180,231470,1,8,0:0:0:0:
235,148,231551,6,0,L|234:43,1,93,10|8,0:0|0:0,0:0:0:0:
252,29,231793,1,8,0:0:0:0:
252,29,231874,1,10,0:0:0:0:
56,83,232035,5,8,0:0:0:0:
83,80,232115,1,8,0:0:0:0:
110,88,232196,1,10,0:0:0:0:
131,105,232276,1,8,0:0:0:0:
144,130,232357,1,8,0:0:0:0:
146,157,232438,1,8,0:0:0:0:
138,184,232519,2,0,L|91:184,1,46.5,10|8,0:0|0:0,0:0:0:0:
15,279,232680,2,0,L|70:279,1,46.5,8|8,0:0|0:0,0:0:0:0:
268,267,232842,5,14,0:0:0:0:
13,159,233003,1,8,0:0:0:0:
121,362,233164,1,10,0:0:0:0:
255,55,233325,1,10,0:0:0:0:
98,195,233487,1,8,0:0:0:0:
416,176,233648,1,10,0:0:0:0:
170,15,233809,1,8,0:0:0:0:
183,231,233971,1,10,0:0:0:0:
371,69,234132,5,8,0:0:0:0:
277,150,234293,1,8,0:0:0:0:
415,337,234454,6,0,P|489:316|409:279,1,181.349991698456,10|0,0:0|0:0,0:0:0:0:
336,349,234777,6,0,B|228:339,1,83.6999974456788,10|0,0:0|0:0,0:0:0:0:
360,273,235100,6,0,P|384:203|490:201,1,181.349991698456,10|0,0:0|0:0,0:0:0:0:
339,362,235422,6,0,B|231:352,1,83.6999974456788,10|0,0:0|0:0,0:0:0:0:
64,353,235745,2,0,P|148:357|160:252,1,181.349991698456,14|0,0:0|0:0,0:0:0:0:
98,232,236067,2,0,L|99:127,1,102.300003121948,0|0,1:2|0:0,0:0:0:0:
139,9,236390,1,10,0:0:0:0:
0,91,236551,1,2,0:0:0:0:
235,143,236713,6,0,P|278:107|350:115,1,102.300003121948,2|0,1:2|1:2,0:0:0:0:
504,73,237035,1,10,0:0:0:0:
310,185,237197,1,0,1:2:0:0:
443,349,237358,2,0,B|426:273|426:273|462:208|462:208|456:155,1,204.600006243897,2|8,0:0|0:0,0:0:0:0:
361,33,237842,1,2,0:0:0:0:
215,253,238003,6,0,P|141:246|105:316,1,153.450004682922,2|0,1:2|0:0,0:0:0:0:
241,337,238325,2,0,P|296:285|300:240,1,102.300003121948,8|0,0:0|0:0,0:0:0:0:
152,85,238648,2,0,P|79:63|38:82,1,102.300003121948,0|0,1:2|1:2,0:0:0:0:
83,171,238971,1,10,0:0:0:0:
222,19,239132,1,2,1:2:0:0:
104,307,239293,5,14,0:2:0:0:
305,121,239455,1,8,0:0:0:0:
348,125,239535,1,8,0:0:0:0:
381,155,239616,1,8,0:0:0:0:
387,199,239696,1,8,0:0:0:0:
365,238,239777,2,0,P|313:251|257:266,1,102.300003121948,12|2,0:0|0:0,0:0:0:0:
414,362,240100,2,0,P|463:349|513:336,1,102.300003121948,12|0,0:0|0:0,0:0:0:0:
252,186,240422,1,12,0:0:0:0:
80,325,240583,5,6,0:0:0:0:
87,61,240744,1,0,1:2:0:0:
166,344,240905,5,8,0:0:0:0:
173,80,241067,1,0,1:2:0:0:
252,363,241228,5,8,0:0:0:0:
259,99,241389,1,0,1:2:0:0:
372,297,241550,5,10,0:0:0:0:
145,227,241712,1,0,1:2:0:0:
373,152,241874,5,10,0:0:0:0:
128,226,242035,1,0,1:2:0:0:
392,299,242196,5,10,0:0:0:0:
111,225,242358,1,0,1:2:0:0:
393,154,242520,5,10,0:0:0:0:
94,224,242680,1,0,1:2:0:0:
412,301,242842,5,10,0:0:0:0:
66,143,243002,1,0,1:2:0:0:
66,143,243083,1,0,1:2:0:0:
66,143,243164,6,0,P|13:205|46:294,1,167.399994891358,4|2,1:2|0:0,0:0:0:0:
200,302,243648,1,2,1:2:0:0:
249,232,243810,2,0,P|311:232|358:231,1,83.6999974456788,8|0,0:0|1:2,0:0:0:0:
229,136,244132,1,2,0:0:0:0:
229,136,244293,6,0,P|165:137|27:140,1,167.399994891358,4|8,1:2|0:0,0:0:0:0:
124,57,244697,1,8,0:0:0:0:
124,57,244777,2,0,L|171:55,1,41.8499987228394,8|8,0:0|0:0,0:0:0:0:
130,223,244939,2,0,L|80:224,1,41.8499987228394,8|0,0:0|0:0,0:0:0:0:
273,46,245261,5,2,0:0:0:0:
286,234,245422,1,2,0:0:0:0:
444,128,245583,1,2,0:0:0:0:
351,326,245745,6,0,P|260:326|162:328,1,167.399994891358,14|0,0:2|1:2,0:0:0:0:
229,136,246229,2,0,P|274:135|336:133,1,83.6999974456788,0|0,0:0|1:2,0:0:0:0:
384,257,246551,1,12,0:0:0:0:
131,171,246874,1,12,0:0:0:0:
112,142,248325,6,0,P|167:141|219:143,1,93,4|0,1:2|0:0,0:0:0:0:
333,141,248648,1,8,0:0:0:0:
118,241,248809,2,0,P|173:240|225:242,1,93,0|0,1:2|0:0,0:0:0:0:
339,240,249132,1,8,0:0:0:0:
124,340,249293,2,0,P|179:339|231:341,1,93,4|0,1:2|0:0,0:0:0:0:
345,339,249616,5,0,1:2:0:0:
339,240,249777,1,8,0:3:0:0:
333,141,249938,1,0,1:2:0:0:
438,234,250100,1,10,0:0:0:0:
240,246,250261,1,10,0:0:0:0:
444,333,250422,1,10,0:0:0:0:
432,135,250583,1,10,0:0:0:0:
246,345,250745,1,10,0:0:0:0:
234,147,250906,6,0,P|164:143|100:143,1,93,6|0,1:2|0:0,0:0:0:0:
14,236,251229,1,8,0:0:0:0:
49,35,251390,2,0,L|168:36,1,93,8|0,0:0|0:0,0:0:0:0:
337,233,251713,2,0,L|331:121,1,93,12|2,0:0|0:2,0:0:0:0:
118,241,252035,2,0,L|113:333,1,93,10|6,0:0|0:0,0:0:0:0:
141,35,253487,6,0,P|200:36|323:38,1,139.5,6|0,1:2|0:0,0:0:0:0:
334,99,253809,2,0,L|457:103,1,93,8|0,0:0|0:0,0:0:0:0:
300,187,254132,2,0,P|254:151|245:106,1,93,0|0,1:2|0:0,0:0:0:0:
420,190,254454,1,8,0:0:0:0:
350,288,254616,1,0,0:0:0:0:
153,157,254777,6,0,P|152:204|153:250,1,93,2|0,1:2|0:0,0:0:0:0:
15,293,255100,2,0,P|15:246|15:200,1,93,8|8,0:0|0:0,0:0:0:0:
83,121,255342,1,8,0:0:0:0:
83,121,255422,2,0,P|120:84|175:78,1,93,2|0,1:2|0:0,0:0:0:0:
247,212,255745,1,8,0:0:0:0:
100,312,255906,1,0,0:0:0:0:
242,356,256067,6,0,B|319:333|305:409|408:365,1,139.5,2|0,1:2|0:0,0:0:0:0:
438,318,256390,2,0,P|424:255|437:208,1,93,8|0,0:0|0:0,0:0:0:0:
500,91,256713,2,0,L|398:88,1,93,2|0,1:2|0:0,0:0:0:0:
294,85,257035,1,8,0:0:0:0:
347,183,257196,1,0,0:0:0:0:
186,33,257358,6,0,P|141:43|100:99,1,93,2|0,1:2|0:0,0:0:0:0:
247,212,257680,2,0,P|215:178|146:170,1,93,8|8,0:0|0:0,0:0:0:0:
87,205,257923,1,8,0:0:0:0:
87,205,258003,2,0,L|90:315,1,93,2|0,1:2|0:0,0:0:0:0:
164,352,258325,1,8,0:0:0:0:
324,263,258487,1,0,0:0:0:0:
324,263,258567,1,8,0:0:0:0:
324,263,258648,6,0,P|402:249|416:163,1,139.5,2|0,1:2|0:0,0:0:0:0:
384,100,258971,2,0,L|272:81,1,93,8|0,0:0|0:0,0:0:0:0:
88,201,259293,2,0,P|149:188|175:147,1,93,0|0,1:2|0:0,0:0:0:0:
106,26,259616,2,0,P|86:85|109:128,1,93,10|0,0:0|0:0,0:0:0:0:
347,183,259938,6,0,L|235:164,1,93,2|0,1:2|0:0,0:0:0:0:
132,360,260261,2,0,P|180:364|226:328,1,93,10|0,0:0|0:0,0:0:0:0:
59,300,260583,2,0,P|31:339|39:397,1,93,0|0,1:2|0:0,0:0:0:0:
147,266,260906,2,0,P|126:222|72:200,1,93,10|0,0:0|0:0,0:0:0:0:
301,367,261229,5,2,1:2:0:0:
477,263,261390,2,0,L|473:139,1,93,2|8,0:0|0:0,0:0:0:0:
334,78,261713,2,0,L|336:190,1,93,2|8,0:0|0:0,0:0:0:0:
501,73,262036,1,10,0:0:0:0:
477,74,262116,1,8,0:0:0:0:
454,74,262197,1,8,0:0:0:0:
310,249,262358,6,0,P|258:200|261:149,1,102.300003121948,14|8,0:0|0:0,0:0:0:0:
398,18,262680,1,12,0:0:0:0:
335,170,262842,1,0,1:2:0:0:
182,134,263003,2,0,L|37:130,1,102.300003121948,12|0,0:0|1:2,0:0:0:0:
159,258,263325,1,12,0:0:0:0:
182,258,263405,1,8,0:0:0:0:
205,258,263486,1,8,0:0:0:0:
227,48,263648,1,8,0:0:0:0:
204,48,263728,1,8,0:0:0:0:
182,50,263809,6,0,L|120:49,3,46.5,6|0|0|0,1:2|0:0|0:0|0:0,0:0:0:0:
182,134,264132,2,0,L|244:133,3,46.5,10|0|0|0,0:2|0:0|0:0|0:0,0:0:0:0:
29,210,264454,1,2,1:2:0:0:
27,237,264534,1,0,0:0:0:0:
36,264,264615,1,0,0:0:0:0:
53,285,264695,1,0,0:0:0:0:
77,299,264776,1,10,0:2:0:0:
105,302,264857,1,0,0:0:0:0:
132,296,264938,2,0,L|167:247,1,46.5
271,206,265100,5,2,1:2:0:0:
303,210,265180,1,0,0:0:0:0:
330,226,265261,1,0,0:0:0:0:
350,252,265341,1,0,0:0:0:0:
358,284,265422,1,8,0:0:0:0:
381,322,265502,1,0,0:0:0:0:
425,334,265583,1,8,0:0:0:0:
465,312,265663,1,8,0:0:0:0:
478,268,265745,6,0,P|474:209|475:169,1,93,0|0,1:2|0:0,0:0:0:0:
346,35,266067,2,0,P|346:81|342:127,1,93,10|0,0:0|0:0,0:0:0:0:
213,335,266390,6,0,P|267:312|282:265,1,93,6|0,1:2|0:0,0:0:0:0:
165,101,266713,2,0,L|68:102,1,93,8|0,0:0|0:0,0:0:0:0:
208,259,267035,2,0,L|207:162,1,93,2|0,1:2|0:0,0:0:0:0:
12,168,267358,2,0,L|13:265,1,93,8|0,0:2|0:0,0:0:0:0:
169,352,267680,5,2,1:2:0:0:
321,172,267842,1,0,0:0:0:0:
113,215,268003,1,8,0:0:0:0:
331,340,268164,1,8,0:0:0:0:
331,340,268245,1,8,0:0:0:0:
331,340,268325,2,0,L|428:332,1,93,2|0,1:2|0:0,0:0:0:0:
484,261,268648,1,8,0:2:0:0:
361,89,268809,1,8,0:0:0:0:
361,89,268890,1,8,0:0:0:0:
361,89,268971,6,0,L|239:92,1,93,12|8,0:2|0:0,0:0:0:0:
149,38,269293,1,8,0:0:0:0:
149,38,269374,1,8,0:0:0:0:
149,38,269454,2,0,L|152:97,1,46.5,8|8,0:0|0:0,0:0:0:0:
224,202,269616,1,8,0:0:0:0:
66,113,269777,1,8,0:0:0:0:
246,93,269938,1,8,0:0:0:0:
113,215,270100,1,8,0:0:0:0:
333,343,270261,6,0,L|329:214,1,93,4|8,1:2|0:0,0:0:0:0:
336,209,270503,1,8,0:0:0:0:
336,209,270583,1,8,0:0:0:0:
244,297,270745,1,8,0:0:0:0:
243,315,270825,1,8,0:0:0:0:
243,334,270906,1,8,0:0:0:0:
424,231,271067,1,8,0:0:0:0:
424,212,271148,1,8,0:0:0:0:
423,194,271228,1,8,0:0:0:0:
246,93,271390,1,8,0:0:0:0:
245,111,271470,1,8,0:0:0:0:
246,128,271551,6,0,L|247:224,1,93,12|0,0:0|0:0,0:0:0:0:
402,118,271874,1,0,1:2:0:0:
244,17,272035,2,0,P|181:41|170:79,1,93,8|0,0:0|1:2,0:0:0:0:
337,195,272358,5,0,1:2:0:0:
396,27,272519,1,8,0:2:0:0:
479,183,272680,1,4,1:2:0:0:
256,192,272842,12,0,276713,0:0:0:0:
