osu file format v14

[General]
AudioFilename: audio.mp3
AudioLeadIn: 0
PreviewTime: 77125
Countdown: 0
SampleSet: Soft
StackLeniency: 0.5
Mode: 0
LetterboxInBreaks: 0
WidescreenStoryboard: 0

[Editor]
DistanceSpacing: 1
BeatDivisor: 4
GridSize: 32
TimelineZoom: 2

[Metadata]
Title:Euphorium (Game Ver.)
TitleUnicode:ユーフォリアム (Game Ver.)
Artist:Suzuyu
ArtistUnicode:鈴湯
Creator:MajK00
Version:Memories
Source:アストラエアの白き永遠 Finale -白き星の夢-
Tags:favorite white eternity of astral air no shiroki towa finale hoshi no yume op opening theme galge galgame eroge visual novel video game videogame japanese pop jpop j-pop female vocal vocalist 山本美禰子 Yamamoto Mineko 小高光太郎 Odaka Kotaro UiNA saltylucario saltking salty
BeatmapID:3920133
BeatmapSetID:1901511

[Difficulty]
HPDrainRate:5.2
CircleSize:3.8
OverallDifficulty:9
ApproachRate:9.3
SliderMultiplier:1.7
SliderTickRate:1

[Events]
//Background and Video events
0,0,"BG.jpg",0,0
//Break Periods
//Storyboard Layer 0 (Background)
//Storyboard Layer 1 (Fail)
//Storyboard Layer 2 (Pass)
//Storyboard Layer 3 (Foreground)
//Storyboard Layer 4 (Overlay)
//Storyboard Sound Samples

[TimingPoints]
1480,322.58064516129,4,2,27,40,1,0
1480,-166.666666666667,4,2,27,40,0,0
5350,-166.666666666667,4,2,27,50,0,0
6641,-125,4,2,27,60,0,0
9463,-125,4,2,27,5,0,0
9544,-125,4,2,27,60,0,0
11802,-100,4,2,27,70,0,0
12044,-100,4,2,27,5,0,0
12125,-100,4,2,27,70,0,0
16963,-100,4,2,27,80,0,0
19544,-100,4,2,27,70,0,0
20673,-166.666666666667,4,2,27,60,0,0
24705,-166.666666666667,4,2,27,40,0,0
35028,-142.857142857143,4,2,27,40,0,0
42770,-125,4,2,27,50,0,0
45350,-111.111111111111,4,2,27,60,0,0
73415,-111.111111111111,4,2,27,70,0,0
77286,-142.857142857142,4,2,27,70,0,0
77528,-142.857142857142,4,2,27,5,0,0
77609,-111.111111111111,4,2,27,70,0,0
78012,-111.111111111111,4,2,27,5,0,0
78092,-199.999999999999,4,2,27,80,0,0
78496,-199.999999999999,4,2,27,5,0,0
78576,-76.9230769230769,4,2,27,80,0,0
78818,-76.9230769230769,4,2,27,5,0,0
78899,-90.9090909090907,4,2,27,75,0,0
79141,-90.9090909090907,4,2,27,5,0,0
79221,-90.9090909090907,4,2,27,75,0,0
84302,-90.9090909090907,4,2,27,5,0,0
84383,-90.9090909090907,4,2,27,75,0,0
85592,-90.9090909090907,4,2,27,5,0,0
85673,-90.9090909090907,4,2,27,75,0,0
107286,-100,4,2,27,75,0,0
107528,-100,4,2,27,5,0,0
107609,-100,4,2,27,75,0,0
110109,-100,4,2,27,5,0,0
110189,-100,4,2,27,75,0,0
112689,-100,4,2,27,5,0,0
112770,-100,4,2,27,75,0,0
120431,-100,4,2,27,5,0,0
120512,-100,4,2,27,75,0,0
125350,-100,4,2,27,85,0,0
133092,-100,4,2,27,5,0,0

[Colours]
Combo1 : 227,176,247
Combo2 : 130,151,238
Combo3 : 245,120,123
Combo4 : 201,201,201

[HitObjects]
37,42,1480,5,2,0:0:0:0:
37,42,1641,1,2,0:0:0:0:
104,109,1802,2,0,L|154:102,1,50.9999984436036,2|2,0:0|0:0,0:0:0:0:
262,50,2125,5,2,0:0:0:0:
262,50,2286,2,0,L|270:-13,2,50.9999984436036,2|2|2,0:0|0:0|0:0,0:0:0:0:
371,126,2770,5,2,0:0:0:0:
371,126,2931,2,0,L|364:62,2,50.9999984436036,2|2|2,0:0|0:0|0:0,0:0:0:0:
262,202,3415,5,2,0:0:0:0:
262,202,3576,2,0,L|268:138,2,50.9999984436036,2|2|2,0:0|0:0|0:0,0:0:0:0:
371,278,4060,5,2,0:0:0:0:
371,278,4221,2,0,L|364:214,2,50.9999984436036,2|2|2,0:0|0:0|0:0,0:0:0:0:
262,354,4706,5,2,0:0:0:0:
262,354,4867,2,0,L|268:290,2,50.9999984436036,2|2|2,0:0|0:0|0:0,0:0:0:0:
162,269,5350,5,2,0:0:0:0:
260,188,5512,1,2,0:0:0:0:
157,289,5673,1,2,0:0:0:0:
112,120,5834,1,2,0:0:0:0:
501,367,6318,6,0,L|496:342,3,25.4999992218018,2|2|2|2,0:0|0:0|0:0|0:0,0:0:0:0:
475,264,6641,2,0,B|422:256|422:256|397:272|397:272|343:265,1,136,6|0,1:2|0:0,0:0:0:0:
272,186,7125,2,0,L|238:191,2,34,2|2|2,1:2|0:0|0:0,0:0:0:0:
418,159,7447,1,4,0:3:0:0:
332,97,7609,1,2,0:0:0:0:
225,317,7770,6,0,B|151:301|170:349|94:338,1,136,6|2,1:2|0:0,0:0:0:0:
0,171,8254,1,10,0:0:0:0:
145,239,8415,2,0,P|177:230|211:231,1,68,10|2,0:0|0:0,0:0:0:0:
324,171,8738,1,10,0:3:0:0:
221,124,8899,1,2,1:2:0:0:
315,188,9060,1,2,1:2:0:0:
405,3,9221,6,0,P|454:3|489:38,1,102,6|0,1:2|0:0,0:0:0:0:
488,53,9544,2,0,L|479:120,1,68,2|10,1:2|0:0,0:0:0:0:
320,51,9867,1,2,1:2:0:0:
410,182,10028,1,10,0:0:0:0:
302,28,10189,1,2,1:2:0:0:
200,230,10350,6,0,B|111:218|111:218|77:252,1,136,6|0,1:2|0:0,0:0:0:0:
132,139,10834,2,0,L|199:147,1,68,0|0,1:0|0:0,0:0:0:0:
251,320,11157,1,8,0:0:0:0:
225,316,11237,1,8,0:0:0:0:
200,313,11318,1,8,0:0:0:0:
175,310,11398,1,8,0:0:0:0:
149,307,11479,1,8,0:0:0:0:
438,384,11802,6,0,B|444:328|444:328|441:323|441:323|449:256,1,127.5,6|0,1:2|0:0,0:0:0:0:
462,243,12125,2,0,L|451:158,1,85,8|0,0:0|0:0,0:0:0:0:
429,0,12447,1,0,1:0:0:0:
347,139,12609,1,2,0:0:0:0:
282,0,12770,2,0,P|240:-5|200:9,1,85,10|0,0:0|0:0,0:0:0:0:
143,215,13092,6,0,P|168:182|176:141,1,85,0|0,1:0|0:0,0:0:0:0:
88,6,13415,1,8,0:0:0:0:
2,150,13576,1,0,1:0:0:0:
2,150,13657,1,8,0:0:0:0:
2,150,13738,2,0,L|86:139,1,85,2|0,1:2|0:0,0:0:0:0:
175,316,14060,2,0,L|90:305,1,85,10|0,0:0|0:0,0:0:0:0:
278,108,14383,6,0,P|358:138|379:213,1,170,2|0,1:2|1:0,0:0:0:0:
176,139,14867,2,0,L|186:54,1,85,10|0,0:0|1:0,0:0:0:0:
275,204,15189,1,10,0:0:0:0:
90,305,15350,1,8,0:0:0:0:
307,354,15512,6,0,B|374:345|374:345|402:366|402:366|472:357,1,170,6|0,1:2|0:0,0:0:0:0:
286,215,15996,1,8,0:0:0:0:
481,128,16157,2,0,L|470:212,1,85,12|0,0:0|0:0,0:0:0:0:
341,2,16479,2,0,L|351:86,1,85,12|0,0:0|0:0,0:0:0:0:
374,260,16802,1,4,1:2:0:0:
200,139,16963,5,12,0:0:0:0:
112,384,17125,1,0,1:0:0:0:
112,104,17286,5,8,0:0:0:0:
200,349,17448,1,0,1:0:0:0:
188,35,17609,5,8,0:0:0:0:
100,291,17770,1,0,1:0:0:0:
100,0,17932,5,8,0:0:0:0:
188,256,18092,1,0,1:0:0:0:
401,31,18254,5,8,0:0:0:0:
112,104,18415,1,0,1:0:0:0:
469,100,18576,5,8,0:0:0:0:
188,35,18738,1,0,1:0:0:0:
279,239,18899,5,10,0:0:0:0:
279,239,18979,1,2,0:0:0:0:
279,239,19060,2,0,L|342:232,1,42.5,2|2,1:2|0:0,0:0:0:0:
512,105,19221,1,10,0:0:0:0:
512,105,19301,1,2,0:0:0:0:
512,105,19383,2,0,L|448:98,1,42.5,2|2,1:2|0:0,0:0:0:0:
377,310,19544,6,0,B|424:269|424:269|398:164,1,170,14|0,0:0|1:0,0:0:0:0:
275,0,20028,2,0,L|264:84,1,85,10|0,0:0|1:0,0:0:0:0:
234,320,20350,1,10,0:0:0:0:
234,320,20431,1,8,0:0:0:0:
234,320,20512,1,0,1:0:0:0:
98,50,20673,6,0,B|28:36|28:36|-9:94|34:175,1,203.999993774414,12|2,0:0|0:0,0:0:0:0:
256,192,22286,12,2,23899,0:0:0:0:
512,100,24705,6,0,B|404:66|425:153|315:121,1,203.999993774414,2|0,1:2|0:0,0:0:0:0:
86,58,25673,5,2,0:0:0:0:
86,58,25834,1,2,0:0:0:0:
177,25,25996,2,0,L|158:179,1,152.999995330811,2|0,3:2|0:0,0:0:0:0:
256,361,26963,5,2,0:0:0:0:
256,361,27125,1,2,0:0:0:0:
186,302,27286,2,0,P|90:285|38:366,2,203.999993774414,2|2|2,3:2|0:0|3:2,0:0:0:0:
458,316,29221,6,0,L|509:322,2,50.9999984436036,2|2|2,0:0|0:0|0:0,0:0:0:0:
381,377,29705,1,2,0:0:0:0:
368,274,29867,2,0,L|340:51,1,203.999993774414,2|0,1:2|0:0,0:0:0:0:
148,0,30834,6,0,L|140:63,1,50.9999984436036,2|0,0:0|0:0,0:0:0:0:
63,107,31157,2,0,L|76:218,1,101.999996887207,2|2,3:2|0:0,0:0:0:0:
127,281,31641,2,0,P|151:289|177:288,1,50.9999984436036,2|0,0:0|0:0,0:0:0:0:
160,202,31963,2,0,L|261:214,1,101.999996887207,2|0,0:0|0:0,0:0:0:0:
225,44,32447,6,0,L|327:57,1,101.999996887207,2|2,3:2|0:0,0:0:0:0:
420,6,32931,2,0,B|407:105|407:105|368:140|368:140|355:242,1,254.999992218018,2|0,0:0|3:0,0:0:0:0:
0,65,34383,6,0,B|81:39|65:104|148:80,1,152.999995330811,2|0,0:0|0:0,0:0:0:0:
245,0,35028,2,0,L|223:177,2,178.499994552612,2|0|2,1:2|1:0|0:0,0:0:0:0:
323,110,36157,1,2,1:2:0:0:
130,193,36318,5,10,0:3:0:0:
130,193,36479,2,0,L|66:185,1,59.4999981842042,8|0,0:3|0:0,0:0:0:0:
200,274,36802,2,0,B|246:268|246:268|266:282|266:282|314:276,1,118.999996368408,4|4,0:3|0:3,0:0:0:0:
427,230,37286,1,2,1:2:0:0:
393,323,37447,1,2,1:2:0:0:
282,169,37609,6,0,L|218:176,1,59.4999981842042,2|0,1:2|0:0,0:0:0:0:
298,71,37931,1,2,0:0:0:0:
298,71,38092,2,0,P|352:94|377:147,1,118.999996368408,2|0,1:2|0:0,0:0:0:0:
427,230,38576,2,0,L|419:293,1,59.4999981842042,2|0,1:2|0:0,0:0:0:0:
282,169,38899,6,0,L|91:145,2,178.499994552612,2|2|2,3:2|1:2|1:2,0:0:0:0:
81,365,40189,6,0,P|72:336|74:306,1,59.4999981842042,2|0,1:2|0:0,0:0:0:0:
213,287,40512,2,0,P|192:308|166:321,1,59.4999981842042,0|0,1:0|0:0,0:0:0:0:
80,212,40834,2,0,P|108:219|133:235,1,59.4999981842042,0|0,1:0|0:0,0:0:0:0:
166,321,41157,1,2,1:2:0:0:
166,321,41318,1,0,3:0:0:0:
251,172,41479,5,6,0:3:0:0:
251,172,41641,2,0,P|280:174|308:164,1,59.4999981842042,8|0,0:3|0:0,0:0:0:0:
363,98,41963,2,0,B|429:92|414:132|476:128,1,118.999996368408,10|0,0:0|1:0,0:0:0:0:
497,219,42447,2,0,P|467:221|439:211,1,59.4999981842042,2|0,0:0|1:0,0:0:0:0:
283,384,42770,5,10,0:0:0:0:
354,233,42931,1,0,1:0:0:0:
422,339,43092,1,0,1:0:0:0:
232,287,43254,6,0,L|91:304,1,136,10|0,0:0|1:0,0:0:0:0:
0,384,43738,1,10,0:0:0:0:
61,220,43899,1,2,1:2:0:0:
283,384,44060,5,4,1:2:0:0:
186,197,44221,2,0,B|132:190|132:190|108:206|108:206|52:200,1,136,4|2,0:3|0:0,0:0:0:0:
150,25,44705,5,10,0:3:0:0:
160,108,44867,1,10,0:3:0:0:
66,35,45028,1,6,0:3:0:0:
76,118,45189,1,6,0:3:0:0:
305,55,45350,6,0,B|347:92|347:92|323:186,2,152.999995330811,6|8|0,1:2|0:0|0:0,0:0:0:0:
251,125,46157,1,0,1:0:0:0:
385,12,46318,2,0,L|480:23,1,76.4999976654053,10|2,0:0|0:0,0:0:0:0:
493,197,46641,6,0,B|413:206|413:206|402:254|351:270,1,152.999995330811,2|8,1:2|0:0,0:0:0:0:
251,125,47125,2,0,P|186:87|113:106,1,152.999995330811,0|0,1:2|1:0,0:0:0:0:
58,268,47609,1,10,0:0:0:0:
173,185,47770,1,2,0:0:0:0:
285,339,47931,6,0,L|436:357,2,152.999995330811,2|8|2,1:2|0:0|0:0,0:0:0:0:
154,325,48738,1,0,1:0:0:0:
267,242,48899,2,0,L|259:167,1,76.4999976654053,8|0,0:0|0:0,0:0:0:0:
130,56,49221,6,0,P|94:42|57:47,1,76.4999976654053,2|0,1:2|0:0,0:0:0:0:
165,174,49544,1,8,0:0:0:0:
229,75,49705,2,0,L|316:64,1,76.4999976654053,0|0,1:0|0:0,0:0:0:0:
429,42,50028,1,2,1:2:0:0:
336,152,50189,1,10,0:0:0:0:
418,58,50350,1,2,0:0:0:0:
452,236,50512,6,0,B|392:228|392:228|365:245|365:245|303:239,2,152.999995330811,0|8|0,1:0|0:0|0:0,0:0:0:0:
417,321,51318,1,0,1:0:0:0:
336,152,51479,2,0,L|260:161,1,76.4999976654053,10|0,0:0|0:0,0:0:0:0:
71,68,51802,6,0,P|142:96|160:173,1,152.999995330811,2|10,1:2|0:0,0:0:0:0:
58,237,52286,2,0,L|69:141,1,76.4999976654053,2|0,1:2|0:0,0:0:0:0:
149,256,52609,1,2,1:2:0:0:
79,329,52770,2,0,P|41:331|4:320,1,76.4999976654053,8|0,0:0|0:0,0:0:0:0:
245,214,53092,6,0,B|329:205|308:260|391:250,1,152.999995330811,2|10,1:2|0:0,0:0:0:0:
474,144,53576,2,0,P|486:108|484:70,1,76.4999976654053,2|0,0:0|1:0,0:0:0:0:
372,162,53899,1,2,1:2:0:0:
482,233,54060,2,0,L|472:308,1,76.4999976654053,10|0,0:0|0:0,0:0:0:0:
267,384,54383,5,2,1:2:0:0:
198,194,54544,1,8,0:0:0:0:
324,307,54705,1,0,1:0:0:0:
372,162,54867,1,4,0:3:0:0:
230,291,55028,2,0,B|126:278|126:278|87:316,1,152.999995330811,2|0,0:0|1:0,0:0:0:0:
59,106,55512,5,8,0:0:0:0:
59,106,55592,1,8,0:0:0:0:
59,106,55673,2,0,L|72:-1,1,76.4999976654053,6|0,1:2|0:0,0:0:0:0:
106,191,55996,2,0,P|70:204|32:201,1,76.4999976654053,10|0,0:0|0:0,0:0:0:0:
153,93,56318,2,0,P|188:79|226:82,1,76.4999976654053,2|0,0:0|1:0,0:0:0:0:
344,267,56641,1,10,0:0:0:0:
204,177,56802,1,0,1:0:0:0:
408,127,56963,6,0,L|515:140,1,76.4999976654053,6|0,1:2|0:0,0:0:0:0:
323,174,57286,2,0,P|309:138|312:100,1,76.4999976654053,10|0,0:0|0:0,0:0:0:0:
421,221,57608,2,0,P|434:256|431:294,1,76.4999976654053,2|0,0:0|1:0,0:0:0:0:
229,360,57931,1,10,0:0:0:0:
344,267,58092,1,2,1:2:0:0:
204,177,58254,6,0,L|194:101,1,76.4999976654053,2|0,1:2|0:0,0:0:0:0:
323,174,58576,1,10,0:0:0:0:
213,272,58738,2,0,B|153:264|153:264|126:281|126:281|64:275,1,152.999995330811,2|0,1:2|1:0,0:0:0:0:
0,94,59221,1,10,0:0:0:0:
97,188,59383,1,0,1:0:0:0:
179,6,59544,6,0,B|263:-3|242:52|325:42,1,152.999995330811,2|8,1:2|0:0,0:0:0:0:
462,0,60028,2,0,L|441:166,1,152.999995330811,2|0,1:2|1:0,0:0:0:0:
295,242,60512,1,10,0:0:0:0:
357,126,60673,1,0,1:0:0:0:
437,315,60834,6,0,L|512:305,1,76.4999976654053,10|0,0:0|1:0,0:0:0:0:
437,164,61157,1,0,1:0:0:0:
333,339,61318,2,0,B|253:328|253:328|230:372|177:375,1,152.999995330811,8|0,0:0|1:0,0:0:0:0:
92,264,61802,1,10,0:0:0:0:
0,384,61963,1,2,1:2:0:0:
175,288,62125,6,0,P|178:250|164:214,1,76.4999976654053,8|0,0:0|1:0,0:0:0:0:
15,298,62447,1,0,1:0:0:0:
98,119,62609,2,0,B|202:106|202:106|241:144,1,152.999995330811,12|0,0:0|1:0,0:0:0:0:
322,316,63092,1,10,0:0:0:0:
164,214,63254,1,2,1:2:0:0:
336,328,63415,6,0,L|487:309,1,152.999995330811,6|10,1:2|0:0,0:0:0:0:
512,128,63899,2,0,B|452:120|452:120|425:137|425:137|363:131,1,152.999995330811,2|0,1:2|1:0,0:0:0:0:
219,1,64383,1,10,0:0:0:0:
398,32,64544,1,0,1:0:0:0:
249,206,64705,6,0,L|235:92,2,114.749996498108,10|8|8,0:3|0:3|0:3,0:0:0:0:
272,362,65350,1,2,0:0:0:0:
151,240,65512,1,4,0:3:0:0:
356,302,65673,1,8,0:3:0:0:
356,302,65754,1,8,0:3:0:0:
356,302,65834,1,4,0:3:0:0:
140,326,65996,6,0,L|64:316,1,76.4999976654053,6|0,1:2|0:0,0:0:0:0:
151,240,66318,2,0,L|76:231,1,76.4999976654053,0|0,1:0|0:0,0:0:0:0:
80,45,66641,6,0,P|91:81|88:119,1,76.4999976654053,2|0,1:2|0:0,0:0:0:0:
0,54,66963,2,0,P|-3:92|7:128,1,76.4999976654053,0|0,1:0|0:0,0:0:0:0:
206,17,67286,6,0,P|194:53|198:90,1,76.4999976654053,2|0,1:2|0:0,0:0:0:0:
287,26,67608,2,0,P|290:63|278:100,1,76.4999976654053,0|0,1:0|0:0,0:0:0:0:
471,55,67931,6,0,P|482:91|479:129,1,76.4999976654053,2|0,1:2|0:0,0:0:0:0:
390,65,68253,2,0,P|386:102|397:138,1,76.4999976654053,0|0,1:0|0:0,0:0:0:0:
466,320,68576,6,0,L|454:224,1,76.4999976654053,2|0,1:2|0:0,0:0:0:0:
380,352,68899,2,0,L|368:256,1,76.4999976654053,0|0,1:0|0:0,0:0:0:0:
294,384,69221,2,0,L|282:288,1,76.4999976654053,0|0,1:0|0:0,0:0:0:0:
260,129,69544,1,2,1:2:0:0:
166,291,69705,1,2,0:0:0:0:
351,165,69867,5,2,1:2:0:0:
108,69,70028,1,8,0:0:0:0:
271,220,70189,1,0,1:0:0:0:
86,346,70350,1,8,0:0:0:0:
86,346,70431,1,8,0:0:0:0:
86,346,70512,1,2,1:2:0:0:
181,186,70673,1,8,0:0:0:0:
300,381,70834,1,8,0:0:0:0:
300,381,70915,1,8,0:0:0:0:
300,381,70996,2,0,L|363:373,1,38.2499988327027,8|8,0:0|0:0,0:0:0:0:
446,98,71157,5,6,1:2:0:0:
108,74,72447,5,2,3:2:0:0:
399,345,73415,5,2,0:0:0:0:
399,345,73496,1,2,0:0:0:0:
399,345,73576,2,0,L|383:287,1,38.2499988327027,2|2,0:0|0:0,0:0:0:0:
349,89,73738,5,14,0:0:0:0:
150,249,73899,1,0,1:0:0:0:
366,185,74060,1,0,1:0:0:0:
72,0,74221,5,14,0:0:0:0:
274,148,74383,1,0,1:0:0:0:
55,96,74544,1,2,1:2:0:0:
349,89,74705,5,10,0:0:0:0:
75,308,74867,1,6,1:2:0:0:
256,192,74947,12,2,76318,0:0:0:0:
202,51,77286,6,0,P|195:93|157:114,1,89.2499972763062,2|0,0:1|0:0,0:0:0:0:
146,104,77609,6,0,B|252:81|219:161|325:144,1,191.249994163513,2|0,0:1|0:0,0:0:0:0:
402,212,78092,6,0,L|414:105,1,106.25,2|0,0:1|0:0,0:0:0:0:
471,36,78576,6,0,B|528:42|528:42|542:96|489:148,1,165.749992412568,2|2,0:1|0:0,0:0:0:0:
347,17,78899,6,0,B|291:22|291:22|270:44|270:44|213:51,1,140.25000428009,6|0,1:2|0:0,0:0:0:0:
203,35,79221,2,0,L|110:23,1,93.5000028533936,8|0,0:0|0:0,0:0:0:0:
0,253,79544,2,0,L|93:241,1,93.5000028533936,0|0,1:0|0:0,0:0:0:0:
358,208,79867,1,10,0:0:0:0:
101,132,80028,1,2,0:0:0:0:
189,369,80189,6,0,B|240:323|240:323|212:208,1,187.000005706787,2|10,1:2|0:0,0:0:0:0:
341,320,80673,1,0,1:0:0:0:
341,320,80754,1,8,0:0:0:0:
341,320,80834,2,0,L|433:331,1,93.5000028533936,2|0,1:2|0:0,0:0:0:0:
512,123,81157,1,8,0:0:0:0:
358,208,81318,1,2,0:0:0:0:
276,15,81479,6,0,P|357:15|403:109,2,187.000005706787,2|8|0,1:2|0:0|1:0,0:0:0:0:
169,119,82286,1,0,1:0:0:0:
440,243,82447,1,10,0:0:0:0:
316,96,82609,1,2,0:0:0:0:
206,384,82770,5,6,1:2:0:0:
358,208,82931,1,10,0:0:0:0:
358,208,83012,1,8,0:0:0:0:
358,208,83092,1,10,0:0:0:0:
121,340,83254,2,0,L|28:352,1,93.5000028533936,14|0,0:0|0:0,0:0:0:0:
223,83,83576,2,0,L|315:95,1,93.5000028533936,14|0,0:0|0:0,0:0:0:0:
61,262,83899,5,0,1:0:0:0:
61,262,83979,1,8,0:0:0:0:
61,262,84060,2,0,B|52:197|52:197|47:192|47:192|38:124,1,140.25000428009,6|0,1:2|0:0,0:0:0:0:
58,118,84383,2,0,L|69:25,1,93.5000028533936,8|0,0:0|0:0,0:0:0:0:
246,188,84705,1,2,1:2:0:0:
357,0,84867,1,0,1:0:0:0:
165,133,85028,2,0,P|146:175|154:220,1,93.5000028533936,10|0,0:0|0:0,0:0:0:0:
345,339,85350,6,0,B|400:331|400:331|423:348|423:348|481:341,1,140.25000428009,2|0,1:2|0:0,0:0:0:0:
493,351,85673,2,0,L|504:258,1,93.5000028533936,10|0,0:0|0:0,0:0:0:0:
340,81,85996,1,2,1:2:0:0:
419,251,86157,1,0,1:0:0:0:
508,53,86318,2,0,P|465:34|419:41,1,93.5000028533936,10|0,0:0|0:0,0:0:0:0:
159,164,86641,6,0,L|278:149,1,93.5000028533936,2|0,1:2|0:0,0:0:0:0:
454,124,86963,1,10,0:0:0:0:
226,334,87125,2,0,P|206:292|215:247,1,93.5000028533936,2|8,0:0|0:0,0:0:0:0:
340,81,87447,1,10,0:0:0:0:
340,81,87528,1,8,0:0:0:0:
340,81,87609,1,8,0:0:0:0:
123,259,87770,1,14,0:0:0:0:
184,35,87931,5,2,1:2:0:0:
303,281,88092,1,12,0:0:0:0:
151,120,88254,1,2,1:2:0:0:
65,366,88415,1,12,0:0:0:0:
243,102,88576,1,2,1:2:0:0:
400,331,88738,1,8,0:0:0:0:
416,333,88818,1,8,0:0:0:0:
432,335,88899,1,2,1:2:0:0:
252,191,89060,1,10,0:0:0:0:
236,193,89141,1,8,0:0:0:0:
220,195,89221,1,8,0:0:0:0:
220,195,89544,6,0,B|119:189|154:260|50:256,1,187.000005706787,12|0,0:0|1:0,0:0:0:0:
208,292,90028,1,0,1:0:0:0:
44,171,90189,1,10,0:0:0:0:
148,361,90350,1,2,1:2:0:0:
298,131,90512,6,0,L|393:142,1,93.5000028533936,2|0,1:2|0:0,0:0:0:0:
193,0,90834,2,0,L|97:11,1,93.5000028533936,10|0,0:0|1:0,0:0:0:0:
317,233,91157,2,0,L|412:244,1,93.5000028533936,2|0,0:0|1:0,0:0:0:0:
204,104,91479,1,8,0:0:0:0:
269,319,91641,1,2,0:0:0:0:
457,163,91802,6,0,B|508:209|508:209|480:324,2,187.000005706787,2|8|0,1:2|0:0|1:0,0:0:0:0:
316,55,92609,1,0,1:0:0:0:
512,36,92770,1,10,0:0:0:0:
409,244,92931,1,2,1:2:0:0:
229,14,93092,5,6,1:2:0:0:
131,286,93254,1,8,0:0:0:0:
131,286,93334,1,8,0:0:0:0:
131,286,93415,2,0,L|194:278,1,46.7500014266968,8|8,0:0|0:0,0:0:0:0:
89,116,93576,2,0,P|43:107|2:126,1,93.5000028533936,4|2,1:2|0:0,0:0:0:0:
256,338,93899,2,0,P|272:294|267:249,1,93.5000028533936,12|0,0:0|0:0,0:0:0:0:
56,206,94221,1,4,1:2:0:0:
225,0,94384,5,10,0:0:0:0:
173,194,94544,1,0,1:0:0:0:
364,64,94706,5,8,0:0:0:0:
421,282,94867,1,0,1:0:0:0:
277,122,95028,5,8,0:0:0:0:
213,365,95189,1,0,1:0:0:0:
410,145,95350,5,10,0:0:0:0:
153,19,95511,1,0,1:0:0:0:
454,69,95673,5,10,0:0:0:0:
180,148,95834,1,0,1:0:0:0:
462,381,95996,5,10,0:0:0:0:
206,255,96157,1,0,1:0:0:0:
506,305,96318,5,10,0:0:0:0:
232,384,96479,1,0,1:0:0:0:
498,218,96641,1,10,0:0:0:0:
180,148,96802,5,8,0:0:0:0:
180,148,96883,1,8,0:0:0:0:
180,148,96963,2,0,B|107:137|107:137|77:159|77:159|1:150,1,187.000005706787,2|2,1:2|0:0,0:0:0:0:
112,43,97447,1,2,1:2:0:0:
137,229,97609,2,0,L|148:321,1,93.5000028533936,8|0,0:0|1:0,0:0:0:0:
0,166,97931,1,2,0:0:0:0:
251,62,98092,6,0,B|352:56|317:127|421:123,1,187.000005706787,6|0,1:2|0:0,0:0:0:0:
337,272,98576,1,8,0:3:0:0:
512,157,98738,2,0,P|519:112|502:69,1,93.5000028533936,4|0,0:3|0:0,0:0:0:0:
314,183,99060,5,10,0:3:0:0:
496,354,99221,1,6,0:3:0:0:
420,123,99383,1,6,0:3:0:0:
283,345,99544,6,0,B|161:329|161:329|115:381,2,187.000005706787,6|0|0,1:2|1:0|1:0,0:0:0:0:
65,182,100350,2,0,L|76:277,1,93.5000028533936,12|0,0:0|0:0,0:0:0:0:
322,69,100673,2,0,L|311:164,1,93.5000028533936,12|0,0:0|0:0,0:0:0:0:
322,69,102125,6,0,L|310:161,1,93.5000028533936,6|0,1:2|0:0,0:0:0:0:
430,0,102447,1,10,0:0:0:0:
200,134,102609,2,0,L|211:226,1,93.5000028533936,2|0,1:2|0:0,0:0:0:0:
423,109,102931,1,10,0:0:0:0:
229,349,103092,6,0,B|156:340|156:340|123:361|123:361|49:353,1,187.000005706787,6|8,1:2|0:0,0:0:0:0:
211,227,103576,2,0,L|303:238,1,93.5000028533936,6|8,0:3|0:3,0:0:0:0:
16,109,103899,5,2,1:2:0:0:
99,264,104060,1,10,0:0:0:0:
225,104,104221,1,10,0:3:0:0:
111,155,104383,1,6,0:3:0:0:
28,0,104544,1,2,1:2:0:0:
211,226,104705,6,0,L|396:203,1,187.000005706787,6|0,1:2|1:0,0:0:0:0:
512,36,105189,2,0,L|416:24,1,93.5000028533936,0|0,1:0|0:0,0:0:0:0:
273,316,105512,2,0,L|365:304,1,93.5000028533936,12|0,1:2|0:0,0:0:0:0:
241,60,105834,1,12,1:2:0:0:
191,351,107286,6,0,B|197:289|197:289|194:284|194:284|201:225,1,127.5,6|0,1:2|0:0,0:0:0:0:
216,217,107609,2,0,L|205:132,1,85,8|0,0:0|0:0,0:0:0:0:
28,83,107931,1,0,1:0:0:0:
119,185,108092,1,0,1:0:0:0:
80,11,108254,2,0,P|41:-5|-3:0,1,85,10|0,0:0|0:0,0:0:0:0:
278,59,108576,6,0,P|316:42|358:48,1,85,2|0,1:2|0:0,0:0:0:0:
501,172,108899,1,8,0:0:0:0:
337,141,109060,1,0,1:0:0:0:
337,141,109141,1,8,0:0:0:0:
337,141,109221,1,0,1:0:0:0:
475,80,109383,1,0,1:0:0:0:
364,236,109544,2,0,L|279:225,1,85,8|0,0:0|0:0,0:0:0:0:
107,113,109867,6,0,P|176:125|195:199,1,127.5,2|0,1:2|0:0,0:0:0:0:
189,186,110189,2,0,L|175:297,1,85,8|0,0:0|0:0,0:0:0:0:
5,337,110512,2,0,L|18:225,1,85,2|0,1:2|0:0,0:0:0:0:
171,366,110834,1,8,0:0:0:0:
97,222,110996,1,0,1:0:0:0:
255,327,111157,6,0,P|296:331|336:317,1,85,2|0,1:2|0:0,0:0:0:0:
374,168,111479,1,8,0:0:0:0:
485,323,111641,1,0,1:0:0:0:
485,323,111721,1,8,0:0:0:0:
485,323,111802,1,2,1:2:0:0:
282,243,111963,1,0,1:0:0:0:
401,384,112125,1,8,0:0:0:0:
451,123,112286,5,0,1:0:0:0:
451,123,112367,1,8,0:0:0:0:
451,123,112447,2,0,P|404:80|317:104,1,127.5,0|0,1:0|0:0,0:0:0:0:
335,96,112770,2,0,P|295:111|254:105,1,85,8|0,0:0|0:0,0:0:0:0:
138,0,113092,1,2,1:2:0:0:
284,25,113254,1,0,1:0:0:0:
161,180,113415,2,0,L|152:95,1,85,10|0,0:0|0:0,0:0:0:0:
30,252,113738,6,0,B|118:225|105:293|194:269,1,170,2|10,1:2|0:0,0:0:0:0:
66,342,114221,1,0,1:0:0:0:
286,299,114383,2,0,P|290:257|276:217,1,85,2|0,1:2|0:0,0:0:0:0:
152,95,114705,2,0,P|147:136|161:176,1,85,10|0,0:0|0:0,0:0:0:0:
374,0,115028,5,6,1:2:0:0:
242,125,115189,2,0,L|353:138,1,85,2|8,0:0|0:0,0:0:0:0:
512,163,115512,1,2,0:0:0:0:
262,217,115673,1,8,0:0:0:0:
449,79,115834,1,10,0:0:0:0:
449,79,115915,1,8,0:0:0:0:
449,79,115996,1,2,1:2:0:0:
344,264,116157,6,0,L|355:349,1,85,14|0,0:0|1:0,0:0:0:0:
161,176,116479,2,0,L|171:260,1,85,14|0,0:0|1:0,0:0:0:0:
327,49,116802,2,0,L|340:160,1,85,14|0,0:0|1:0,0:0:0:0:
187,376,117125,1,14,0:0:0:0:
187,376,117205,1,8,0:0:0:0:
187,376,117286,1,8,0:0:0:0:
256,174,117447,2,0,L|262:217,1,42.5,10|8,0:0|0:0,0:0:0:0:
427,305,117609,5,6,1:2:0:0:
464,286,117689,1,2,0:0:0:0:
488,251,117770,1,2,0:0:0:0:
490,209,117850,1,2,0:0:0:0:
470,172,117931,2,0,L|427:166,3,42.5,10|2|2|2,0:0|0:0|0:0|0:0,0:0:0:0:
336,46,118254,5,2,1:2:0:0:
293,51,118334,1,2,0:0:0:0:
251,56,118415,1,2,0:0:0:0:
209,61,118495,1,2,0:0:0:0:
167,66,118576,2,0,L|172:23,3,42.5,10|2|2|2,0:0|0:0|0:0|0:0,0:0:0:0:
0,122,118899,5,2,1:2:0:0:
0,122,118979,1,2,0:0:0:0:
0,122,119060,2,0,L|5:165,1,42.5,2|2,0:0|0:0,0:0:0:0:
204,200,119221,2,0,L|209:153,1,42.5,10|2,0:0|0:0,0:0:0:0:
73,55,119383,5,2,1:2:0:0:
73,55,119463,1,10,0:0:0:0:
73,55,119544,2,0,L|78:97,1,42.5,2|2,1:2|0:0,0:0:0:0:
5,327,119705,1,2,0:0:0:0:
17,294,119785,1,2,0:0:0:0:
41,268,119866,1,8,0:0:0:0:
73,253,119946,1,2,0:0:0:0:
108,252,120027,1,2,0:0:0:0:
141,263,120108,1,2,0:0:0:0:
168,287,120189,6,0,B|229:296|229:296|233:300|233:300|292:307,1,127.5,2|0,1:2|0:0,0:0:0:0:
300,293,120512,2,0,L|384:282,1,85,8|0,0:0|0:0,0:0:0:0:
512,181,120834,2,0,L|427:170,1,85,2|0,1:2|0:0,0:0:0:0:
266,86,121157,1,8,0:0:0:0:
411,13,121318,1,0,1:0:0:0:
283,195,121479,6,0,B|216:186|216:186|188:207|188:207|118:198,1,170,2|8,1:2|0:0,0:0:0:0:
150,24,121963,1,0,1:0:0:0:
150,24,122044,1,8,0:0:0:0:
150,24,122125,2,0,L|160:108,1,85,2|0,1:2|0:0,0:0:0:0:
250,279,122447,1,8,0:0:0:0:
72,120,122609,5,0,1:0:0:0:
72,120,122689,1,8,0:0:0:0:
72,120,122770,2,0,B|25:161|25:161|51:266,1,170,14|2,1:2|1:2,0:0:0:0:
272,90,123254,1,10,0:0:0:0:
272,90,123334,1,10,0:0:0:0:
272,90,123415,2,0,L|383:103,1,85,2|6,1:2|0:3,0:0:0:0:
250,279,123738,1,2,1:2:0:0:
157,44,123899,1,10,0:0:0:0:
381,235,124060,5,4,1:2:0:0:
487,0,124221,1,10,0:0:0:0:
487,0,124302,1,8,0:0:0:0:
487,0,124383,1,10,0:0:0:0:
272,90,124544,1,10,0:0:0:0:
272,90,124625,1,8,0:0:0:0:
272,90,124705,2,0,P|267:131|280:171,1,85,10|10,0:0|0:0,0:0:0:0:
486,337,125028,1,10,0:0:0:0:
486,337,125109,1,8,0:0:0:0:
486,337,125189,2,0,L|478:273,1,42.5,10|8,0:0|0:0,0:0:0:0:
450,113,125350,5,14,1:2:0:0:
282,275,125512,1,0,1:0:0:0:
373,34,125673,1,0,1:0:0:0:
350,350,125834,5,14,1:2:0:0:
146,157,125996,1,0,1:0:0:0:
374,254,126157,1,0,1:0:0:0:
89,323,126318,5,4,1:3:0:0:
349,136,126479,1,14,1:2:0:0:
256,192,126641,12,0,133092,0:0:0:0:
