osu file format v14

[General]
AudioFilename: audio.mp3
AudioLeadIn: 0
PreviewTime: 77125
Countdown: 0
SampleSet: Soft
StackLeniency: 0.5
Mode: 0
LetterboxInBreaks: 0
WidescreenStoryboard: 1

[Editor]
DistanceSpacing: 1
BeatDivisor: 4
GridSize: 32
TimelineZoom: 2

[Metadata]
Title:Euphorium (Game Ver.)
TitleUnicode:ユーフォリアム (Game Ver.)
Artist:Suzuyu
ArtistUnicode:鈴湯
Creator:MajK00
Version:Insane
Source:アストラエアの白き永遠 Finale -白き星の夢-
Tags:favorite white eternity of astral air no shiroki towa finale hoshi no yume op opening theme galge galgame eroge visual novel video game videogame japanese pop jpop j-pop female vocal vocalist 山本美禰子 Yamamoto Mineko 小高光太郎 Odaka Kotaro UiNA saltylucario saltking salty
BeatmapID:3964264
BeatmapSetID:1901511

[Difficulty]
HPDrainRate:4.5
CircleSize:3.6
OverallDifficulty:8
ApproachRate:9
SliderMultiplier:1.52
SliderTickRate:1

[Events]
//Background and Video events
0,0,"BG.jpg",0,0
//Break Periods
//Storyboard Layer 0 (Background)
//Storyboard Layer 1 (Fail)
//Storyboard Layer 2 (Pass)
//Storyboard Layer 3 (Foreground)
//Storyboard Layer 4 (Overlay)
//Storyboard Sound Samples

[TimingPoints]
1480,322.58064516129,4,2,27,40,1,0
1480,-166.666666666667,4,2,27,40,0,0
5350,-166.666666666667,4,2,27,50,0,0
6641,-125,4,2,27,60,0,0
9463,-125,4,2,27,5,0,0
9544,-125,4,2,27,60,0,0
11802,-100,4,2,27,70,0,0
12044,-100,4,2,27,5,0,0
12125,-100,4,2,27,70,0,0
16963,-100,4,2,27,80,0,0
19544,-100,4,2,27,70,0,0
20673,-166.666666666667,4,2,27,60,0,0
24383,-166.666666666667,4,2,27,60,0,0
24705,-166.666666666667,4,2,27,40,0,0
35028,-142.857142857143,4,2,27,40,0,0
42770,-125,4,2,27,50,0,0
45350,-111.111111111111,4,2,27,60,0,0
73415,-111.111111111111,4,2,27,70,0,0
77286,-142.857142857142,4,2,27,70,0,0
77528,-142.857142857142,4,2,27,5,0,0
77609,-111.111111111111,4,2,27,70,0,0
78012,-111.111111111111,4,2,27,5,0,0
78092,-199.999999999999,4,2,27,80,0,0
78496,-199.999999999999,4,2,27,5,0,0
78576,-76.9230769230769,4,2,27,80,0,0
78818,-76.9230769230769,4,2,27,5,0,0
78899,-90.9090909090907,4,2,27,75,0,0
79141,-90.9090909090907,4,2,27,5,0,0
79221,-90.9090909090907,4,2,27,75,0,0
84302,-90.9090909090907,4,2,27,5,0,0
84383,-90.9090909090907,4,2,27,75,0,0
85592,-90.9090909090907,4,2,27,5,0,0
85673,-90.9090909090907,4,2,27,75,0,0
107286,-100,4,2,27,75,0,0
107528,-100,4,2,27,5,0,0
107609,-100,4,2,27,75,0,0
110109,-100,4,2,27,5,0,0
110189,-100,4,2,27,75,0,0
112689,-100,4,2,27,5,0,0
112770,-100,4,2,27,75,0,0
120431,-100,4,2,27,5,0,0
120512,-100,4,2,27,75,0,0
125350,-100,4,2,27,85,0,0
133092,-100,4,2,27,5,0,0

[Colours]
Combo1 : 227,176,247
Combo2 : 130,151,238
Combo3 : 245,120,123
Combo4 : 201,201,201

[HitObjects]
22,104,1480,5,2,0:0:0:0:
22,104,1641,1,2,0:0:0:0:
69,39,1802,2,0,L|114:33,1,45.5999986083985,2|2,0:0|0:0,0:0:0:0:
200,59,2125,5,2,0:0:0:0:
200,59,2286,2,0,P|207:37|204:14,2,45.5999986083985,2|2|2,0:0|0:0|0:0,0:0:0:0:
257,130,2770,5,2,0:0:0:0:
257,130,2931,2,0,P|274:114|282:93,2,45.5999986083985,2|2|2,0:0|0:0|0:0,0:0:0:0:
270,219,3415,5,2,0:0:0:0:
270,219,3576,2,0,P|292:214|310:199,2,45.5999986083985,2|2|2,0:0|0:0|0:0,0:0:0:0:
237,303,4061,5,2,0:0:0:0:
237,303,4222,2,0,P|259:309|282:307,2,45.5999986083985,2|2|2,0:0|0:0|0:0,0:0:0:0:
166,359,4706,5,2,0:0:0:0:
166,359,4867,2,0,P|181:376|202:384,2,45.5999986083985,2|2|2,0:0|0:0|0:0,0:0:0:0:
73,299,5350,5,2,0:0:0:0:
132,222,5512,1,2,0:0:0:0:
81,309,5673,1,2,0:0:0:0:
42,201,5834,1,2,0:0:0:0:
370,384,6318,6,0,L|372:361,3,22.7999993041992,2|2|2|2,0:0|0:0|0:0|0:0,0:0:0:0:
439,320,6641,2,0,B|431:272|431:272|446:250|446:250|439:202,1,121.6,6|0,1:2|0:0,0:0:0:0:
389,115,7125,2,0,L|358:111,2,30.4,2|2|2,1:2|0:0|0:0,0:0:0:0:
505,132,7447,1,4,0:3:0:0:
459,47,7609,1,2,0:0:0:0:
350,204,7770,6,0,L|222:188,1,121.6,6|2,1:2|0:0,0:0:0:0:
228,63,8254,1,10,0:0:0:0:
148,170,8415,2,0,P|145:200|156:229,1,60.8,10|2,0:0|0:0,0:0:0:0:
174,321,8738,1,10,0:3:0:0:
260,273,8899,1,2,1:2:0:0:
165,334,9060,1,2,1:2:0:0:
334,367,9221,6,0,B|408:377|408:377|434:339,1,121.6,6|2,1:2|1:2,0:0:0:0:
498,224,9705,1,10,0:0:0:0:
357,216,9867,2,0,L|364:277,1,60.8,2|10,1:2|0:0,0:0:0:0:
430,128,10189,1,2,1:2:0:0:
285,29,10350,6,0,P|226:39|187:109,1,121.6,6|0,1:2|0:0,0:0:0:0:
265,181,10834,2,0,L|272:120,1,60.8,0|0,1:0|0:0,0:0:0:0:
179,176,11157,1,8,0:0:0:0:
177,195,11237,1,8,0:0:0:0:
175,214,11318,1,8,0:0:0:0:
172,233,11398,1,8,0:0:0:0:
170,252,11479,1,8,0:0:0:0:
38,384,11802,6,0,B|32:334|32:334|35:330|35:330|28:271,1,114,6|0,1:2|0:0,0:0:0:0:
15,259,12125,2,0,L|26:163,1,76,8|0,0:0|0:0,0:0:0:0:
47,44,12447,1,0,1:0:0:0:
98,132,12609,1,2,0:0:0:0:
162,13,12770,2,0,P|196:-1|233:3,1,76,10|0,0:0|0:0,0:0:0:0:
392,86,13092,6,0,B|306:76|328:125|242:120,1,152,0|8,1:0|0:0,0:0:0:0:
364,244,13576,1,0,1:0:0:0:
364,244,13657,1,8,0:0:0:0:
364,244,13738,2,0,L|375:148,1,76,2|0,1:2|0:0,0:0:0:0:
490,58,14060,2,0,L|478:153,1,76,10|0,0:0|0:0,0:0:0:0:
429,331,14383,6,0,P|357:351|289:320,1,152,2|0,1:2|1:0,0:0:0:0:
215,214,14867,2,0,P|177:210|141:222,1,76,10|0,0:0|1:0,0:0:0:0:
64,352,15189,1,10,0:0:0:0:
190,312,15350,1,8,0:0:0:0:
34,241,15512,6,0,B|-11:213|-11:213|2:106,1,152,6|0,1:2|0:0,0:0:0:0:
18,0,15996,1,8,0:0:0:0:
121,130,16157,2,0,L|111:54,1,76,12|0,0:0|0:0,0:0:0:0:
215,214,16479,2,0,L|224:138,1,76,12|0,0:0|0:0,0:0:0:0:
238,0,16802,1,4,1:2:0:0:
452,108,16963,5,12,0:0:0:0:
311,158,17125,1,0,1:0:0:0:
484,225,17286,1,8,0:0:0:0:
312,72,17447,6,0,L|322:148,1,76,0|8,1:0|0:0,0:0:0:0:
463,312,17770,2,0,L|473:237,1,76,0|8,1:0|0:0,0:0:0:0:
363,384,18092,1,0,1:0:0:0:
222,199,18254,5,8,0:0:0:0:
359,279,18415,1,0,1:0:0:0:
233,384,18576,1,8,0:0:0:0:
344,290,18738,1,0,1:0:0:0:
157,315,18899,5,10,0:0:0:0:
157,315,18979,1,2,0:0:0:0:
157,315,19060,2,0,L|93:307,1,38,2|2,1:2|0:0,0:0:0:0:
184,204,19221,2,0,L|221:199,3,38,10|2|2|2,0:0|0:0|1:2|0:0,0:0:0:0:
67,221,19544,6,0,P|28:254|25:356,1,152,14|0,0:0|1:0,0:0:0:0:
113,137,20028,2,0,L|103:61,1,76,10|0,0:0|1:0,0:0:0:0:
0,151,20350,1,10,0:0:0:0:
0,151,20430,1,8,0:0:0:0:
0,151,20511,1,0,1:0:0:0:
172,7,20673,6,0,B|244:12|244:12|270:42|270:42|340:49,1,182.399994433594,12|2,0:0|0:0,0:0:0:0:
256,192,22286,12,2,23899,0:0:0:0:
447,51,24705,6,0,L|424:232,1,182.399994433594,2|0,1:2|0:0,0:0:0:0:
221,314,25673,6,0,P|215:292|216:269,1,45.5999986083985,2|2,0:0|0:0,0:0:0:0:
295,285,25996,2,0,B|368:276|356:327|422:324,1,136.799995825195,2|0,3:2|0:0,0:0:0:0:
47,313,26963,6,0,L|41:360,1,45.5999986083985,2|2,0:0|0:0,0:0:0:0:
117,384,27286,2,0,L|139:203,2,182.399994433594,2|2|2,3:2|0:0|3:2,0:0:0:0:
44,37,29221,6,0,P|23:30|0:32,2,45.5999986083985,2|2|2,0:0|0:0|0:0,0:0:0:0:
13,111,29705,1,2,0:0:0:0:
110,83,29867,2,0,P|197:73|257:145,1,182.399994433594,2|0,1:2|0:0,0:0:0:0:
489,63,30834,6,0,L|494:15,1,45.5999986083985,2|0,0:0|0:0,0:0:0:0:
407,30,31157,2,0,L|395:120,1,91.199997216797,2|2,3:2|0:0,0:0:0:0:
418,205,31641,2,0,P|396:211|373:210,1,45.5999986083985,2|0,0:0|0:0,0:0:0:0:
304,147,31963,2,0,L|292:56,1,91.199997216797,2|0,0:0|0:0,0:0:0:0:
128,4,32447,6,0,L|139:94,1,91.199997216797,2|2,3:2|0:0,0:0:0:0:
205,141,32931,2,0,P|97:123|26:205,1,227.999993041992,2|0,0:0|3:0,0:0:0:0:
255,384,34383,6,0,L|272:241,1,136.799995825195,2|0,0:0|0:0,0:0:0:0:
365,135,35028,6,0,B|428:127|428:127|451:101|451:101|513:94,2,159.599995129395,2|0|2,1:2|1:0|0:0,0:0:0:0:
327,64,36157,1,2,1:2:0:0:
407,218,36318,5,10,0:3:0:0:
407,218,36479,2,0,L|534:202,2,106.39999675293,8|4|4,0:3|0:3|0:3,0:0:0:0:
359,299,37286,1,2,1:2:0:0:
359,299,37447,1,2,1:2:0:0:
273,203,37609,6,0,P|222:191|176:216,1,106.39999675293,2|2,1:2|0:0,0:0:0:0:
98,284,38092,2,0,L|85:178,1,106.39999675293,2|0,1:2|0:0,0:0:0:0:
0,97,38576,2,0,P|25:104|52:103,1,53.1999983764649,2|0,1:2|0:0,0:0:0:0:
181,20,38899,6,0,B|273:6|246:66|336:55,2,159.599995129395,2|2|2,3:2|1:2|1:2,0:0:0:0:
417,45,40189,6,0,P|419:71|409:96,1,53.1999983764649,2|0,1:2|0:0,0:0:0:0:
481,152,40512,2,0,P|463:172|439:183,1,53.1999983764649,0|0,1:0|0:0,0:0:0:0:
450,272,40834,2,0,P|423:274|398:264,1,53.1999983764649,0|0,1:0|0:0,0:0:0:0:
348,181,41157,1,2,1:2:0:0:
348,181,41318,1,0,3:0:0:0:
311,297,41479,5,6,0:3:0:0:
311,297,41641,2,0,L|258:303,1,53.1999983764649,8|0,0:3|0:0,0:0:0:0:
172,223,41963,2,0,B|178:264|178:264|164:284|164:284|170:332,1,106.39999675293,10|0,0:0|1:0,0:0:0:0:
90,384,42447,2,0,L|83:331,1,53.1999983764649,2|0,0:0|1:0,0:0:0:0:
155,134,42770,6,0,P|185:132|213:141,1,60.8,10|0,0:0|1:0,0:0:0:0:
268,218,43092,1,0,1:0:0:0:
361,132,43254,2,0,P|307:153|279:214,1,121.6,10|0,0:0|1:0,0:0:0:0:
349,328,43738,1,10,0:0:0:0:
380,223,43899,1,2,1:2:0:0:
470,332,44060,5,4,1:2:0:0:
498,221,44221,2,0,L|377:235,1,121.6,4|2,0:3|0:0,0:0:0:0:
345,339,44705,2,0,L|281:331,1,60.8,10|10,0:3|0:3,0:0:0:0:
201,290,45028,1,6,0:3:0:0:
279,207,45189,1,6,0:3:0:0:
106,348,45350,6,0,P|26:333|-5:279,2,136.799995825195,6|8|0,1:2|0:0|0:0,0:0:0:0:
201,290,46157,1,0,1:0:0:0:
81,262,46318,2,0,L|72:194,1,68.3999979125977,10|2,0:0|0:0,0:0:0:0:
18,76,46641,6,0,B|87:64|77:113|151:103,1,136.799995825195,2|8,1:2|0:0,0:0:0:0:
251,14,47125,2,0,P|314:32|345:93,1,136.799995825195,0|0,1:2|1:0,0:0:0:0:
280,217,47609,1,10,0:0:0:0:
252,110,47770,1,2,0:0:0:0:
377,187,47931,6,0,L|512:170,2,136.799995825195,2|8|2,1:2|0:0|0:0,0:0:0:0:
273,201,48738,1,0,1:0:0:0:
391,278,48899,2,0,L|486:266,1,68.3999979125977,8|0,0:0|0:0,0:0:0:0:
305,384,49221,6,0,P|266:336|184:327,1,136.799995825195,2|8,1:2|0:0,0:0:0:0:
87,384,49705,2,0,L|94:316,1,68.3999979125977,0|0,1:0|0:0,0:0:0:0:
151,225,50028,1,2,1:2:0:0:
9,211,50189,2,0,P|5:244|16:276,1,68.3999979125977,10|2,0:0|0:0,0:0:0:0:
133,139,50512,6,0,B|38:127|38:127|12:85,2,136.799995825195,0|8|0,1:0|0:0|0:0,0:0:0:0:
243,151,51318,1,0,1:0:0:0:
160,56,51479,2,0,L|92:47,1,68.3999979125977,10|0,0:0|0:0,0:0:0:0:
275,60,51802,6,0,P|328:99|341:165,1,136.799995825195,2|10,1:2|0:0,0:0:0:0:
235,218,52286,2,0,L|243:150,1,68.3999979125977,2|0,1:2|0:0,0:0:0:0:
327,250,52609,1,2,1:2:0:0:
259,310,52770,2,0,P|225:313|193:302,1,68.3999979125977,8|0,0:0|0:0,0:0:0:0:
403,384,53092,6,0,L|420:241,1,136.799995825195,2|10,1:2|0:0,0:0:0:0:
512,168,53576,2,0,L|503:100,1,68.3999979125977,2|0,0:0|1:0,0:0:0:0:
338,40,53899,1,2,1:2:0:0:
419,161,54060,2,0,L|410:93,1,68.3999979125977,10|0,0:0|0:0,0:0:0:0:
280,156,54383,5,2,1:2:0:0:
342,30,54544,1,8,0:0:0:0:
279,144,54705,2,0,L|211:135,1,68.3999979125977,0|4,1:0|0:3,0:0:0:0:
104,69,55028,2,0,P|41:92|11:153,1,136.799995825195,2|0,0:0|1:0,0:0:0:0:
181,236,55512,5,8,0:0:0:0:
181,236,55592,1,8,0:0:0:0:
181,236,55673,2,0,P|148:224|115:227,1,68.3999979125977,6|0,1:2|0:0,0:0:0:0:
129,384,55996,2,0,L|137:316,1,68.3999979125977,10|0,0:0|0:0,0:0:0:0:
227,376,56318,2,0,L|235:308,1,68.3999979125977,2|0,0:0|1:0,0:0:0:0:
246,177,56641,1,10,0:0:0:0:
312,264,56802,1,0,1:0:0:0:
447,148,56963,6,0,P|479:136|512:139,1,68.3999979125977,6|0,1:2|0:0,0:0:0:0:
499,296,57286,2,0,L|490:228,1,68.3999979125977,10|0,0:0|0:0,0:0:0:0:
401,288,57608,2,0,L|392:220,1,68.3999979125977,2|0,0:0|1:0,0:0:0:0:
376,64,57931,1,10,0:0:0:0:
447,148,58092,1,2,1:2:0:0:
294,212,58254,6,0,L|214:202,1,68.3999979125977,2|0,1:2|0:0,0:0:0:0:
140,241,58576,1,10,0:0:0:0:
230,112,58738,2,0,B|177:117|177:117|159:139|159:139|104:146,1,136.799995825195,2|0,1:2|1:0,0:0:0:0:
4,87,59221,1,10,0:0:0:0:
103,54,59383,1,0,1:0:0:0:
19,185,59544,6,0,L|36:320,1,136.799995825195,2|8,1:2|0:0,0:0:0:0:
145,383,60028,2,0,P|173:322|231:290,1,136.799995825195,2|0,1:2|1:0,0:0:0:0:
368,367,60512,1,10,0:0:0:0:
246,384,60673,1,0,1:0:0:0:
325,270,60834,6,0,L|333:202,1,68.3999979125977,10|0,0:0|1:0,0:0:0:0:
432,256,61157,1,0,1:0:0:0:
348,105,61318,2,0,B|279:93|289:142|215:132,1,136.799995825195,8|0,0:0|1:0,0:0:0:0:
103,0,61802,1,10,0:0:0:0:
229,42,61963,1,2,1:2:0:0:
130,189,62125,6,0,L|121:121,1,68.3999979125977,8|0,0:0|1:0,0:0:0:0:
103,0,62447,1,0,1:0:0:0:
10,130,62609,2,0,L|26:265,1,136.799995825195,12|0,0:0|1:0,0:0:0:0:
159,384,63092,1,10,0:0:0:0:
118,285,63254,1,2,1:2:0:0:
302,263,63415,6,0,P|366:271|384:344,1,136.799995825195,6|10,1:2|0:0,0:0:0:0:
247,384,63899,2,0,B|242:331|242:331|220:313|220:313|213:258,1,136.799995825195,2|0,1:2|1:0,0:0:0:0:
113,121,64383,2,0,L|121:188,1,68.3999979125977,10|0,0:0|1:0,0:0:0:0:
169,42,64705,6,0,P|124:19|74:30,2,102.599996868897,10|8|8,0:3|0:3|0:3,0:0:0:0:
264,161,65350,2,0,P|297:163|330:153,1,68.3999979125977,2|4,0:0|0:3,0:0:0:0:
285,64,65673,1,8,0:3:0:0:
285,64,65754,1,8,0:3:0:0:
285,64,65834,1,4,0:3:0:0:
422,131,65996,6,0,P|422:165|414:198,1,68.3999979125977,6|0,1:2|0:0,0:0:0:0:
324,220,66318,2,0,P|323:185|331:152,1,68.3999979125977,0|0,1:0|0:0,0:0:0:0:
463,283,66641,6,0,L|395:291,1,68.3999979125977,2|0,1:2|0:0,0:0:0:0:
448,297,66963,2,0,L|380:305,1,68.3999979125977,0|0,1:0|0:0,0:0:0:0:
291,367,67286,6,0,L|223:358,1,68.3999979125977,2|0,1:2|0:0,0:0:0:0:
276,353,67608,2,0,L|208:344,1,68.3999979125977,0|0,1:0|0:0,0:0:0:0:
119,283,67931,6,0,L|51:291,1,68.3999979125977,2|0,1:2|0:0,0:0:0:0:
104,297,68253,2,0,L|36:305,1,68.3999979125977,0|0,1:0|0:0,0:0:0:0:
214,252,68576,6,0,L|222:184,1,68.3999979125977,2|0,1:2|0:0,0:0:0:0:
228,237,68898,2,0,L|236:169,1,68.3999979125977,0|0,1:0|0:0,0:0:0:0:
242,222,69221,2,0,L|250:154,1,68.3999979125977,0|0,1:0|0:0,0:0:0:0:
255,0,69544,1,2,1:2:0:0:
174,96,69705,1,2,0:0:0:0:
395,144,69867,5,2,1:2:0:0:
339,7,70028,2,0,L|271:16,1,68.3999979125977,8|0,0:0|1:0,0:0:0:0:
395,144,70350,1,8,0:0:0:0:
395,144,70431,1,8,0:0:0:0:
395,144,70512,2,0,L|490:155,1,68.3999979125977,2|8,1:2|0:0,0:0:0:0:
321,269,70834,1,8,0:0:0:0:
321,269,70915,1,8,0:0:0:0:
321,269,70996,2,0,L|316:235,1,34.1999989562989,8|8,0:0|0:0,0:0:0:0:
300,105,71157,5,6,1:2:0:0:
435,304,72447,5,2,3:2:0:0:
142,384,73415,6,0,L|146:350,3,34.1999989562989,2|2|2|2,0:0|0:0|0:0|0:0,0:0:0:0:
216,303,73738,6,0,L|207:235,1,68.3999979125977,14|0,0:0|1:0,0:0:0:0:
190,113,74060,1,0,1:0:0:0:
101,258,74221,2,0,P|67:260|34:250,1,68.3999979125977,14|0,0:0|1:0,0:0:0:0:
89,104,74544,1,2,1:2:0:0:
207,235,74705,1,10,0:0:0:0:
0,156,74867,1,6,1:2:0:0:
256,192,74947,12,2,76318,0:0:0:0:
115,18,77286,6,0,L|35:27,1,79.7999975646973,2|0,0:1|0:0,0:0:0:0:
24,17,77609,6,0,B|65:54|65:54|44:138,1,136.799995825195,2|0,0:1|0:0,0:0:0:0:
106,293,78092,6,0,P|89:249|51:221,1,95,2|0,0:1|0:0,0:0:0:0:
41,230,78576,6,0,B|121:242|98:185|183:198,1,148.199993215943,2|2,0:1|0:0,0:0:0:0:
266,130,78899,6,0,L|281:254,1,125.400003826904,6|0,1:2|0:0,0:0:0:0:
266,264,79221,2,0,L|255:346,1,83.6000025512696,8|0,0:0|0:0,0:0:0:0:
370,217,79544,2,0,L|359:134,1,83.6000025512696,0|0,1:0|0:0,0:0:0:0:
251,0,79867,1,10,0:0:0:0:
385,20,80028,1,2,0:0:0:0:
263,125,80189,6,0,B|198:115|198:115|171:135|171:135|103:127,1,167.200005102539,2|10,1:2|0:0,0:0:0:0:
0,0,80673,1,0,1:0:0:0:
0,0,80754,1,8,0:0:0:0:
0,0,80834,2,0,L|11:95,1,83.6000025512696,2|0,1:2|0:0,0:0:0:0:
30,238,81157,1,8,0:0:0:0:
103,127,81318,1,2,0:0:0:0:
161,275,81479,6,0,P|116:222|24:224,2,167.200005102539,2|8|0,1:2|0:0|1:0,0:0:0:0:
70,313,82286,1,0,1:0:0:0:
228,204,82447,1,10,0:0:0:0:
179,369,82609,1,2,0:0:0:0:
330,234,82770,6,0,L|319:151,1,83.6000025512696,6|10,1:2|0:0,0:0:0:0:
318,122,83012,1,8,0:0:0:0:
318,124,83092,1,10,0:0:0:0:
427,292,83254,2,0,L|417:210,1,83.6000025512696,14|0,0:0|0:0,0:0:0:0:
218,121,83576,2,0,L|228:204,1,83.6000025512696,14|0,0:0|0:0,0:0:0:0:
311,24,83899,5,0,1:0:0:0:
311,24,83979,1,8,0:0:0:0:
311,24,84060,2,0,B|377:11|360:61|428:50,1,125.400003826904,6|0,1:2|0:0,0:0:0:0:
446,40,84383,2,0,P|460:78|456:119,1,83.6000025512696,8|0,0:0|0:0,0:0:0:0:
326,238,84705,1,2,1:2:0:0:
370,130,84867,1,0,1:0:0:0:
430,294,85028,2,0,L|512:283,1,83.6000025512696,10|0,0:0|0:0,0:0:0:0:
271,359,85350,6,0,P|239:309|159:295,1,125.400003826904,2|0,1:2|0:0,0:0:0:0:
169,304,85673,2,0,P|130:318|89:312,1,83.6000025512696,10|0,0:0|0:0,0:0:0:0:
10,177,85996,1,2,1:2:0:0:
122,226,86157,1,0,1:0:0:0:
10,88,86318,2,0,L|-1:183,1,83.6000025512696,10|0,0:0|0:0,0:0:0:0:
161,27,86641,6,0,B|273:11|273:11|303:55,1,167.200005102539,2|10,1:2|0:0,0:0:0:0:
209,202,87125,2,0,L|219:119,1,83.6000025512696,2|8,0:0|0:0,0:0:0:0:
404,39,87447,1,10,0:0:0:0:
404,39,87528,1,8,0:0:0:0:
404,39,87609,1,8,0:0:0:0:
304,208,87770,6,0,L|314:290,1,83.6000025512696,14|2,0:0|1:2,0:0:0:0:
232,108,88092,1,12,0:0:0:0:
407,189,88254,2,0,P|448:194|487:180,1,83.6000025512696,2|12,1:2|0:0,0:0:0:0:
306,305,88576,2,0,P|264:310|225:296,1,83.6000025512696,2|8,1:2|0:0,0:0:0:0:
214,277,88818,1,8,0:0:0:0:
214,277,88899,2,0,P|172:271|133:285,1,83.6000025512696,2|10,1:2|0:0,0:0:0:0:
119,312,89141,1,8,0:0:0:0:
119,312,89221,1,8,0:0:0:0:
0,78,89544,6,0,P|62:92|96:189,1,167.200005102539,12|0,0:0|1:0,0:0:0:0:
6,174,90028,1,0,1:0:0:0:
182,100,90189,1,10,0:0:0:0:
102,6,90350,1,2,1:2:0:0:
97,181,90512,6,0,L|179:191,1,83.6000025512696,2|0,1:2|0:0,0:0:0:0:
346,46,90834,2,0,L|263:56,1,83.6000025512696,10|0,0:0|1:0,0:0:0:0:
111,198,91157,2,0,L|193:208,1,83.6000025512696,2|0,0:0|1:0,0:0:0:0:
357,233,91479,1,8,0:0:0:0:
267,143,91641,1,2,0:0:0:0:
327,332,91802,6,0,L|492:311,2,167.200005102539,2|8|0,1:2|0:0|1:0,0:0:0:0:
198,351,92609,1,0,1:0:0:0:
357,233,92770,1,10,0:0:0:0:
267,143,92931,1,2,1:2:0:0:
327,332,93092,5,6,1:2:0:0:
166,239,93254,1,8,0:0:0:0:
166,239,93334,1,8,0:0:0:0:
166,239,93415,2,0,L|162:170,1,41.8000012756348,8|8,0:0|0:0,0:0:0:0:
237,45,93576,2,0,P|278:39|317:54,1,83.6000025512696,4|2,1:2|0:0,0:0:0:0:
80,104,93899,2,0,P|38:109|0:94,1,83.6000025512696,12|0,0:0|0:0,0:0:0:0:
135,0,94221,1,4,1:2:0:0:
267,143,94383,6,0,L|255:238,1,83.6000025512696,10|0,0:0|1:0,0:0:0:0:
75,384,94705,2,0,L|63:288,1,83.6000025512696,8|0,0:0|1:0,0:0:0:0:
173,114,95028,2,0,L|161:209,1,83.6000025512696,8|0,0:0|1:0,0:0:0:0:
176,358,95350,5,10,0:0:0:0:
72,211,95512,1,0,1:0:0:0:
272,357,95673,1,10,0:0:0:0:
168,210,95835,1,0,1:0:0:0:
378,291,95996,2,0,L|367:373,1,83.6000025512696,10|0,0:0|1:0,0:0:0:0:
448,196,96318,5,10,0:0:0:0:
267,250,96479,1,0,1:0:0:0:
449,106,96641,1,10,0:0:0:0:
278,5,96802,5,8,0:0:0:0:
278,5,96883,1,8,0:0:0:0:
278,5,96963,2,0,B|234:35|234:35|250:147,1,167.200005102539,2|2,1:2|0:0,0:0:0:0:
339,86,97447,1,2,1:2:0:0:
241,165,97609,2,0,L|157:154,1,83.6000025512696,8|0,0:0|1:0,0:0:0:0:
74,65,97931,1,2,0:0:0:0:
2,231,98092,6,0,B|66:239|66:239|88:269|88:269|151:279,1,167.200005102539,6|0,1:2|0:0,0:0:0:0:
110,376,98576,1,8,0:3:0:0:
234,335,98738,2,0,P|247:295|244:254,1,83.6000025512696,4|0,0:3|0:0,0:0:0:0:
158,154,99060,5,10,0:3:0:0:
303,182,99221,1,6,0:3:0:0:
152,279,99383,1,6,0:3:0:0:
327,384,99544,6,0,L|492:363,2,167.200005102539,6|0|0,1:2|1:0|1:0,0:0:0:0:
458,198,100350,2,0,L|447:280,1,83.6000025512696,12|0,0:0|0:0,0:0:0:0:
287,121,100673,2,0,L|298:203,1,83.6000025512696,12|0,0:0|0:0,0:0:0:0:
88,163,102125,6,0,L|98:80,1,83.6000025512696,6|0,1:2|0:0,0:0:0:0:
25,22,102447,1,10,0:0:0:0:
190,130,102609,2,0,L|178:225,1,83.6000025512696,2|0,1:2|0:0,0:0:0:0:
96,265,102931,1,10,0:0:0:0:
175,33,103092,6,0,B|264:19|238:83|334:68,1,167.200005102539,6|8,1:2|0:0,0:0:0:0:
444,0,103576,2,0,L|456:95,1,83.6000025512696,6|8,0:3|0:3,0:0:0:0:
475,217,103899,1,2,1:2:0:0:
312,158,104060,2,0,P|305:117|321:79,1,83.6000025512696,10|10,0:0|0:3,0:0:0:0:
382,221,104383,1,6,0:3:0:0:
241,307,104544,1,2,1:2:0:0:
454,382,104705,6,0,L|477:191,1,167.200005102539,6|0,1:2|1:0,0:0:0:0:
324,297,105189,2,0,L|241:307,1,83.6000025512696,0|0,1:0|0:0,0:0:0:0:
393,139,105512,2,0,L|382:221,1,83.6000025512696,12|0,1:2|0:0,0:0:0:0:
365,384,105834,1,12,1:2:0:0:
155,16,107286,6,0,P|99:17|61:58,1,114,6|0,1:2|0:0,0:0:0:0:
71,69,107609,2,0,L|61:144,1,76,8|0,0:0|0:0,0:0:0:0:
42,268,107931,1,0,1:0:0:0:
136,213,108092,1,0,1:0:0:0:
85,344,108254,2,0,P|49:356|12:351,1,76,10|0,0:0|0:0,0:0:0:0:
236,319,108576,6,0,B|295:325|295:325|316:350|316:350|374:358,1,152,2|8,1:2|0:0,0:0:0:0:
486,274,109060,1,0,1:0:0:0:
486,274,109141,1,8,0:0:0:0:
486,274,109221,2,0,L|495:349,1,76,0|0,1:0|1:0,0:0:0:0:
375,256,109544,2,0,L|365:180,1,76,8|0,0:0|0:0,0:0:0:0:
512,84,109867,6,0,B|458:77|458:77|456:73|456:73|400:66,1,114,2|0,1:2|0:0,0:0:0:0:
393,52,110189,2,0,L|317:61,1,76,8|0,0:0|0:0,0:0:0:0:
256,176,110512,2,0,L|180:167,1,76,2|0,1:2|0:0,0:0:0:0:
129,32,110834,1,8,0:0:0:0:
233,85,110996,1,0,1:0:0:0:
69,135,111157,6,0,B|25:165|25:165|38:262,1,152,2|8,1:2|0:0,0:0:0:0:
157,384,111641,1,0,1:0:0:0:
157,384,111721,1,8,0:0:0:0:
157,384,111802,2,0,L|168:288,1,76,2|0,1:2|1:0,0:0:0:0:
180,167,112125,1,8,0:0:0:0:
283,311,112286,5,0,1:0:0:0:
283,311,112367,1,8,0:0:0:0:
283,311,112447,2,0,B|345:290|332:341|396:322,1,114,0|0,1:0|0:0,0:0:0:0:
410,318,112770,2,0,P|422:282|419:244,1,76,8|0,0:0|0:0,0:0:0:0:
342,124,113092,1,2,1:2:0:0:
303,212,113254,1,0,1:0:0:0:
437,153,113415,2,0,L|512:143,1,76,10|0,0:0|0:0,0:0:0:0:
350,27,113738,6,0,P|294:38|252:138,1,152,2|10,1:2|0:0,0:0:0:0:
303,212,114221,1,0,1:0:0:0:
154,164,114383,2,0,L|145:88,1,76,2|0,1:2|0:0,0:0:0:0:
212,239,114705,2,0,L|203:314,1,76,10|0,0:0|0:0,0:0:0:0:
28,384,115028,5,6,1:2:0:0:
112,252,115189,2,0,L|104:327,1,76,2|8,0:0|0:0,0:0:0:0:
1,162,115512,2,0,L|9:237,1,76,2|8,0:0|0:0,0:0:0:0:
48,69,115834,1,10,0:0:0:0:
48,69,115915,1,8,0:0:0:0:
48,69,115996,1,2,1:2:0:0:
229,154,116157,6,0,L|153:163,1,76,14|0,0:0|1:0,0:0:0:0:
316,63,116479,2,0,L|240:53,1,76,14|0,0:0|1:0,0:0:0:0:
386,196,116802,2,0,L|310:205,1,76,14|0,0:0|1:0,0:0:0:0:
427,96,117125,1,14,0:0:0:0:
427,96,117205,1,8,0:0:0:0:
427,96,117286,1,8,0:0:0:0:
506,241,117447,5,10,0:0:0:0:
506,241,117528,1,8,0:0:0:0:
506,241,117609,2,0,P|512:222|512:202,3,38,6|2|2|2,1:2|0:0|0:0|0:0,0:0:0:0:
431,290,117931,1,10,0:0:0:0:
431,290,118012,1,2,0:0:0:0:
431,290,118092,2,0,P|425:309|425:329,1,38,2|2,0:0|0:0,0:0:0:0:
339,381,118254,5,2,1:2:0:0:
339,381,118334,1,2,0:0:0:0:
339,381,118415,2,0,L|276:374,1,38,2|2,0:0|0:0,0:0:0:0:
290,282,118576,2,0,L|252:277,3,38,10|2|2|2,0:0|0:0|0:0|0:0,0:0:0:0:
184,384,118899,5,2,1:2:0:0:
184,384,118979,1,2,0:0:0:0:
184,384,119060,2,0,L|192:321,3,38,2|2|10|2,0:0|0:0|0:0|0:0,0:0:0:0:
84,335,119383,1,2,1:2:0:0:
84,335,119463,1,10,0:0:0:0:
84,335,119544,2,0,P|80:316|81:297,3,38,2|2|2|2,1:2|0:0|0:0|0:0,0:0:0:0:
46,209,119867,1,8,0:0:0:0:
73,201,119947,1,2,0:0:0:0:
101,201,120028,1,2,0:0:0:0:
128,211,120108,1,2,0:0:0:0:
151,229,120189,6,0,L|166:101,1,114,2|0,1:2|0:0,0:0:0:0:
151,103,120512,2,0,L|141:27,1,76,8|0,0:0|0:0,0:0:0:0:
259,131,120834,2,0,P|296:135|331:122,1,76,2|0,1:2|0:0,0:0:0:0:
377,0,121157,1,8,0:0:0:0:
279,43,121318,1,0,1:0:0:0:
425,90,121479,6,0,L|405:248,1,152,2|8,1:2|0:0,0:0:0:0:
512,352,121963,1,0,1:0:0:0:
512,352,122044,1,8,0:0:0:0:
512,352,122125,2,0,P|513:314|503:277,1,76,2|0,1:2|0:0,0:0:0:0:
392,374,122447,1,8,0:0:0:0:
304,211,122609,5,0,1:0:0:0:
304,211,122689,1,8,0:0:0:0:
304,211,122770,2,0,B|204:196|204:196|170:235,1,152,14|2,1:2|1:2,0:0:0:0:
236,384,123254,1,10,0:0:0:0:
236,384,123334,1,10,0:0:0:0:
236,384,123415,2,0,L|247:288,1,76,2|6,1:2|0:3,0:0:0:0:
74,218,123738,1,2,1:2:0:0:
140,329,123899,1,10,0:0:0:0:
121,136,124060,6,0,P|85:123|47:126,1,76,4|10,1:2|0:0,0:0:0:0:
23,146,124302,1,8,0:0:0:0:
23,146,124383,1,10,0:0:0:0:
174,39,124544,1,10,0:0:0:0:
174,39,124625,1,8,0:0:0:0:
174,39,124705,2,0,P|210:26|248:29,1,76,10|10,0:0|0:0,0:0:0:0:
227,169,125028,1,10,0:0:0:0:
227,169,125109,1,8,0:0:0:0:
227,169,125189,2,0,L|222:131,1,38,10|8,0:0|0:0,0:0:0:0:
320,100,125350,6,0,L|332:195,1,76,14|0,1:2|1:0,0:0:0:0:
353,308,125673,1,0,1:0:0:0:
427,123,125834,2,0,P|462:109|499:112,1,76,14|0,1:2|1:0,0:0:0:0:
462,274,126157,1,0,1:0:0:0:
329,175,126318,1,4,1:3:0:0:
265,384,126479,5,14,1:2:0:0:
256,192,126641,12,0,133092,0:0:0:0:
