osu file format v14

[General]
AudioFilename: audio.mp3
AudioLeadIn: 0
PreviewTime: 77125
Countdown: 0
SampleSet: Soft
StackLeniency: 0.5
Mode: 0
LetterboxInBreaks: 0
WidescreenStoryboard: 1

[Editor]
DistanceSpacing: 1
BeatDivisor: 4
GridSize: 32
TimelineZoom: 2

[Metadata]
Title:Euphorium (Game Ver.)
TitleUnicode:ユーフォリアム (Game Ver.)
Artist:Suzuyu
ArtistUnicode:鈴湯
Creator:MajK00
Version:Expert
Source:アストラエアの白き永遠 Finale -白き星の夢-
Tags:favorite white eternity of astral air no shiroki towa finale hoshi no yume op opening theme galge galgame eroge visual novel video game videogame japanese pop jpop j-pop female vocal vocalist 山本美禰子 Yamamoto Mineko 小高光太郎 Odaka Kotaro UiNA saltylucario saltking salty
BeatmapID:3956260
BeatmapSetID:1901511

[Difficulty]
HPDrainRate:5
CircleSize:3.8
OverallDifficulty:8.7
ApproachRate:9.2
SliderMultiplier:1.62
SliderTickRate:1

[Events]
//Background and Video events
0,0,"BG.jpg",0,0
//Break Periods
//Storyboard Layer 0 (Background)
//Storyboard Layer 1 (Fail)
//Storyboard Layer 2 (Pass)
//Storyboard Layer 3 (Foreground)
//Storyboard Layer 4 (Overlay)
//Storyboard Sound Samples

[TimingPoints]
1480,322.58064516129,4,2,27,40,1,0
1480,-166.666666666667,4,2,27,40,0,0
5350,-166.666666666667,4,2,27,50,0,0
6641,-125,4,2,27,60,0,0
9463,-125,4,2,27,5,0,0
9544,-125,4,2,27,60,0,0
11802,-100,4,2,27,70,0,0
12044,-100,4,2,27,5,0,0
12125,-100,4,2,27,70,0,0
16963,-100,4,2,27,80,0,0
19544,-100,4,2,27,70,0,0
20673,-166.666666666667,4,2,27,60,0,0
24705,-166.666666666667,4,2,27,40,0,0
35028,-142.857142857143,4,2,27,40,0,0
42770,-125,4,2,27,50,0,0
45350,-111.111111111111,4,2,27,60,0,0
73415,-111.111111111111,4,2,27,70,0,0
77286,-142.857142857142,4,2,27,70,0,0
77528,-142.857142857142,4,2,27,5,0,0
77609,-111.111111111111,4,2,27,70,0,0
78012,-111.111111111111,4,2,27,5,0,0
78092,-199.999999999999,4,2,27,80,0,0
78496,-199.999999999999,4,2,27,5,0,0
78576,-76.9230769230769,4,2,27,80,0,0
78818,-76.9230769230769,4,2,27,5,0,0
78899,-90.9090909090907,4,2,27,75,0,0
79141,-90.9090909090907,4,2,27,5,0,0
79221,-90.9090909090907,4,2,27,75,0,0
84302,-90.9090909090907,4,2,27,5,0,0
84383,-90.9090909090907,4,2,27,75,0,0
85592,-90.9090909090907,4,2,27,5,0,0
85673,-90.9090909090907,4,2,27,75,0,0
107286,-100,4,2,27,75,0,0
107528,-100,4,2,27,5,0,0
107609,-100,4,2,27,75,0,0
110109,-100,4,2,27,5,0,0
110189,-100,4,2,27,75,0,0
112689,-100,4,2,27,5,0,0
112770,-100,4,2,27,75,0,0
120431,-100,4,2,27,5,0,0
120512,-100,4,2,27,75,0,0
125350,-100,4,2,27,85,0,0
133092,-100,4,2,27,5,0,0

[Colours]
Combo1 : 227,176,247
Combo2 : 130,151,238
Combo3 : 245,120,123
Combo4 : 201,201,201

[HitObjects]
370,182,1480,5,2,0:0:0:0:
370,182,1641,1,2,0:0:0:0:
440,255,1802,2,0,L|446:303,1,48.5999985168458,2|2,0:0|0:0,0:0:0:0:
365,346,2125,5,2,0:0:0:0:
365,346,2286,2,0,L|301:339,2,48.5999985168458,2|2|2,0:0|0:0|0:0,0:0:0:0:
300,254,2770,5,2,0:0:0:0:
300,254,2931,2,0,L|236:262,2,48.5999985168458,2|2|2,0:0|0:0|0:0,0:0:0:0:
235,346,3415,5,2,0:0:0:0:
235,346,3576,2,0,L|171:339,2,48.5999985168458,2|2|2,0:0|0:0|0:0,0:0:0:0:
170,254,4061,5,2,0:0:0:0:
170,254,4222,2,0,L|106:262,2,48.5999985168458,2|2|2,0:0|0:0|0:0,0:0:0:0:
105,346,4706,5,2,0:0:0:0:
105,346,4867,2,0,L|41:339,2,48.5999985168458,2|2|2,0:0|0:0|0:0,0:0:0:0:
170,254,5350,5,2,0:0:0:0:
80,185,5512,1,2,0:0:0:0:
180,263,5673,1,2,0:0:0:0:
164,118,5834,1,2,0:0:0:0:
507,233,6318,6,0,L|514:265,3,24.2999992584229,2|2|2|2,0:0|0:0|0:0|0:0,0:0:0:0:
488,154,6641,2,0,B|436:147|436:147|413:164|413:164|358:157,1,129.6,6|0,1:2|0:0,0:0:0:0:
259,100,7125,2,0,L|226:104,2,32.4,2|2|2,1:2|0:0|0:0,0:0:0:0:
386,77,7447,1,4,0:3:0:0:
301,3,7609,1,2,0:0:0:0:
218,191,7770,6,0,B|159:183|159:183|141:221|98:229,1,129.6,6|2,1:2|0:0,0:0:0:0:
0,196,8254,1,10,0:0:0:0:
70,83,8415,2,0,L|78:147,1,64.8,10|2,0:0|0:0,0:0:0:0:
30,286,8738,1,10,0:3:0:0:
108,226,8899,1,2,1:2:0:0:
35,271,9060,1,2,1:2:0:0:
204,363,9221,6,0,B|250:367|250:367|254:365|254:365|301:370,1,97.2,6|0,1:2|0:0,0:0:0:0:
310,384,9544,2,0,L|375:375,1,64.8,2|10,1:2|0:0,0:0:0:0:
512,359,9867,1,2,1:2:0:0:
440,251,10028,1,10,0:0:0:0:
504,376,10189,1,2,1:2:0:0:
461,168,10350,6,0,B|389:155|406:200|338:189,1,129.6,6|0,1:2|0:0,0:0:0:0:
433,315,10834,2,0,L|440:251,1,64.8,0|0,1:0|0:0,0:0:0:0:
348,104,11157,1,8,0:0:0:0:
346,80,11237,1,8,0:0:0:0:
343,56,11318,1,8,0:0:0:0:
340,32,11398,1,8,0:0:0:0:
337,8,11479,1,8,0:0:0:0:
95,3,11802,6,0,B|60:33|60:33|79:110,1,121.5,6|0,1:2|0:0,0:0:0:0:
95,117,12125,2,0,L|85:198,1,81,8|0,0:0|0:0,0:0:0:0:
62,360,12447,1,0,1:0:0:0:
0,244,12609,1,2,0:0:0:0:
151,330,12770,2,0,P|191:336|228:321,1,81,10|0,0:0|0:0,0:0:0:0:
362,185,13092,6,0,P|322:191|285:176,1,81,0|0,1:0|0:0,0:0:0:0:
183,60,13415,1,8,0:0:0:0:
342,21,13576,1,0,1:0:0:0:
342,21,13657,1,8,0:0:0:0:
342,21,13738,2,0,L|332:102,1,81,2|0,1:2|0:0,0:0:0:0:
205,227,14060,2,0,L|195:147,1,81,10|0,0:0|0:0,0:0:0:0:
426,107,14383,6,0,B|471:135|471:135|458:242,1,162,2|0,1:2|1:0,0:0:0:0:
341,384,14867,2,0,L|352:288,1,81,10|0,0:0|1:0,0:0:0:0:
285,176,15189,1,10,0:0:0:0:
457,261,15350,1,8,0:0:0:0:
245,351,15512,6,0,B|182:342|182:342|155:362|155:362|89:354,1,162,6|0,1:2|0:0,0:0:0:0:
19,215,15996,1,8,0:0:0:0:
170,251,16157,2,0,L|160:170,1,81,12|0,0:0|0:0,0:0:0:0:
0,383,16479,2,0,L|10:303,1,81,12|0,0:0|0:0,0:0:0:0:
28,128,16802,1,4,1:2:0:0:
170,251,16963,5,12,0:0:0:0:
252,60,17125,1,0,1:0:0:0:
338,256,17286,5,8,0:0:0:0:
245,74,17447,1,0,1:0:0:0:
253,317,17609,5,8,0:0:0:0:
352,116,17770,1,0,1:0:0:0:
426,316,17931,5,8,0:0:0:0:
360,99,18092,1,0,1:0:0:0:
253,297,18254,5,8,0:0:0:0:
484,226,18415,1,0,1:0:0:0:
238,167,18576,5,8,0:0:0:0:
469,222,18737,1,0,1:0:0:0:
245,74,18899,5,10,0:0:0:0:
245,74,18979,1,2,0:0:0:0:
245,74,19060,2,0,L|181:82,1,40.5,2|2,1:2|0:0,0:0:0:0:
91,239,19221,1,10,0:0:0:0:
91,239,19301,1,2,0:0:0:0:
91,239,19382,2,0,L|154:246,1,40.5,2|2,1:2|0:0,0:0:0:0:
147,9,19544,6,0,B|100:50|100:50|126:155,1,162,14|0,0:0|1:0,0:0:0:0:
253,297,20028,2,0,L|262:216,1,81,10|0,0:0|1:0,0:0:0:0:
103,350,20350,1,10,0:0:0:0:
103,350,20431,1,8,0:0:0:0:
103,350,20512,1,0,1:0:0:0:
232,123,20673,6,0,B|342:108|309:187|414:170,1,194.399994067383,12|2,0:0|0:0,0:0:0:0:
256,192,22286,12,2,23899,0:0:0:0:
0,66,24705,6,0,P|98:52|129:139,1,194.399994067383,2|0,1:2|0:0,0:0:0:0:
313,85,25673,6,0,L|307:36,1,48.5999985168458,2|2,0:0|0:0,0:0:0:0:
217,16,25996,2,0,L|236:170,1,145.799995550537,2|0,3:2|0:0,0:0:0:0:
226,384,26963,6,0,P|250:386|273:378,1,48.5999985168458,2|2,0:0|0:0,0:0:0:0:
325,305,27286,2,0,B|435:290|402:369|507:352,2,194.399994067383,2|2|2,3:2|0:0|3:2,0:0:0:0:
441,61,29221,6,0,L|492:55,2,48.5999985168458,2|2|2,0:0|0:0|0:0,0:0:0:0:
364,0,29705,1,2,0:0:0:0:
351,103,29867,2,0,L|325:306,1,194.399994067383,2|0,1:2|0:0,0:0:0:0:
87,384,30834,6,0,P|80:360|81:336,1,48.5999985168458,2|0,0:0|0:0,0:0:0:0:
161,278,31157,2,0,P|170:230|172:181,1,97.1999970336915,2|2,3:2|0:0,0:0:0:0:
89,168,31641,2,0,L|41:174,1,48.5999985168458,2|0,0:0|0:0,0:0:0:0:
27,91,31963,2,0,L|123:80,1,97.1999970336915,2|0,0:0|0:0,0:0:0:0:
264,96,32447,6,0,L|312:90,1,48.5999985168458,2|0,3:2|0:0,0:0:0:0:
367,16,32770,1,2,0:0:0:0:
367,16,32931,2,0,P|477:51|501:165,1,242.999992584229,2|0,0:0|3:0,0:0:0:0:
357,363,34383,6,0,P|365:290|374:218,1,145.799995550537,2|0,0:0|0:0,0:0:0:0:
237,170,35028,2,0,B|323:181|301:110|394:127,2,170.09999480896,2|0|2,1:2|1:0|0:0,0:0:0:0:
164,93,36157,1,2,1:2:0:0:
259,24,36318,5,10,0:3:0:0:
259,24,36479,2,0,L|251:88,1,56.6999982696534,8|0,0:3|0:0,0:0:0:0:
158,181,36802,2,0,B|163:225|163:225|150:244|150:244|156:291,1,113.399996539307,4|4,0:3|0:3,0:0:0:0:
167,384,37286,1,2,1:2:0:0:
77,326,37447,1,2,1:2:0:0:
251,334,37609,6,0,L|264:211,1,113.399996539307,2|2,1:2|0:0,0:0:0:0:
264,128,38092,2,0,P|317:141|349:186,1,113.399996539307,2|0,1:2|0:0,0:0:0:0:
343,295,38576,2,0,L|336:351,1,56.6999982696534,2|0,1:2|0:0,0:0:0:0:
434,248,38899,6,0,B|481:207|481:207|455:102,2,170.09999480896,2|2|2,3:2|1:2|1:2,0:0:0:0:
410,27,40189,6,0,P|436:18|465:19,1,56.6999982696534,2|0,1:2|0:0,0:0:0:0:
368,139,40512,2,0,P|339:140|312:131,1,56.6999982696534,0|0,1:0|0:0,0:0:0:0:
414,14,40834,2,0,P|440:5|469:6,1,56.6999982696534,0|0,1:0|0:0,0:0:0:0:
368,139,41157,1,2,1:2:0:0:
368,139,41318,1,0,3:0:0:0:
279,33,41479,5,6,0:3:0:0:
279,33,41641,2,0,L|215:40,1,56.6999982696534,8|0,0:3|0:0,0:0:0:0:
178,129,41963,2,0,B|133:122|133:122|114:136|114:136|67:131,1,113.399996539307,10|0,0:0|1:0,0:0:0:0:
26,32,42447,2,0,L|89:39,1,56.6999982696534,2|0,0:0|1:0,0:0:0:0:
164,219,42770,5,10,0:0:0:0:
69,131,42931,1,0,1:0:0:0:
32,214,43092,1,0,1:0:0:0:
177,128,43254,6,0,P|234:157|253:218,1,129.6,10|0,0:0|1:0,0:0:0:0:
127,333,43738,1,10,0:0:0:0:
164,219,43899,1,2,1:2:0:0:
43,373,44060,5,4,1:2:0:0:
215,301,44221,2,0,B|279:290|270:336|338:326,1,129.6,4|2,0:3|0:0,0:0:0:0:
485,302,44705,5,10,0:3:0:0:
485,302,44867,1,10,0:3:0:0:
405,268,45028,1,6,0:3:0:0:
415,354,45189,1,6,0:3:0:0:
477,209,45350,6,0,L|458:50,2,145.799995550537,6|8|0,1:2|0:0|0:0,0:0:0:0:
485,302,46157,1,0,1:0:0:0:
385,183,46318,2,0,L|289:172,1,72.8999977752686,10|2,0:0|0:0,0:0:0:0:
207,307,46641,6,0,B|310:294|310:294|347:336,1,145.799995550537,2|8,1:2|0:0,0:0:0:0:
237,220,47125,2,0,L|92:237,1,145.799995550537,0|0,1:2|1:0,0:0:0:0:
0,384,47609,1,10,0:0:0:0:
113,329,47770,1,2,0:0:0:0:
31,171,47931,6,0,B|-9:207|-9:207|14:297,2,145.799995550537,2|8|2,1:2|0:0|0:0,0:0:0:0:
92,236,48738,1,0,1:0:0:0:
79,90,48899,2,0,L|-16:78,1,72.8999977752686,8|0,0:0|0:0,0:0:0:0:
153,153,49221,6,0,B|209:145|209:145|234:163|234:163|292:156,1,145.799995550537,2|8,1:2|0:0,0:0:0:0:
361,41,49705,2,0,L|288:49,1,72.8999977752686,0|0,1:0|0:0,0:0:0:0:
178,55,50028,1,2,1:2:0:0:
292,156,50189,1,10,0:0:0:0:
189,69,50350,1,2,0:0:0:0:
144,256,50512,6,0,L|-14:236,2,145.799995550537,0|8|0,1:0|0:0|0:0,0:0:0:0:
223,210,51318,1,0,1:0:0:0:
141,344,51479,2,0,L|45:332,1,72.8999977752686,10|0,0:0|0:0,0:0:0:0:
232,199,51802,6,0,B|295:191|295:191|319:226|366:227,1,145.799995550537,2|10,1:2|0:0,0:0:0:0:
377,73,52286,2,0,P|363:106|367:142,1,72.8999977752686,2|0,1:2|0:0,0:0:0:0:
479,209,52609,1,2,1:2:0:0:
453,124,52770,2,0,L|464:219,1,72.8999977752686,8|0,0:0|0:0,0:0:0:0:
512,351,53092,6,0,P|489:318|390:314,1,145.799995550537,2|10,1:2|0:0,0:0:0:0:
273,384,53576,2,0,L|284:288,1,72.8999977752686,2|0,0:0|1:0,0:0:0:0:
302,176,53899,1,2,1:2:0:0:
198,264,54060,2,0,P|163:275|127:271,1,72.8999977752686,10|0,0:0|0:0,0:0:0:0:
90,0,54383,5,2,1:2:0:0:
155,167,54544,1,8,0:0:0:0:
30,73,54705,1,0,1:0:0:0:
0,201,54867,1,4,0:3:0:0:
138,75,55028,2,0,B|211:62|200:115|278:103,1,145.799995550537,2|0,0:0|1:0,0:0:0:0:
444,3,55512,5,8,0:0:0:0:
444,3,55592,1,8,0:0:0:0:
444,3,55673,2,0,L|432:98,1,72.8999977752686,6|0,1:2|0:0,0:0:0:0:
504,177,55996,2,0,L|515:81,1,72.8999977752686,10|0,0:0|0:0,0:0:0:0:
356,50,56318,2,0,P|353:86|365:120,1,72.8999977752686,2|0,0:0|1:0,0:0:0:0:
444,243,56641,1,10,0:0:0:0:
372,133,56802,1,0,1:0:0:0:
316,316,56963,6,0,L|243:306,1,72.8999977752686,6|0,1:2|0:0,0:0:0:0:
142,376,57286,2,0,L|214:384,1,72.8999977752686,10|0,0:0|0:0,0:0:0:0:
268,227,57608,2,0,P|231:223|197:235,1,72.8999977752686,2|0,0:0|1:0,0:0:0:0:
68,327,57931,1,10,0:0:0:0:
187,245,58092,1,2,1:2:0:0:
62,121,58254,6,0,L|70:193,1,72.8999977752686,2|0,1:2|0:0,0:0:0:0:
0,60,58576,1,10,0:0:0:0:
150,131,58738,2,0,B|206:123|206:123|231:141|231:141|289:134,1,145.799995550537,2|0,1:2|1:0,0:0:0:0:
373,0,59221,1,10,0:0:0:0:
258,52,59383,1,0,1:0:0:0:
422,158,59544,6,0,P|473:114|460:11,1,145.799995550537,2|8,1:2|0:0,0:0:0:0:
367,90,60028,2,0,L|384:234,1,145.799995550537,2|0,1:2|1:0,0:0:0:0:
405,384,60512,1,10,0:0:0:0:
478,279,60673,1,0,1:0:0:0:
318,317,60834,6,0,L|245:308,1,72.8999977752686,10|0,0:0|1:0,0:0:0:0:
88,194,61157,1,0,1:0:0:0:
176,367,61318,2,0,B|216:331|216:331|193:241,1,145.799995550537,8|0,0:0|1:0,0:0:0:0:
128,75,61802,1,10,0:0:0:0:
88,194,61963,1,2,1:2:0:0:
250,131,62125,6,0,L|345:142,1,72.8999977752686,8|0,0:0|1:0,0:0:0:0:
213,15,62447,1,0,1:0:0:0:
393,67,62609,2,0,P|424:130|401:197,1,145.799995550537,12|0,0:0|1:0,0:0:0:0:
220,272,63092,1,10,0:0:0:0:
332,139,63254,1,2,1:2:0:0:
198,8,63415,6,0,B|125:-5|136:48|58:36,1,145.799995550537,6|10,1:2|0:0,0:0:0:0:
0,196,63899,2,0,L|158:215,1,145.799995550537,2|0,1:2|1:0,0:0:0:0:
312,235,64383,1,10,0:0:0:0:
202,132,64544,1,0,1:0:0:0:
383,171,64705,6,0,P|405:219|398:273,2,109.349996662903,10|8|8,0:3|0:3|0:3,0:0:0:0:
230,286,65350,2,0,L|241:381,1,72.8999977752686,2|4,0:0|0:3,0:0:0:0:
312,235,65673,1,8,0:3:0:0:
312,235,65754,1,8,0:3:0:0:
312,235,65834,1,4,0:3:0:0:
411,360,65996,6,0,P|446:364|480:350,1,72.8999977752686,6|0,1:2|0:0,0:0:0:0:
467,265,66318,2,0,P|431:260|397:274,1,72.8999977752686,0|0,1:0|0:0,0:0:0:0:
504,154,66641,6,0,L|515:58,1,72.8999977752686,2|0,1:2|0:0,0:0:0:0:
424,144,66963,2,0,L|435:48,1,72.8999977752686,0|0,1:0|0:0,0:0:0:0:
315,1,67286,6,0,L|326:96,1,72.8999977752686,2|0,1:2|0:0,0:0:0:0:
235,11,67608,2,0,L|246:106,1,72.8999977752686,0|0,1:0|0:0,0:0:0:0:
126,154,67932,6,0,L|137:58,1,72.8999977752686,2|0,1:2|0:0,0:0:0:0:
46,144,68254,2,0,L|57:48,1,72.8999977752686,0|0,1:0|0:0,0:0:0:0:
102,238,68576,6,0,P|137:242|170:228,1,72.8999977752686,2|0,1:2|0:0,0:0:0:0:
207,299,68899,2,0,P|235:277|248:243,1,72.8999977752686,0|0,1:0|0:0,0:0:0:0:
325,267,69221,2,0,P|329:231|315:198,1,72.8999977752686,0|0,1:0|0:0,0:0:0:0:
244,90,69544,1,2,1:2:0:0:
170,227,69705,1,2,0:0:0:0:
345,0,69867,5,2,1:2:0:0:
481,158,70028,2,0,P|445:163|411:151,1,72.8999977752686,8|0,0:0|1:0,0:0:0:0:
232,0,70350,1,8,0:0:0:0:
232,0,70431,1,8,0:0:0:0:
232,0,70512,1,2,1:2:0:0:
456,62,70673,1,8,0:0:0:0:
314,197,70834,1,8,0:0:0:0:
314,197,70915,1,8,0:0:0:0:
314,197,70996,2,0,L|318:161,1,36.4499988876343,8|8,0:0|0:0,0:0:0:0:
345,0,71157,5,6,1:2:0:0:
65,195,72447,5,2,3:2:0:0:
456,111,73415,5,2,0:0:0:0:
456,111,73496,1,2,0:0:0:0:
456,111,73576,2,0,L|448:174,1,36.4499988876343,2|2,0:0|0:0,0:0:0:0:
361,360,73738,6,0,L|352:287,1,72.8999977752686,14|0,0:0|1:0,0:0:0:0:
325,113,74060,1,0,1:0:0:0:
159,348,74221,5,14,0:0:0:0:
357,275,74383,1,0,1:0:0:0:
183,215,74544,1,2,1:2:0:0:
277,384,74705,5,10,0:0:0:0:
228,111,74867,1,6,1:2:0:0:
256,192,74947,12,2,76318,0:0:0:0:
44,0,77286,6,0,P|80:34|77:70,1,85.0499974044801,2|0,0:1|0:0,0:0:0:0:
0,101,77609,6,0,B|70:91|70:91|101:114|101:114|174:105,1,182.249994438172,2|0,0:1|0:0,0:0:0:0:
201,182,78092,6,0,P|245:151|254:102,1,101.25,2|0,0:1|0:0,0:0:0:0:
290,36,78576,6,0,L|309:193,1,157.949992769623,2|2,0:1|0:0,0:0:0:0:
402,384,78899,6,0,B|411:321|411:321|416:316|416:316|424:253,1,133.650004078674,6|0,1:2|0:0,0:0:0:0:
425,238,79221,2,0,P|465:220|508:228,1,89.1000027191163,8|0,0:0|0:0,0:0:0:0:
319,358,79544,2,0,P|275:366|235:348,1,89.1000027191163,0|0,1:0|0:0,0:0:0:0:
146,159,79867,1,10,0:0:0:0:
291,274,80028,1,2,0:0:0:0:
83,384,80189,6,0,L|59:193,1,178.200005438233,2|10,1:2|0:0,0:0:0:0:
240,123,80673,1,0,1:0:0:0:
240,123,80754,1,8,0:0:0:0:
240,123,80834,2,0,P|243:167|228:208,1,89.1000027191163,2|0,1:2|0:0,0:0:0:0:
49,92,81157,1,8,0:0:0:0:
153,251,81318,1,2,0:0:0:0:
213,27,81479,6,0,B|311:12|283:81|383:60,2,178.200005438233,2|8|0,1:2|0:0|1:0,0:0:0:0:
119,163,82286,1,0,1:0:0:0:
336,274,82447,1,10,0:0:0:0:
240,123,82609,1,2,0:0:0:0:
304,366,82770,6,0,P|348:373|390:355,1,89.1000027191163,6|10,1:2|0:0,0:0:0:0:
410,349,83012,1,8,0:0:0:0:
410,349,83092,1,10,0:0:0:0:
208,218,83254,2,0,L|197:306,1,89.1000027191163,14|0,0:0|0:0,0:0:0:0:
333,88,83576,2,0,L|322:0,1,89.1000027191163,14|0,0:0|0:0,0:0:0:0:
512,235,83899,5,0,1:0:0:0:
512,235,83979,1,8,0:0:0:0:
512,235,84060,2,0,B|454:227|454:227|432:259|389:260,1,133.650004078674,6|0,1:2|0:0,0:0:0:0:
379,260,84383,2,0,L|368:171,1,89.1000027191163,8|0,0:0|0:0,0:0:0:0:
505,8,84705,1,2,1:2:0:0:
451,144,84867,1,0,1:0:0:0:
315,7,85028,2,0,P|272:2|231:18,1,89.1000027191163,10|0,0:0|0:0,0:0:0:0:
149,228,85350,6,0,B|96:220|96:220|74:237|74:237|18:230,1,133.650004078674,2|0,1:2|0:0,0:0:0:0:
10,228,85673,2,0,L|0:139,1,89.1000027191163,10|0,0:0|0:0,0:0:0:0:
160,236,85996,1,2,1:2:0:0:
34,333,86157,1,0,1:0:0:0:
138,142,86318,2,0,P|181:135|221:154,1,89.1000027191163,10|0,0:0|0:0,0:0:0:0:
359,384,86641,6,0,L|337:207,1,178.200005438233,2|10,1:2|0:0,0:0:0:0:
490,270,87125,2,0,P|494:313|480:355,1,89.1000027191163,2|8,0:0|0:0,0:0:0:0:
253,249,87447,1,10,0:0:0:0:
253,249,87528,1,8,0:0:0:0:
253,249,87609,1,8,0:0:0:0:
418,56,87770,2,0,L|408:145,1,89.1000027191163,14|2,0:0|1:2,0:0:0:0:
220,345,88092,5,12,0:0:0:0:
314,103,88254,1,2,1:2:0:0:
154,266,88415,1,12,0:0:0:0:
103,33,88576,1,2,1:2:0:0:
253,249,88738,1,8,0:0:0:0:
269,248,88818,1,8,0:0:0:0:
285,246,88899,1,2,1:2:0:0:
57,115,89060,1,10,0:0:0:0:
41,114,89140,1,8,0:0:0:0:
25,112,89221,1,8,0:0:0:0:
25,112,89544,6,0,B|150:127|150:127|168:176,1,178.200005438233,12|0,0:0|1:0,0:0:0:0:
232,357,90028,1,0,1:0:0:0:
77,206,90189,1,10,0:0:0:0:
9,342,90350,1,2,1:2:0:0:
254,256,90512,6,0,L|366:243,1,89.1000027191163,2|0,1:2|0:0,0:0:0:0:
109,362,90834,2,0,L|14:350,1,89.1000027191163,10|0,0:0|1:0,0:0:0:0:
168,176,91157,2,0,L|264:165,1,89.1000027191163,2|0,0:0|1:0,0:0:0:0:
362,346,91479,1,8,0:0:0:0:
254,256,91641,1,2,0:0:0:0:
477,169,91802,6,0,B|528:123|528:123|500:8,2,178.200005438233,2|8|0,1:2|0:0|1:0,0:0:0:0:
388,245,92609,1,0,1:0:0:0:
380,27,92770,1,10,0:0:0:0:
467,177,92931,1,2,1:2:0:0:
223,84,93092,5,6,1:2:0:0:
359,161,93254,1,8,0:0:0:0:
359,161,93334,1,8,0:0:0:0:
359,161,93415,2,0,L|364:116,1,44.5500013595581,8|8,0:0|0:0,0:0:0:0:
256,0,93576,2,0,P|212:-5|171:10,1,89.1000027191163,4|2,1:2|0:0,0:0:0:0:
304,235,93899,2,0,P|344:251|388:245,1,89.1000027191163,12|0,0:0|0:0,0:0:0:0:
223,84,94221,1,4,1:2:0:0:
86,289,94383,5,10,0:0:0:0:
134,115,94544,1,0,1:0:0:0:
262,354,94705,5,8,0:0:0:0:
205,168,94867,1,0,1:0:0:0:
17,384,95028,5,8,0:0:0:0:
76,180,95189,1,0,1:0:0:0:
163,384,95350,6,0,L|174:296,1,89.1000027191163,10|0,0:0|1:0,0:0:0:0:
380,110,95673,5,10,0:0:0:0:
180,41,95834,1,0,1:0:0:0:
469,31,95996,5,10,0:0:0:0:
261,71,96157,1,0,1:0:0:0:
500,221,96318,5,10,0:0:0:0:
300,152,96479,1,0,1:0:0:0:
484,25,96641,1,10,0:0:0:0:
379,291,96802,5,8,0:0:0:0:
379,291,96883,1,8,0:0:0:0:
379,291,96963,2,0,B|301:280|301:280|271:323|213:324,1,178.200005438233,2|2,1:2|0:0,0:0:0:0:
87,295,97447,1,2,1:2:0:0:
212,149,97609,2,0,P|227:190|223:234,1,89.1000027191163,8|0,0:0|1:0,0:0:0:0:
48,205,97931,1,2,0:0:0:0:
184,48,98092,6,0,B|280:32|256:95|356:76,1,178.200005438233,6|0,1:2|0:0,0:0:0:0:
212,149,98576,1,8,0:3:0:0:
429,127,98738,2,0,P|445:85|439:42,1,89.1000027191163,4|0,0:3|0:0,0:0:0:0:
303,245,99060,5,10,0:3:0:0:
472,320,99221,1,6,0:3:0:0:
316,159,99383,1,6,0:3:0:0:
372,384,99544,6,0,L|395:193,2,178.200005438233,6|0|0,1:2|1:0|1:0,0:0:0:0:
480,235,100350,2,0,P|485:189|470:148,1,89.1000027191163,12|0,0:0|0:0,0:0:0:0:
246,7,100673,2,0,P|241:53|256:94,1,89.1000027191163,12|0,0:0|0:0,0:0:0:0:
57,62,102125,6,0,L|45:157,1,89.1000027191163,6|0,1:2|0:0,0:0:0:0:
31,268,102447,1,10,0:0:0:0:
148,124,102609,2,0,L|136:219,1,89.1000027191163,2|0,1:2|0:0,0:0:0:0:
122,330,102931,1,10,0:0:0:0:
248,76,103092,6,0,B|318:67|318:67|349:87|349:87|419:79,1,178.200005438233,6|8,1:2|0:0,0:0:0:0:
512,196,103576,2,0,L|423:206,1,89.1000027191163,6|8,0:3|0:3,0:0:0:0:
260,221,103899,1,2,1:2:0:0:
449,383,104060,2,0,P|465:343|458:299,1,89.1000027191163,10|10,0:0|0:3,0:0:0:0:
326,137,104383,1,6,0:3:0:0:
375,327,104544,1,2,1:2:0:0:
232,125,104705,6,0,P|171:122|93:213,1,178.200005438233,6|0,1:2|1:0,0:0:0:0:
164,362,105189,2,0,P|168:317|174:273,1,89.1000027191163,0|0,1:0|0:0,0:0:0:0:
9,148,105512,2,0,P|4:103|-1:59,1,89.1000027191163,12|0,1:2|0:0,0:0:0:0:
217,0,105834,1,12,1:2:0:0:
407,0,107286,6,0,B|402:60|402:60|405:65|405:65|398:122,1,121.5,6|0,1:2|0:0,0:0:0:0:
390,128,107609,2,0,L|400:208,1,81,8|0,0:0|0:0,0:0:0:0:
414,342,107931,1,0,1:0:0:0:
488,237,108092,1,0,1:0:0:0:
338,291,108254,2,0,P|322:327|328:367,1,81,10|0,0:0|0:0,0:0:0:0:
298,198,108576,6,0,B|184:183|184:183|149:220,1,162,2|8,1:2|0:0,0:0:0:0:
211,375,109060,1,0,1:0:0:0:
211,375,109141,1,8,0:0:0:0:
211,375,109221,2,0,L|223:280,1,81,0|0,1:0|1:0,0:0:0:0:
52,241,109544,2,0,L|42:160,1,81,8|0,0:0|0:0,0:0:0:0:
202,8,109867,6,0,P|268:12|287:87,1,121.5,2|0,1:2|0:0,0:0:0:0:
292,70,110189,2,0,L|280:165,1,81,8|0,0:0|0:0,0:0:0:0:
151,217,110512,2,0,L|139:122,1,81,2|0,1:2|0:0,0:0:0:0:
265,260,110834,1,8,0:0:0:0:
167,345,110996,1,0,1:0:0:0:
275,248,111157,6,0,B|344:238|344:238|370:276|422:278,1,162,2|8,1:2|0:0,0:0:0:0:
430,107,111641,1,0,1:0:0:0:
430,107,111721,1,8,0:0:0:0:
430,107,111802,2,0,L|418:202,1,81,2|0,1:2|1:0,0:0:0:0:
512,294,112125,1,8,0:0:0:0:
338,153,112286,5,0,1:0:0:0:
338,153,112367,1,8,0:0:0:0:
338,153,112447,2,0,B|278:160|278:160|274:164|274:164|214:172,1,121.5,0|0,1:0|0:0,0:0:0:0:
209,181,112770,2,0,L|128:171,1,81,8|0,0:0|0:0,0:0:0:0:
31,287,113092,1,2,1:2:0:0:
156,264,113254,1,0,1:0:0:0:
49,121,113415,2,0,P|34:158|38:198,1,81,10|0,0:0|0:0,0:0:0:0:
165,34,113738,6,0,B|255:5|237:78|329:51,1,162,2|10,1:2|0:0,0:0:0:0:
449,0,114221,1,0,1:0:0:0:
411,163,114383,2,0,P|397:125|401:85,1,81,2|0,1:2|0:0,0:0:0:0:
512,223,114705,2,0,P|516:262|502:300,1,81,10|0,0:0|0:0,0:0:0:0:
287,384,115028,5,6,1:2:0:0:
345,258,115189,2,0,L|425:248,1,81,2|8,0:0|0:0,0:0:0:0:
236,234,115512,1,2,0:0:0:0:
377,351,115673,1,8,0:0:0:0:
319,166,115834,1,10,0:0:0:0:
319,166,115915,1,8,0:0:0:0:
319,166,115996,1,2,1:2:0:0:
143,312,116157,6,0,L|238:323,1,81,14|0,0:0|1:0,0:0:0:0:
94,170,116479,2,0,L|189:158,1,81,14|0,0:0|1:0,0:0:0:0:
0,375,116802,2,0,L|95:386,1,81,14|0,0:0|1:0,0:0:0:0:
236,234,117125,1,14,0:0:0:0:
236,234,117205,1,8,0:0:0:0:
236,234,117286,1,8,0:0:0:0:
44,253,117447,2,0,L|48:293,1,40.5,10|8,0:0|0:0,0:0:0:0:
174,159,117609,5,6,1:2:0:0:
192,135,117689,1,2,0:0:0:0:
199,105,117770,1,2,0:0:0:0:
192,76,117850,1,2,0:0:0:0:
174,52,117931,2,0,L|133:47,3,40.5,10|2|2|2,0:0|0:0|0:0|0:0,0:0:0:0:
26,0,118254,5,2,1:2:0:0:
29,30,118334,1,2,0:0:0:0:
33,60,118415,1,2,0:0:0:0:
37,90,118495,1,2,0:0:0:0:
40,120,118576,2,0,L|0:115,3,40.5,10|2|2|2,0:0|0:0|0:0|0:0,0:0:0:0:
174,159,118899,5,2,1:2:0:0:
174,159,118979,1,2,0:0:0:0:
174,159,119060,2,0,L|214:154,1,40.5,2|2,0:0|0:0,0:0:0:0:
257,24,119221,2,0,L|320:16,1,40.5,10|2,0:0|0:0,0:0:0:0:
438,70,119383,1,2,1:2:0:0:
438,70,119463,1,10,0:0:0:0:
438,70,119544,2,0,L|446:6,3,40.5,2|2|2|2,1:2|0:0|0:0|0:0,0:0:0:0:
308,164,119867,5,8,0:0:0:0:
311,194,119947,1,2,0:0:0:0:
315,224,120028,1,2,0:0:0:0:
319,254,120108,1,2,0:0:0:0:
322,284,120189,6,0,B|273:276|273:276|252:292|252:292|206:286,1,121.5,2|0,1:2|0:0,0:0:0:0:
194,285,120512,2,0,L|185:204,1,81,8|0,0:0|0:0,0:0:0:0:
56,73,120834,2,0,L|47:154,1,81,2|0,1:2|0:0,0:0:0:0:
27,312,121157,1,8,0:0:0:0:
104,225,121318,1,0,1:0:0:0:
221,384,121479,6,0,L|381:364,1,162,2|8,1:2|0:0,0:0:0:0:
506,274,121963,1,0,1:0:0:0:
506,274,122044,1,8,0:0:0:0:
506,274,122125,2,0,L|494:369,1,81,2|0,1:2|0:0,0:0:0:0:
364,243,122447,1,8,0:0:0:0:
512,111,122609,5,0,1:0:0:0:
512,111,122689,1,8,0:0:0:0:
512,111,122770,2,0,B|422:82|440:155|348:128,1,162,14|2,1:2|1:2,0:0:0:0:
224,8,123254,1,10,0:0:0:0:
224,8,123334,1,10,0:0:0:0:
224,8,123415,2,0,P|263:1|300:17,1,81,2|6,1:2|0:3,0:0:0:0:
161,156,123738,1,2,1:2:0:0:
16,0,123899,1,10,0:0:0:0:
251,97,124060,6,0,L|260:177,1,81,4|10,1:2|0:0,0:0:0:0:
268,202,124302,1,8,0:0:0:0:
268,202,124383,1,10,0:0:0:0:
53,301,124544,1,10,0:0:0:0:
53,301,124625,1,8,0:0:0:0:
53,301,124705,2,0,L|64:205,1,81,10|10,0:0|0:0,0:0:0:0:
210,379,125028,1,10,0:0:0:0:
210,379,125109,1,8,0:0:0:0:
210,379,125189,2,0,L|250:374,1,40.5,10|8,0:0|0:0,0:0:0:0:
483,179,125350,5,14,1:2:0:0:
297,295,125512,1,0,1:0:0:0:
458,273,125673,1,0,1:0:0:0:
178,139,125834,5,14,1:2:0:0:
371,214,125996,1,0,1:0:0:0:
195,244,126157,1,0,1:0:0:0:
255,50,126318,5,4,1:3:0:0:
385,344,126479,1,14,1:2:0:0:
256,192,126641,12,0,133092,0:0:0:0:
