osu file format v14

[General]
AudioFilename: audio.mp3
AudioLeadIn: 0
PreviewTime: 76852
Countdown: 0
SampleSet: None
StackLeniency: 0.7
Mode: 0
LetterboxInBreaks: 0
WidescreenStoryboard: 1

[Editor]
DistanceSpacing: 1
BeatDivisor: 4
GridSize: 4
TimelineZoom: 1

[Metadata]
Title:Euphorium
TitleUnicode:ユーフォリアム
Artist:Suzuyu
ArtistUnicode:鈴湯
Creator:Flower
Version:Normal
Source:White Eternity of AstralAir Finale -Shiroki Hoshi no Yume-
Tags:opening favorite astral air no Shiroki Towa アストラエアの白き永遠 Finale -白き星の夢- short ver galgame Neoskylove toybot Kencho
BeatmapID:1156853
BeatmapSetID:537814

[Difficulty]
HPDrainRate:4
CircleSize:3
OverallDifficulty:4
ApproachRate:5
SliderMultiplier:1
SliderTickRate:1

[Events]
//Background and Video events
0,0,"bgpic.jpg",0,0
Video,0,"astralairFinale_op_movie - copy_AVS.flv"
//Break Periods
//Storyboard Layer 0 (Background)
//Storyboard Layer 1 (Fail)
//Storyboard Layer 2 (Pass)
//Storyboard Layer 3 (Foreground)
//Storyboard Sound Samples

[TimingPoints]
1086,322.58064516129,4,2,3,25,1,0
6247,-100,4,2,1,60,0,0
11408,-100,4,2,1,65,0,0
15763,-100,4,2,0,65,0,0
16569,-100,4,2,1,65,0,0
21569,-100,4,2,2,25,0,0
34634,-100,4,2,2,35,0,0
44150,-100,4,2,1,15,0,0
44634,-100,4,2,1,20,0,0
44956,-100,4,2,1,45,0,0
60440,-100,4,2,1,48,0,0
65279,-100,4,2,1,38,0,0
65602,-100,4,3,4,40,0,0
65682,-100,4,3,1,40,0,0
71731,-100,4,2,2,27,0,0
73344,-100,4,2,1,43,0,0
74473,-100,4,2,2,30,0,0
75924,-100,4,2,10,35,0,0
76005,-100,4,2,4,35,0,0
78505,-100,4,2,1,70,0,1
82860,-100,4,2,0,70,0,1
83666,-100,4,2,1,70,0,1
88827,-100,4,2,1,60,0,0
89150,-100,4,2,1,70,0,1
106892,-100,4,2,1,65,0,0
122376,-100,4,3,1,60,0,0
127537,-100,4,2,1,45,0,0
128827,-100,4,2,1,35,0,0
130118,-100,4,2,1,25,0,0
131408,-100,4,2,2,15,0,0
132698,-100,4,2,2,5,0,0

[Colours]
Combo1 : 143,85,253
Combo2 : 248,248,248
Combo3 : 238,102,133
Combo4 : 100,174,230
SliderBorder : 255,255,255

[HitObjects]
76,333,1086,6,0,B|112:314|169:316|173:365|227:363|268:345,1,200,2|0,0:0|0:0,0:0:0:0:
431,230,2376,2,0,B|394:248|338:247|334:198|279:199|239:218,1,200,4|0,0:0|0:0,0:0:0:0:
58,132,3666,2,0,B|51:75|83:38|83:38|136:34|178:69,2,200,8|0|0,0:0|0:0|0:0,0:0:0:0:
272,342,5924,6,0,L|325:342,1,50,0|0,0:0|0:0,0:0:0:0:
369,326,6247,2,0,P|406:293|371:200,1,150,4|0,1:2|1:0,0:0:0:0:
300,148,7053,1,8,0:3:0:0:
213,99,7376,2,0,P|176:132|211:225,1,150,4|8,1:2|2:3,0:0:0:0:
216,318,8182,2,0,L|111:334,1,100,0|0,0:0|0:0,0:0:0:0:
29,281,8827,6,0,B|19:244|19:244|23:223|23:223|13:179,1,100,4|0,1:2|1:0,0:0:0:0:
39,140,9311,2,0,P|77:116|132:115,1,100,0|8,1:0|0:3,0:0:0:0:
178,131,9795,1,0,1:0:0:0:
224,149,9956,1,4,1:2:0:0:
396,311,11408,6,0,B|357:343|357:343|303:355,1,100,4|8,1:2|0:0,0:0:0:0:
209,353,12053,2,0,B|161:343|161:343|122:311,1,100,0|8,1:0|0:0,0:0:0:0:
202,252,12698,2,0,L|148:205,1,50,0|0,1:0|0:0,0:0:0:0:
117,199,13021,2,0,P|96:174|108:104,1,100,8|0,0:0|1:0,0:0:0:0:
191,65,13666,1,8,0:0:0:0:
256,140,13989,6,0,L|367:144,1,100,0|0,1:0|1:0,0:0:0:0:
405,153,14473,1,8,0:0:0:0:
449,64,14795,2,0,P|449:35|440:8,2,50,0|0|4,1:0|1:0|1:2,0:0:0:0:
349,52,15440,2,0,P|327:69|306:75,1,50,0|0,0:0|1:0,0:0:0:0:
256,85,15763,5,4,0:0:0:0:
161,53,16085,2,0,B|148:60|140:71|140:71|97:84|97:84|89:97|78:106,1,100,4|4,1:2|1:2,0:0:0:0:
56,149,16569,6,0,B|59:182|59:182|53:221|53:221|56:254,1,100,4|8,1:2|1:2,0:0:0:0:
145,203,17215,2,0,B|142:236|142:236|148:275|148:275|145:308,1,100,8|8,1:2|1:2,0:0:0:0:
233,253,17860,2,0,B|230:225|230:225|236:186|236:186|233:153,1,100,8|8,1:2|1:2,0:0:0:0:
310,89,18505,6,0,L|359:102,1,50,8|0,1:2|0:0,0:0:0:0:
404,121,18827,2,0,L|421:171,1,50,8|0,1:2|0:0,0:0:0:0:
417,218,19150,6,0,B|371:214|345:236|345:236|333:269|353:309,1,150,12|8,1:2|0:0,0:0:0:0:
256,336,19956,2,0,L|192:328,1,50,0|0,1:0|1:0,0:0:0:0:
176,289,20279,1,4,1:3:0:0:
256,192,20440,12,0,21569,0:0:0:0:
178,345,24311,6,0,P|106:333|129:215,1,200,4|0,1:2|0:0,0:0:0:0:
301,162,25602,2,0,P|372:173|349:291,1,200,4|0,0:0|0:0,0:0:0:0:
292,347,26569,2,0,P|266:354|236:347,1,50,0|0,0:0|0:0,0:0:0:0:
201,323,26892,6,0,B|164:237|239:216|205:129,2,200,4|0|4,0:0|0:0|0:0,0:0:0:0:
44,198,28827,2,0,P|30:170|29:140,1,50,0|0,0:0|0:0,0:0:0:0:
45,104,29150,2,0,P|66:72|86:62,1,50,0|0,0:0|0:0,0:0:0:0:
122,48,29473,6,0,B|166:33|208:48|223:89|262:101|309:91,1,200,4|0,1:2|0:0,0:0:0:0:
398,44,30440,1,0,0:0:0:0:
477,104,30763,2,0,P|488:142|460:194,1,100,4|0,0:0|0:0,0:0:0:0:
420,223,31247,2,0,P|406:263|429:319,1,100,0|0,0:0|0:0,0:0:0:0:
281,358,32053,6,0,B|230:372|187:335|187:335|143:339|93:358|93:358|44:366|0:322,1,300,4|0,0:0|0:0,0:0:0:0:
78,258,33344,2,0,P|96:217|79:162,1,100,4|0,0:0|0:0,0:0:0:0:
8,97,33989,1,0,0:0:0:0:
199,35,34634,6,0,B|260:40|260:40|294:62|294:62|358:69,1,150,4|4,0:3|0:3,0:0:0:0:
489,36,35602,2,0,P|502:67|504:94,1,50,0|4,0:0|0:3,0:0:0:0:
469,118,35924,2,0,B|450:155|457:197|457:197|483:221|489:256,1,150,4|8,1:2|0:3,0:0:0:0:
390,275,36731,2,0,L|284:281,1,100,8|8,0:3|0:3,0:0:0:0:
261,321,37215,6,0,B|200:341|175:295|110:316,2,150,4|4|4,0:3|0:3|0:3,0:0:0:0:
230,225,38505,2,0,P|246:182|189:80,2,150,4|4|4,0:0|0:3|0:3,0:0:0:0:
146,169,39795,6,0,L|43:179,1,100,4|4,0:3|0:3,0:0:0:0:
15,83,40440,2,0,L|118:73,1,100,4|4,0:3|0:3,0:0:0:0:
213,56,41085,2,0,P|252:68|276:88,1,50,4|0,1:2|1:0,0:0:0:0:
360,60,41569,1,0,1:0:0:0:
434,128,41892,2,0,P|443:176|425:235,1,100,4|4,0:3|0:3,0:0:0:0:
398,263,42376,6,0,L|285:283,1,100,0|4,1:0|0:3,0:0:0:0:
256,254,42860,2,0,B|251:211|251:211|259:199|259:199|255:156,1,100,0|4,1:0|0:3,0:0:0:0:
213,128,43344,2,0,L|100:108,1,100,0|4,1:0|1:0,0:0:0:0:
73,138,43827,1,8,2:3:0:0:
31,282,44311,6,0,P|76:323|123:323,1,100,2|2,0:0|0:0,0:0:0:0:
208,296,44956,6,0,L|231:186,1,100,4|8,1:2|0:0,0:0:0:0:
276,109,45602,2,0,P|304:100|338:99,1,50,0|0,0:0|1:0,0:0:0:0:
366,125,45924,2,0,P|391:168|384:232,1,100,8|0,0:0|1:0,0:0:0:0:
464,283,46569,1,8,0:0:0:0:
481,235,46731,2,0,P|483:157|471:117,1,100,0|0,1:0|1:0,0:0:0:0:
457,90,47215,2,0,P|444:69|419:46,1,50,8|0,0:0|0:0,0:0:0:0:
379,32,47537,6,0,L|265:51,1,100,0|8,1:0|0:0,0:0:0:0:
194,100,48182,2,0,P|169:125|165:149,2,50,0|0|8,0:0|1:0|0:0,0:0:0:0:
129,23,48827,2,0,P|93:53|64:120,1,100,0|8,1:0|0:0,0:0:0:0:
51,146,49311,1,0,1:0:0:0:
80,186,49473,2,0,P|91:211|89:245,2,50,0|0|8,0:0|1:0|0:0,0:0:0:0:
173,221,50118,6,0,P|166:270|120:310,1,100,0|8,1:0|0:0,0:0:0:0:
36,335,50763,2,0,P|15:311|6:283,2,50,0|0|8,0:0|1:0|0:0,0:0:0:0:
133,357,51408,2,0,L|237:351,1,100,0|8,1:0|0:0,0:0:0:0:
256,306,51892,2,0,B|271:257|244:255|256:205,1,100,0|0,1:0|1:0,0:0:0:0:
297,180,52376,1,8,0:0:0:0:
378,122,52698,6,0,P|396:167|385:221,1,100,0|8,1:0|0:0,0:0:0:0:
449,295,53344,2,0,P|439:319|436:354,2,50,0|0|8,1:0|1:0|0:0,0:0:0:0:
421,198,53989,2,0,P|382:180|357:178,2,50,0|8|8,1:0|0:0|0:3,0:0:0:0:
489,125,54634,2,0,P|496:99|496:64,2,50,8|4|4,3:0|3:3|3:0,0:0:0:0:
399,81,55279,6,0,L|292:92,1,100,0|8,1:0|1:2,0:0:0:0:
220,152,55924,2,0,P|224:168|220:204,2,50,0|4|8,1:0|0:3|1:2,0:0:0:0:
192,56,56569,6,0,B|143:72|143:72|117:117,1,100,0|8,1:0|1:2,0:0:0:0:
76,140,57053,2,0,B|83:176|114:200|114:200|98:240|113:280,1,150,8|8,0:3|1:2,0:0:0:0:
208,244,57860,6,0,B|256:231|256:231|304:244,1,100,0|8,1:0|1:2,0:0:0:0:
348,268,58344,2,0,P|383:262|420:160,1,150,8|8,0:3|1:2,0:0:0:0:
382,75,59150,2,0,P|346:70|283:106,1,100,0|8,1:0|1:2,0:0:0:0:
245,120,59634,2,0,P|202:144|153:142,1,100,0|0,1:0|1:0,0:0:0:0:
120,104,60118,1,4,1:2:0:0:
50,176,60440,6,0,P|63:202|67:231,1,50,0|8,1:2|0:3,0:0:0:0:
88,268,60763,1,4,0:3:0:0:
126,300,60924,2,0,P|166:287|228:298,1,100,0|4,1:0|0:3,0:0:0:0:
264,324,61408,1,8,1:3:0:0:
359,298,61731,6,0,P|393:313|411:331,2,50,0|8|4,1:0|0:3|0:3,0:0:0:0:
355,247,62215,2,0,P|329:211|330:155,1,100,0|8,1:0|1:3,0:0:0:0:
365,122,62698,1,0,1:0:0:0:
447,65,63021,6,0,P|412:35|356:28,1,100,0|8,1:0|1:2,0:0:0:0:
312,44,63505,2,0,B|296:56|286:69|286:69|258:42|233:32|233:32|208:48|176:51,1,150,0|8,1:0|1:2,0:0:0:0:
89,59,64311,2,0,P|48:124|142:145,1,200,0|8,3:0|1:2,0:0:0:0:
186,134,65118,1,8,0:3:0:0:
235,134,65279,2,0,P|276:138|296:148,1,50,4|4,0:3|0:3,0:0:0:0:
333,151,65602,6,0,B|346:193|346:193|341:218|341:218|353:259,1,100,12|4,0:0|0:0,0:0:0:0:
449,255,66247,2,0,B|436:213|436:213|441:188|441:188|429:147,1,100,4|4,0:0|0:0,0:0:0:0:
450,60,66892,2,0,L|348:41,1,100,4|4,0:0|0:0,0:0:0:0:
256,73,67537,2,0,L|153:90,1,100,8|8,0:0|0:0,0:0:0:0:
69,41,68182,2,0,P|56:96|79:150,1,100,4|4,0:0|0:0,0:0:0:0:
133,212,68827,2,0,P|146:259|132:307,1,100,4|4,0:0|0:0,0:0:0:0:
223,348,69473,6,0,P|256:344|283:329,1,50,4|0,0:0|1:0,0:0:0:0:
311,308,69795,2,0,P|340:304|371:309,1,50,4|0,0:0|1:0,0:0:0:0:
403,331,70118,2,0,P|434:338|465:333,1,50,0|0,1:0|1:0,0:0:0:0:
495,311,70440,2,0,P|513:275|495:211,1,100,0|4,1:0|1:2,0:0:0:0:
256,44,71731,5,0,0:0:0:0:
156,33,72053,1,4,0:0:0:0:
18,329,73344,6,0,P|68:349|122:339,1,100,12|4,1:2|0:3,0:0:0:0:
159,325,73827,2,0,P|184:297|191:233,1,100,12|4,1:2|0:3,0:0:0:0:
164,194,74311,1,8,2:3:0:0:
119,170,74473,1,4,1:2:0:0:
256,192,74634,12,14,75924,0:0:0:0:
101,317,76892,5,0,0:0:0:0:
197,342,77215,2,0,B|239:325|239:325|268:333|300:357|300:357|343:333,2,150,4|0|0,0:0|0:0|0:0,0:0:0:0:
101,317,78505,6,0,P|71:262|78:217,1,100,4|8,1:2|0:0,0:0:0:0:
117,201,78989,1,0,0:0:0:0:
163,182,79150,2,0,P|174:146|156:83,1,100,0|8,1:0|0:0,0:0:0:0:
247,39,79795,2,0,P|298:50|357:38,1,100,0|8,1:0|0:0,0:0:0:0:
394,36,80279,1,0,0:0:0:0:
443,40,80440,2,0,P|464:84|449:151,1,100,0|8,1:0|0:0,0:0:0:0:
469,233,81085,6,0,P|427:258|369:252,1,100,0|8,1:0|0:0,0:0:0:0:
333,230,81569,1,0,0:0:0:0:
292,200,81731,2,0,P|265:192|195:206,1,100,0|8,1:0|0:0,0:0:0:0:
150,227,82215,1,0,0:0:0:0:
103,244,82376,6,0,P|65:237|50:225,1,50,4|8,1:2|1:2,0:0:0:0:
19,196,82698,2,0,P|5:172|0:142,1,50,0|4,1:2|1:2,0:0:0:0:
59,70,83182,1,4,1:2:0:0:
154,41,83505,1,0,1:0:0:0:
203,41,83666,6,0,L|308:53,1,100,4|8,1:2|0:0,0:0:0:0:
348,71,84150,1,0,0:0:0:0:
385,103,84311,2,0,B|400:153|400:153|380:197,1,100,0|8,1:0|0:0,0:0:0:0:
430,283,84956,2,0,P|361:295|327:277,1,100,0|8,1:0|0:0,0:0:0:0:
293,255,85440,1,0,0:0:0:0:
245,237,85602,2,0,P|207:233|153:262,1,100,0|8,1:0|0:0,0:0:0:0:
86,335,86247,6,0,P|58:299|65:232,1,100,0|0,1:0|1:0,0:0:0:0:
81,202,86731,2,0,P|82:166|73:141,1,50,0|0,0:0|1:0,0:0:0:0:
43,117,87053,2,0,P|30:93|34:59,1,50,0|0,3:3|1:3,0:0:0:0:
52,25,87376,1,8,1:2:0:0:
148,50,87698,5,8,0:3:0:0:
191,75,87860,2,0,P|226:79|252:75,1,50,0|0,1:0|0:0,0:0:0:0:
286,57,88182,2,0,P|328:54|385:77,1,100,0|0,1:0|1:0,0:0:0:0:
420,105,88666,2,0,P|434:131|436:161,1,50,0|8,1:0|0:3,0:0:0:0:
478,242,89150,6,0,P|424:250|372:216,1,100,4|0,1:2|1:0,0:0:0:0:
340,206,89634,1,0,1:0:0:0:
292,190,89795,2,0,P|240:187|184:211,1,100,8|0,0:0|1:0,0:0:0:0:
152,229,90279,2,0,P|137:261|134:293,1,50,0|8,1:0|0:0,0:0:0:0:
144,324,90602,2,0,P|183:350|243:339,1,100,0|0,0:0|1:0,0:0:0:0:
278,322,91085,2,0,P|320:307|383:317,1,100,8|0,0:0|1:0,0:0:0:0:
452,250,91731,6,0,P|465:198|444:148,1,100,8|0,0:0|1:0,0:0:0:0:
428,60,92376,2,0,P|398:36|368:25,1,50,8|0,0:0|0:0,0:0:0:0:
338,25,92698,2,0,P|304:32|344:146,1,200,4|0,1:2|0:0,0:0:0:0:
417,332,93989,6,0,L|366:344,2,50,4|0|8,1:2|0:0|1:2,0:0:0:0:
483,257,94634,2,0,L|496:200,2,50,0|0|8,1:0|0:0|1:2,0:0:0:0:
386,230,95279,2,0,P|327:199|286:204,1,100,0|8,1:0|1:2,0:0:0:0:
250,222,95763,1,0,0:0:0:0:
203,241,95924,2,0,P|162:253|100:237,1,100,0|8,1:0|1:2,0:0:0:0:
35,170,96569,6,0,P|31:112|61:77,1,100,0|0,1:0|0:0,0:0:0:0:
102,64,97053,2,0,L|165:47,1,50,0|8,1:0|0:0,0:0:0:0:
200,49,97376,2,0,B|246:67|246:67|304:46,1,100,0|0,1:0|1:0,0:0:0:0:
256,192,97860,12,0,99150,0:0:0:0:
93,325,101731,6,0,P|72:278|92:229,1,100,4|8,1:2|0:0,0:0:0:0:
125,201,102215,2,0,P|183:189|225:201,1,100,0|8,1:0|0:0,0:0:0:0:
264,224,102698,2,0,P|299:237|366:227,1,100,4|0,1:2|1:0,0:0:0:0:
398,197,103182,1,8,0:3:0:0:
471,129,103505,2,0,P|478:91|439:30,1,100,4|4,0:3|0:3,0:0:0:0:
401,30,103989,6,0,P|366:30|334:45,1,50,8|0,0:3|1:2,0:0:0:0:
310,61,104311,1,4,1:2:0:0:
232,122,104634,2,0,P|229:163|243:189,1,50,0|0,1:0|3:0,0:0:0:0:
288,253,105118,1,0,1:0:0:0:
241,341,105440,1,0,1:0:0:0:
396,73,106892,6,0,B|357:41|357:41|303:29,1,100,0|8,1:0|0:0,0:0:0:0:
209,31,107537,2,0,B|161:41|161:41|122:73,1,100,0|8,1:0|0:0,0:0:0:0:
202,132,108182,2,0,L|148:179,1,50,0|0,1:0|0:0,0:0:0:0:
117,185,108505,2,0,P|96:210|108:280,1,100,8|0,0:0|1:0,0:0:0:0:
191,319,109150,1,8,0:0:0:0:
256,244,109473,6,0,L|367:240,1,100,0|8,1:0|0:0,0:0:0:0:
405,241,109956,1,0,0:0:0:0:
453,255,110118,2,0,P|473:285|459:349,1,100,0|8,1:0|0:0,0:0:0:0:
362,352,110763,2,0,P|337:353|311:341,1,50,0|0,1:0|0:0,0:0:0:0:
269,321,111085,2,0,P|231:303|171:309,1,100,8|0,0:0|1:0,0:0:0:0:
77,333,111731,1,8,0:0:0:0:
56,235,112053,6,0,B|59:202|59:202|53:163|53:163|56:130,1,100,0|8,1:0|0:0,0:0:0:0:
145,181,112699,2,0,B|142:148|142:148|148:109|148:109|145:76,1,100,0|8,1:0|0:0,0:0:0:0:
233,131,113344,2,0,B|230:159|230:159|236:198|236:198|233:231,1,100,0|8,1:0|0:0,0:0:0:0:
310,295,113989,6,0,L|359:282,1,50,0|0,1:0|0:0,0:0:0:0:
404,263,114311,2,0,L|421:213,1,50,8|0,0:0|0:0,0:0:0:0:
417,166,114634,6,0,B|371:170|345:148|345:148|333:115|353:75,1,150,0|0,1:0|0:0,0:0:0:0:
254,55,115440,2,0,L|190:63,1,50,0|0,1:0|1:0,0:0:0:0:
160,84,115763,1,8,1:3:0:0:
62,107,116085,2,0,P|55:83|56:58,2,50,8|4|8,3:0|3:0|3:0,0:0:0:0:
89,149,116569,2,0,P|103:184|79:244,1,100,0|0,1:0|1:0,0:0:0:0:
16,315,117215,6,0,P|52:339|110:337,1,100,4|8,1:2|0:0,0:0:0:0:
183,272,117860,1,0,1:0:0:0:
282,264,118182,1,8,0:0:0:0:
365,319,118505,2,0,P|414:335|469:318,1,100,0|8,1:0|0:0,0:0:0:0:
508,236,119150,1,0,1:0:0:0:
454,151,119473,1,8,0:0:0:0:
377,87,119795,6,0,B|330:85|330:116|274:113,1,100,0|8,1:0|0:0,0:0:0:0:
201,53,120440,2,0,P|166:56|138:72,1,50,0|0,1:0|1:0,0:0:0:0:
102,57,120763,2,0,P|74:86|77:152,1,100,8|0,0:0|1:0,0:0:0:0:
115,233,121408,2,0,P|134:274|128:331,1,100,8|0,0:0|1:0,0:0:0:0:
34,294,122053,1,8,0:0:0:0:
1,199,122376,6,0,B|15:146|15:146|50:114|50:114|66:64,1,150,4|8,1:2|0:0,0:0:0:0:
108,44,123021,2,0,P|183:38|241:93,1,150,8|8,0:0|0:0,0:0:0:0:
269,122,123666,6,0,P|300:120|325:129,2,50,4|0|4,1:2|0:0|0:0,0:0:0:0:
206,200,124311,2,0,P|175:198|149:207,2,50,8|8|8,0:0|0:0|0:0,0:0:0:0:
237,295,124956,6,0,P|274:313|347:305,1,100,4|4,1:2|0:0,0:0:0:0:
376,288,125440,2,0,P|409:254|413:199,1,100,8|8,0:0|0:0,0:0:0:0:
397,156,125924,1,4,0:0:0:0:
365,117,126085,1,4,0:2:0:0:
256,192,126247,12,0,132698,0:0:0:0:
