osu file format v14

[General]
AudioFilename: audio.mp3
AudioLeadIn: 0
PreviewTime: 76852
Countdown: 0
SampleSet: None
StackLeniency: 0.7
Mode: 0
LetterboxInBreaks: 0
WidescreenStoryboard: 1

[Editor]
DistanceSpacing: 1
BeatDivisor: 4
GridSize: 4
TimelineZoom: 1

[Metadata]
Title:Euphorium
TitleUnicode:ユーフォリアム
Artist:Suzuyu
ArtistUnicode:鈴湯
Creator:Flower
Version:Easy
Source:White Eternity of AstralAir Finale -Shiroki Hoshi no Yume-
Tags:opening favorite astral air no Shiroki Towa アストラエアの白き永遠 Finale -白き星の夢- short ver galgame Neoskylove toybot Kencho
BeatmapID:1160504
BeatmapSetID:537814

[Difficulty]
HPDrainRate:2
CircleSize:3
OverallDifficulty:3
ApproachRate:3
SliderMultiplier:0.700000005960464
SliderTickRate:1

[Events]
//Background and Video events
0,0,"bgpic.jpg",0,0
Video,0,"astralairFinale_op_movie - copy_AVS.flv"
//Break Periods
//Storyboard Layer 0 (Background)
//Storyboard Layer 1 (Fail)
//Storyboard Layer 2 (Pass)
//Storyboard Layer 3 (Foreground)
//Storyboard Sound Samples

[TimingPoints]
1086,322.58064516129,4,2,3,25,1,0
6247,-100,4,2,1,60,0,0
11408,-100,4,2,1,65,0,0
15763,-100,4,2,0,65,0,0
16569,-100,4,2,1,65,0,0
20440,-100,4,2,2,25,0,0
34634,-100,4,2,2,35,0,0
44956,-100,4,2,1,45,0,0
60440,-100,4,2,1,48,0,0
65602,-100,4,3,4,40,0,0
65682,-100,4,3,1,40,0,0
71731,-100,4,2,2,27,0,0
73344,-100,4,2,1,43,0,0
75924,-100,4,2,10,35,0,0
76005,-100,4,2,4,35,0,0
78505,-100,4,2,1,70,0,1
82860,-100,4,2,0,70,0,1
83666,-100,4,2,1,70,0,1
88827,-100,4,2,1,60,0,0
89150,-100,4,2,1,70,0,1
106892,-100,4,2,1,65,0,0
122376,-100,4,3,1,60,0,0
127537,-100,4,2,1,45,0,0
128827,-100,4,2,1,35,0,0
130118,-100,4,2,1,25,0,0
131408,-100,4,2,2,15,0,0
132698,-100,4,2,2,5,0,0

[Colours]
Combo1 : 143,85,253
Combo2 : 248,248,248
Combo3 : 238,102,133
Combo4 : 100,174,230
SliderBorder : 255,255,255

[HitObjects]
49,328,1086,6,0,B|117:312|113:356|189:344,1,140.000001192093,2|0,0:0|0:0,0:0:0:0:
326,344,2376,2,0,B|399:356|395:312|463:328,1,140.000001192093,4|0,0:0|0:0,0:0:0:0:
509,196,3666,5,8,0:0:0:0:
442,72,4311,1,0,0:0:0:0:
304,46,4956,2,0,B|256:69|256:69|209:46,1,105.00000089407
50,119,6247,6,0,B|35:161|79:184|59:226,1,105.00000089407,4|0,1:2|1:0,0:0:0:0:
88,357,7376,2,0,B|137:341|137:341|173:299,1,105.00000089407,4|8,1:2|2:3,0:0:0:0:
221,251,8182,1,0,0:0:0:0:
291,251,8505,1,0,0:0:0:0:
340,300,8827,6,0,B|375:341|375:341|424:357,1,105.00000089407,4|0,1:2|1:0,0:0:0:0:
500,239,9956,2,0,P|502:198|452:153,1,105.00000089407,4|0,1:2|1:0,0:0:0:0:
390,170,10763,2,0,P|347:179|317:169,1,70.0000005960464,0|0,1:0|1:0,0:0:0:0:
256,148,11408,6,0,P|191:107|129:116,1,140.000001192093,4|0,1:2|1:0,0:0:0:0:
17,197,12698,2,0,B|57:256|57:256|42:292|53:331,1,140.000001192093,0|0,1:0|1:0,0:0:0:0:
189,299,13989,6,0,P|202:240|183:195,1,105.00000089407,0|8,1:0|0:0,0:0:0:0:
325,199,15118,2,0,P|309:249|355:322,1,140.000001192093,4|4,1:2|0:0,0:0:0:0:
417,297,16085,1,4,0:0:0:0:
471,207,16569,6,0,P|480:187|440:78,1,140.000001192093,4|8,1:2|1:2,0:0:0:0:
344,53,17698,2,0,B|298:36|287:72|233:52,1,105.00000089407,0|8,0:0|1:2,0:0:0:0:
170,51,18505,1,8,1:2:0:0:
44,112,19150,6,0,B|27:162|27:162|47:215,1,105.00000089407,12|8,1:2|0:0,0:0:0:0:
105,246,19956,2,0,L|177:246,1,70.0000005960464,0|4,1:0|1:3,0:0:0:0:
256,192,20440,12,0,23021,0:0:0:0:
100,316,24311,5,4,1:2:0:0:
308,332,25279,2,0,L|392:331,1,70.0000005960464,0|4,0:0|0:0,0:0:0:0:
464,139,26569,1,0,0:0:0:0:
406,98,26892,2,0,B|341:83|335:128|264:104,2,140.000001192093,4|0|4,0:0|0:0|0:0,0:0:0:0:
347,225,28827,5,0,0:0:0:0:
206,231,29473,2,0,P|170:190|193:104,1,140.000001192093,4|0,1:2|0:0,0:0:0:0:
326,111,30763,2,0,P|345:176|306:231,1,140.000001192093,4|0,0:0|0:0,0:0:0:0:
203,326,32053,6,0,B|153:339|153:339|121:330|121:330|63:341,1,140.000001192093,4|0,0:0|0:0,0:0:0:0:
7,213,33344,1,4,0:0:0:0:
71,88,33989,1,0,0:0:0:0:
206,51,34634,6,0,B|241:57|241:57|265:75|265:75|309:83,2,105.00000089407,4|4|0,0:3|0:3|0:0,0:0:0:0:
144,83,35924,2,0,P|131:104|158:173,1,105.00000089407,4|8,1:2|0:3,0:0:0:0:
328,213,37215,6,0,B|374:208|374:208|394:214|394:214|445:209,2,105.00000089407,4|4|4,0:3|0:3|0:3,0:0:0:0:
274,257,38505,2,0,B|227:252|227:252|208:258|208:258|157:253,2,105.00000089407,4|4|4,0:0|0:3|0:3,0:0:0:0:
325,304,39795,2,0,B|387:325|400:285|463:302,1,140.000001192093,4|4,0:3|0:3,0:0:0:0:
500,167,41085,6,0,P|505:140|455:73,2,105.00000089407,4|0|0,1:2|1:0|0:0,0:0:0:0:
431,182,42376,2,0,B|382:187|382:187|376:181|376:181|322:187,2,105.00000089407,0|0|0,1:0|1:0|1:0,0:0:0:0:
471,238,43666,1,4,1:0:0:0:
212,344,44956,6,0,B|280:336|280:368|356:356,1,140.000001192093,4|0,1:2|0:0,0:0:0:0:
408,316,45924,1,8,0:0:0:0:
436,252,46247,2,0,P|440:208|372:152,1,140.000001192093,0|0,1:0|0:0,0:0:0:0:
244,204,47537,6,0,B|173:215|173:183|105:191,2,140.000001192093,0|0|0,1:0|0:0|1:0,0:0:0:0:
224,64,49473,1,0,0:0:0:0:
88,32,50118,6,0,B|28:72|28:72|0:140,1,140.000001192093,0|0,1:0|0:0,0:0:0:0:
44,192,51085,1,8,0:0:0:0:
2,249,51408,2,0,B|28:312|28:312|88:352,1,140.000001192093,0|0,1:0|0:0,0:0:0:0:
212,292,52698,6,0,B|264:288|260:320|320:316,2,105.00000089407,0|0|8,1:0|0:0|0:0,0:0:0:0:
160,244,53989,2,0,B|160:160|160:160|160:128|188:96|220:88|252:96,1,210.000001788139,0|4,1:0|3:0,0:0:0:0:
304,140,55279,6,0,L|380:140,2,70.0000005960464,0|8|0,1:0|1:2|1:0,0:0:0:0:
268,276,56569,2,0,P|292:324|384:332,1,140.000001192093,0|0,1:0|1:0,0:0:0:0:
424,292,57537,1,8,1:2:0:0:
476,244,57860,6,0,B|476:196|476:196|484:188|484:188|484:136,2,105.00000089407,0|8|8,1:0|0:3|1:2,0:0:0:0:
416,208,59150,2,0,B|376:208|376:208|356:200|356:200|312:200,2,105.00000089407,0|0|4,1:0|1:0|1:2,0:0:0:0:
472,168,60440,6,0,P|480:148|356:64,1,210.000001788139,0|8,1:2|1:3,0:0:0:0:
308,108,61731,2,0,P|256:124|208:108,2,105.00000089407,0|0|0,1:0|1:0|1:0,0:0:0:0:
364,148,63021,6,0,P|376:192|352:252,2,105.00000089407,0|0|8,1:0|1:0|1:2,0:0:0:0:
390,83,64311,1,0,3:0:0:0:
257,38,64956,1,8,1:2:0:0:
122,83,65602,1,12,0:0:0:0:
28,188,66247,6,0,B|28:228|48:253|48:253|88:258|120:280,1,140.000001192093,4|4,0:0|0:0,0:0:0:0:
240,336,67537,2,0,B|304:348|312:308|380:320,1,140.000001192093,8|4,0:0|0:0,0:0:0:0:
476,136,69150,1,4,0:0:0:0:
432,80,69473,6,0,B|396:68|364:76|364:76|376:120|352:156,1,140.000001192093,4|0,0:0|1:0,0:0:0:0:
256,240,70763,1,4,1:2:0:0:
80,352,71731,5,0,0:0:0:0:
24,312,72053,2,0,P|4:268|16:208,1,105.00000089407,4|0,0:0|0:0,0:0:0:0:
256,192,73344,12,14,75924,0:0:0:0:
256,336,77215,5,4,0:0:0:0:
484,176,78505,6,0,P|496:140|448:52,1,140.000001192093,4|0,1:2|1:0,0:0:0:0:
388,80,79473,1,8,0:0:0:0:
324,56,79795,2,0,B|256:72|256:72|184:56,1,140.000001192093,0|0,1:0|1:0,0:0:0:0:
48,72,81085,6,0,P|24:108|68:184,1,140.000001192093,0|0,1:0|1:0,0:0:0:0:
136,188,82053,1,8,0:0:0:0:
208,188,82376,2,0,P|232:228|216:292,1,105.00000089407,4|4,1:2|1:2,0:0:0:0:
160,320,83182,2,0,L|44:320,1,105.00000089407,4|4,1:2|1:2,0:0:0:0:
12,184,84311,6,0,P|4:156|24:112,1,70.0000005960464,0|8,1:0|0:0,0:0:0:0:
72,76,84956,2,0,B|140:60|140:60|208:76,1,140.000001192093,0|0,1:0|1:0,0:0:0:0:
256,124,85924,1,8,0:0:0:0:
304,76,86247,6,0,B|372:60|372:60|476:100,1,175.000001490116,0|0,1:0|1:0,0:0:0:0:
508,156,87376,2,0,P|512:200|408:248,1,175.000001490116,8|0,1:2|1:0,0:0:0:0:
352,208,88505,2,0,P|316:208|284:224,1,70.0000005960464,0|8,1:0|0:3,0:0:0:0:
236,272,89150,5,4,1:2:0:0:
124,352,89795,1,8,0:0:0:0:
60,324,90118,2,0,P|28:276|52:196,1,140.000001192093,0|0,1:0|1:0,0:0:0:0:
188,184,91408,6,0,P|220:232|196:312,1,140.000001192093,0|0,1:0|1:0,0:0:0:0:
256,352,92376,1,8,0:0:0:0:
320,328,92698,2,0,L|464:320,1,140.000001192093,4|0,1:2|0:0,0:0:0:0:
504,188,93989,6,0,P|500:148|416:104,1,140.000001192093,4|0,1:2|1:0,0:0:0:0:
360,136,94956,1,8,1:2:0:0:
308,184,95279,2,0,L|292:252,1,70.0000005960464,0|8,1:0|1:2,0:0:0:0:
220,252,95924,2,0,L|204:184,1,70.0000005960464,0|8,1:0|1:2,0:0:0:0:
152,136,96569,6,0,P|96:128|52:152,1,105.00000089407,0|0,1:0|1:0,0:0:0:0:
32,288,97698,2,0,P|56:328|168:264,1,210.000001788139,0|0,1:0|3:0,0:0:0:0:
248,200,99150,6,0,L|364:200,1,105.00000089407,4|0,1:2|0:0,0:0:0:0:
404,152,99956,2,0,P|412:112|404:80,1,70.0000005960464,0|0,1:0|1:0,0:0:0:0:
92,52,101731,6,0,B|48:68|52:96|8:112,2,105.00000089407,4|0|4,1:2|1:0|1:2,0:0:0:0:
252,120,103505,2,0,P|240:164|180:196,1,105.00000089407,4|8,0:3|0:3,0:0:0:0:
124,216,104311,6,0,B|108:268|108:268|124:320,1,105.00000089407,4|0,1:2|3:0,0:0:0:0:
180,360,105118,2,0,L|252:360,1,70.0000005960464,0|0,1:0|1:0,0:0:0:0:
504,176,106892,6,0,P|512:116|452:56,1,140.000001192093,0|0,1:0|1:0,0:0:0:0:
340,124,108182,2,0,P|272:152|208:116,1,140.000001192093,0|0,1:0|1:0,0:0:0:0:
84,76,109473,6,0,P|36:124|42:192,1,140.000001192093,0|0,1:0|1:0,0:0:0:0:
100,320,110763,2,0,P|156:356|232:340,1,140.000001192093,0|0,1:0|1:0,0:0:0:0:
348,280,112053,5,0,1:0:0:0:
464,200,112698,2,0,P|480:160|480:120,1,70.0000005960464,0|8,1:0|0:0,0:0:0:0:
452,68,113344,2,0,L|376:68,1,70.0000005960464,0|8,1:0|0:0,0:0:0:0:
312,80,113989,6,0,P|280:120|320:200,1,140.000001192093,0|0,1:0|1:0,0:0:0:0:
352,292,115118,2,0,L|424:292,2,70.0000005960464,0|0|8,0:0|1:0|1:3,0:0:0:0:
36,316,117215,6,0,P|12:284|32:192,1,140.000001192093,4|0,1:2|1:0,0:0:0:0:
152,120,118505,2,0,P|176:152|156:244,1,140.000001192093,0|0,1:0|1:0,0:0:0:0:
256,344,119795,5,0,1:0:0:0:
392,308,120440,1,0,1:0:0:0:
300,200,121085,1,0,1:0:0:0:
436,164,121730,1,0,1:0:0:0:
368,40,122376,6,0,P|308:32|252:92,1,140.000001192093,4|8,1:2|0:0,0:0:0:0:
116,96,123666,2,0,P|104:148|156:220,1,140.000001192093,4|8,1:2|0:0,0:0:0:0:
272,284,124956,6,0,P|324:300|384:288,1,105.00000089407,4|8,1:2|0:0,0:0:0:0:
336,156,126085,1,4,0:2:0:0:
256,192,126247,12,0,132698,0:0:0:0:
