osu file format v14

[General]
AudioFilename: audio.mp3
AudioLeadIn: 0
PreviewTime: 76878
Countdown: 0
SampleSet: Soft
StackLeniency: 0.7
Mode: 2
LetterboxInBreaks: 0
WidescreenStoryboard: 0

[Editor]
DistanceSpacing: 0.7
BeatDivisor: 4
GridSize: 8
TimelineZoom: 2.4

[Metadata]
Title:Euphorium
TitleUnicode:ユーフォリアム
Artist:Suzuyu
ArtistUnicode:鈴湯
Creator:AJamez
Version:Lumi's Rain
Source:アストラエアの白き永遠 Finale -白き星の夢-
Tags:-hex- -luminate astralair no shiroki towa hoshi no yume favorite opening visual novel eroge flower
BeatmapID:1779637
BeatmapSetID:850851

[Difficulty]
HPDrainRate:6
CircleSize:4
OverallDifficulty:9
ApproachRate:9
SliderMultiplier:1.85
SliderTickRate:2

[Events]
//Background and Video events
0,0,"BG.jpg",0,0
//Break Periods
//Storyboard Layer 0 (Background)
//Storyboard Layer 1 (Fail)
//Storyboard Layer 2 (Pass)
//Storyboard Layer 3 (Foreground)
//Storyboard Sound Samples

[TimingPoints]
1086,322.58064516129,4,2,3,25,1,0
6247,-100,4,2,1,60,0,0
10763,-100,4,2,4,60,0,0
11408,-100,4,2,1,65,0,0
15763,-100,4,2,0,65,0,0
16569,-100,4,2,1,65,0,0
20440,-100,4,2,1,40,0,0
21731,-100,4,2,2,15,0,0
21892,-100,4,2,30,25,0,0
22053,-100,4,2,31,25,0,0
22215,-100,4,2,32,25,0,0
22376,-100,4,2,30,25,0,0
22537,-100,4,2,31,25,0,0
22698,-100,4,2,32,25,0,0
22860,-100,4,2,30,25,0,0
23021,-100,4,2,31,25,0,0
23182,-100,4,2,32,25,0,0
23344,-100,4,2,30,25,0,0
23505,-100,4,2,33,25,0,0
24311,-100,4,2,2,35,0,0
34634,-100,4,2,2,35,0,0
36892,-100,4,2,2,30,0,0
37053,-100,4,2,2,25,0,0
37215,-100,4,2,2,35,0,0
42376,-100,4,2,1,40,0,0
43666,-100,4,2,1,45,0,0
44150,-100,4,2,1,45,0,0
44311,-100,4,2,1,25,0,0
44634,-100,4,2,1,25,0,0
44956,-100,4,2,1,45,0,0
60440,-100,4,2,1,48,0,0
65279,-100,4,2,1,38,0,0
65602,-100,4,3,4,40,0,0
65682,-100,4,3,1,40,0,0
71731,-100,4,2,2,27,0,0
73344,-100,4,2,1,43,0,0
74473,-100,4,2,2,50,0,0
75844,-100,4,2,2,15,0,0
75924,-100,4,2,10,35,0,0
76005,-100,4,2,4,35,0,0
78505,-100,4,2,1,70,0,1
82860,-100,4,2,1,70,0,1
83666,-100,4,2,1,70,0,1
88827,-100,4,2,1,60,0,0
89150,-100,4,2,1,70,0,1
89795,-100,4,2,1,60,0,1
92698,-100,4,2,1,70,0,1
93021,-100,4,2,1,60,0,1
100440,-100,4,2,1,35,0,0
101569,-100,4,2,1,10,0,0
101731,-100,4,2,1,70,0,1
102698,-100,4,2,1,60,0,1
104311,-100,4,2,1,65,0,1
105602,-100,4,2,1,40,0,1
106166,-100,4,2,1,10,0,1
106247,-100,4,2,1,40,0,1
106811,-100,4,2,1,10,0,1
106892,-100,4,2,1,65,0,0
122376,-100,4,3,1,60,0,0
127537,-100,4,2,1,45,0,0
128827,-100,4,2,1,35,0,0
130118,-100,4,2,1,25,0,0
131408,-100,4,2,2,15,0,0
132698,-100,4,2,2,5,0,0

[Colours]
Combo1 : 0,128,255
Combo2 : 255,206,255
Combo3 : 151,255,255
Combo4 : 255,70,131

[HitObjects]
176,280,1086,6,0,L|168:160,1,92.5,2|0,0:0|0:0,0:0:0:0:
296,208,1408,2,0,L|304:104,1,92.5,0|0,0:0|0:0,0:0:0:0:
168,232,1731,1,0,0:0:0:0:
80,208,1892,1,0,0:0:0:0:
80,112,2053,1,0,0:0:0:0:
168,80,2215,1,0,0:0:0:0:
320,80,2376,6,0,L|424:80,3,92.5,4|0|0|0,0:0|0:0|0:0|0:0,0:0:0:0:
264,136,3021,2,0,L|256:256,1,92.5,0|0,0:0|0:0,0:0:0:0:
384,224,3344,2,0,L|392:328,1,92.5,0|0,0:0|0:0,0:0:0:0:
240,320,3666,6,0,L|128:320,3,92.5,8|0|0|0,0:0|0:0|0:0|0:0,0:0:0:0:
272,256,4311,1,0,0:0:0:0:
360,232,4472,1,0,0:0:0:0:
360,136,4633,1,0,0:0:0:0:
272,104,4795,1,0,0:0:0:0:
120,96,4956,6,0,L|112:200,1,92.5,0|0,0:0|0:0,0:0:0:0:
224,208,5279,1,0,0:0:0:0:
104,232,5440,1,0,0:0:0:0:
336,232,5763,1,0,0:0:0:0:
104,232,5924,2,0,P|72:160|136:112,1,138.75,0|0,0:0|0:0,0:0:0:0:
296,112,6247,6,0,L|416:112,1,92.5,4|0,1:2|0:0,0:0:0:0:
272,184,6569,2,0,L|176:184,1,92.5,0|0,0:0|1:0,0:0:0:0:
336,280,6892,2,0,L|440:280,2,92.5,0|0|0,0:0|0:0|0:0,0:0:0:0:
112,272,7376,6,0,P|72:200|144:136,1,185,4|0,1:2|0:0,0:0:0:0:
240,136,7860,1,8,2:3:0:0:
128,104,8021,1,8,3:0:0:0:
272,80,8182,2,0,L|384:80,1,92.5,0|0,0:0|3:0,0:0:0:0:
232,168,8505,2,0,L|136:168,1,92.5,0|0,3:0|0:0,0:0:0:0:
392,304,8827,6,0,P|448:224|360:192,1,185,4|0,1:2|1:0,0:0:0:0:
280,176,9311,1,0,1:0:0:0:
152,136,9473,1,0,0:0:0:0:
256,80,9634,1,8,0:3:0:0:
144,48,9795,1,0,1:0:0:0:
384,48,9956,6,0,P|440:112|368:184,1,185,4|0,1:2|0:0,0:0:0:0:
256,208,10440,2,0,L|136:208,1,92.5,0|0,1:0|0:0,0:0:0:0:
240,272,10763,2,0,L|248:352,1,46.25,8|8,2:0|2:0,0:0:0:0:
168,296,10924,2,0,L|160:352,1,46.25,8|8,2:0|2:0,0:0:0:0:
344,344,11085,1,8,3:0:0:0:
144,240,11408,6,0,L|136:112,1,92.5,4|0,1:2|0:0,0:0:0:0:
416,104,11731,2,0,L|296:104,1,92.5,8|0,0:0|0:0,0:0:0:0:
192,104,12053,2,0,L|80:104,1,92.5,0|0,1:0|0:0,0:0:0:0:
320,240,12376,2,0,L|424:240,1,92.5,8|0,0:0|0:0,0:0:0:0:
160,320,12698,6,0,L|144:208,1,92.5,0|0,1:0|0:0,0:0:0:0:
392,232,13021,2,0,L|408:112,1,92.5,8|0,0:0|0:0,0:0:0:0:
328,144,13263,1,8,0:0:0:0:
256,144,13344,2,0,L|144:144,1,92.5,0|0,1:0|0:0,0:0:0:0:
440,240,13666,2,0,L|448:360,1,92.5,8|0,0:0|0:0,0:0:0:0:
168,336,13989,6,0,L|288:336,1,92.5,0|0,1:0|0:0,0:0:0:0:
368,336,14311,1,0,1:0:0:0:
112,280,14473,2,0,L|104:176,1,92.5,8|0,0:0|0:0,0:0:0:0:
360,200,14795,2,0,L|368:80,1,92.5,8|8,2:2|2:0,0:0:0:0:
104,192,15118,6,0,P|56:112|128:64,1,185,4|0,1:2|0:0,0:0:0:0:
168,64,15521,1,0,0:0:0:0:
224,64,15602,1,8,0:2:0:0:
480,184,15763,2,0,L|368:184,1,92.5,4|0,0:0|0:0,0:0:0:0:
144,264,16085,2,0,L|272:264,1,92.5,12|0,2:3|0:0,0:0:0:0:
104,152,16408,1,12,3:3:0:0:
416,208,16569,6,0,L|424:104,1,92.5,4|0,1:2|0:0,0:0:0:0:
200,96,16892,2,0,L|72:96,1,92.5,8|0,1:2|0:0,0:0:0:0:
352,280,17215,2,0,L|240:280,1,92.5,8|0,1:2|0:0,0:0:0:0:
32,200,17537,2,0,L|160:200,1,92.5,8|0,1:2|0:0,0:0:0:0:
360,200,17860,6,0,L|368:96,1,92.5,8|0,1:2|0:0,0:0:0:0:
135,108,18182,2,0,L|119:236,1,92.5,8|0,1:2|0:0,0:0:0:0:
360,216,18505,1,8,1:2:0:0:
408,248,18585,1,0,0:0:0:0:
408,296,18666,1,0,3:3:0:0:
360,320,18747,1,0,3:3:0:0:
144,320,18827,2,0,L|128:200,1,92.5,8|0,3:2|3:0,0:0:0:0:
352,176,19150,6,0,L|480:176,1,92.5,12|0,1:2|0:0,0:0:0:0:
304,96,19473,1,8,0:3:0:0:
72,280,19634,2,0,L|64:176,1,92.5,8|0,0:0|3:0,0:0:0:0:
200,176,19956,1,8,2:0:0:0:
64,160,20118,1,0,1:0:0:0:
352,160,20279,5,4,3:2:0:0:
256,192,20440,12,0,21731,0:0:0:0:
192,328,21892,5,2,0:0:0:0:
88,272,22053,1,2,0:0:0:0:
96,168,22215,1,2,0:0:0:0:
256,232,22376,5,2,0:0:0:0:
368,192,22537,1,2,0:0:0:0:
368,88,22698,1,2,0:0:0:0:
216,160,22860,6,0,L|200:48,1,92.5,2|2,0:0|0:0,0:0:0:0:
336,136,23182,2,0,L|352:24,1,92.5,2|2,0:0|0:0,0:0:0:0:
96,48,23505,1,2,0:0:0:0:
352,312,24311,6,0,P|424:248|320:128,1,277.5,4|0,1:2|0:0,0:0:0:0:
128,112,25279,1,0,0:0:0:0:
248,112,25440,1,0,0:0:0:0:
80,328,25602,6,0,P|40:272|184:144,1,277.5,4|0,0:0|0:0,0:0:0:0:
400,112,26569,1,0,0:0:0:0:
280,112,26730,1,0,0:0:0:0:
448,328,26892,6,0,P|488:272|344:144,1,277.5,4|0,0:0|0:0,0:0:0:0:
248,232,27537,2,0,P|184:176|320:96,1,277.5,0|0,0:0|0:0,0:0:0:0:
64,288,28182,6,0,L|40:8,1,277.5,4|0,0:0|0:0,0:0:0:0:
136,24,28827,1,0,0:0:0:0:
240,64,28989,1,0,0:0:0:0:
240,168,29150,1,0,0:0:0:0:
136,208,29311,1,0,0:0:0:0:
424,304,29473,6,0,P|496:224|376:144,1,277.5,4|0,1:2|0:0,0:0:0:0:
112,160,30440,2,0,L|96:48,1,92.5,0|0,0:0|0:0,0:0:0:0:
328,64,30763,6,0,P|368:128|296:192,1,185,4|0,0:0|0:0,0:0:0:0:
176,192,31247,2,0,P|128:240|208:320,1,185,0|0,0:0|0:0,0:0:0:0:
296,328,31731,2,0,L|424:328,1,92.5,0|0,0:0|0:0,0:0:0:0:
160,256,32053,6,0,P|112:208|176:128,1,185,4|0,0:0|0:0,0:0:0:0:
296,232,32537,2,0,P|320:144|224:240,1,370,0|0,0:0|0:0,0:0:0:0:
464,272,33344,6,0,P|496:200|344:112,1,277.5,4|0,0:0|0:0,0:0:0:0:
224,104,33989,2,0,P|360:232|432:176,1,277.5,0|0,0:0|0:0,0:0:0:0:
184,200,34634,6,0,P|80:256|88:336,1,185,4|0,0:3|0:0,0:0:0:0:
192,328,35118,2,0,L|376:328,1,185,4|0,0:3|0:0,0:0:0:0:
248,248,35602,2,0,L|136:248,1,92.5,0|4,0:0|0:3,0:0:0:0:
432,136,35924,6,0,L|536:136,2,92.5,12|0|0,2:2|1:0|0:0,0:0:0:0:
280,240,36408,2,0,P|240:192|312:104,1,185,8|8,0:3|0:3,0:0:0:0:
424,80,36892,2,0,L|288:80,1,92.5,8|8,0:3|0:3,0:0:0:0:
80,112,37215,6,0,L|272:160,1,185,4|0,0:3|0:0,0:0:0:0:
136,168,37698,2,0,P|80:208|168:288,1,185,4|0,0:3|0:0,0:0:0:0:
240,328,38182,2,0,L|128:328,1,92.5,4|0,0:3|0:0,0:0:0:0:
376,264,38505,6,0,P|464:224|488:128,1,185,4|0,0:0|0:0,0:0:0:0:
368,144,38989,2,0,L|176:144,1,185,4|0,0:3|0:0,0:0:0:0:
296,224,39473,2,0,L|416:224,1,92.5,4|0,0:3|0:0,0:0:0:0:
88,344,39795,6,0,L|72:216,1,92.5,4|0,0:3|0:0,0:0:0:0:
192,232,40118,2,0,L|200:120,1,92.5,12|0,0:3|0:0,0:0:0:0:
328,160,40440,2,0,L|320:40,1,92.5,4|0,0:3|0:0,0:0:0:0:
448,128,40763,2,0,L|456:24,1,92.5,12|0,0:3|0:0,0:0:0:0:
216,40,41085,6,0,L|104:40,2,92.5,12|0|0,1:2|1:0|0:0,0:0:0:0:
352,96,41569,2,0,L|160:96,1,185,8|4,1:3|0:3,0:0:0:0:
304,168,42053,2,0,L|408:168,1,92.5,0|12,0:0|0:3,0:0:0:0:
152,288,42376,6,0,L|48:288,2,92.5,8|0|4,2:0|0:3|0:3,0:0:0:0:
304,200,42860,2,0,L|440:200,2,92.5,8|0|4,2:0|0:0|2:3,0:0:0:0:
152,120,43344,2,0,L|40:120,1,92.5,8|0,2:0|0:0,0:0:0:0:
304,120,43666,5,4,2:0:0:0:
416,152,43827,2,0,L|424:256,1,92.5,8|0,2:3|0:0,0:0:0:0:
312,272,44150,1,0,0:0:0:0:
176,232,44311,2,0,L|288:232,2,92.5,2|0|2,3:3|3:3|3:3,0:0:0:0:
312,168,44795,1,0,3:3:0:0:
64,320,44956,6,0,L|56:208,1,92.5,4|0,1:2|0:0,0:0:0:0:
192,216,45279,2,0,L|200:104,1,92.5,8|0,0:0|0:0,0:0:0:0:
56,168,45602,2,0,L|48:32,1,92.5,0|0,0:0|1:0,0:0:0:0:
176,72,45924,1,8,0:0:0:0:
48,56,46085,1,0,0:0:0:0:
312,56,46247,6,0,L|432:56,1,92.5,0|0,1:0|0:0,0:0:0:0:
280,128,46569,2,0,L|272:232,1,92.5,8|0,0:0|1:0,0:0:0:0:
408,192,46892,2,0,L|416:304,1,92.5,0|0,0:0|1:0,0:0:0:0:
296,312,47215,1,8,0:0:0:0:
416,312,47376,1,0,0:0:0:0:
168,312,47537,6,0,L|64:312,1,92.5,2|0,3:0|0:0,0:0:0:0:
200,232,47860,2,0,L|312:232,1,92.5,8|0,0:0|0:0,0:0:0:0:
416,160,48182,2,0,L|312:160,1,92.5,0|0,0:0|1:0,0:0:0:0:
200,80,48505,2,0,L|304:80,1,92.5,8|0,0:0|0:0,0:0:0:0:
72,304,48827,6,0,L|64:176,1,92.5,2|0,3:0|0:0,0:0:0:0:
192,192,49150,2,0,L|200:96,1,92.5,8|2,0:0|3:0,0:0:0:0:
344,72,49473,1,0,0:0:0:0:
224,96,49634,1,0,1:0:0:0:
344,144,49795,2,0,L|472:144,1,92.5,8|0,0:0|0:0,0:0:0:0:
200,272,50118,6,0,L|80:272,1,92.5,2|0,3:0|0:0,0:0:0:0:
216,184,50440,2,0,L|336:184,1,92.5,8|0,0:0|0:0,0:0:0:0:
152,80,50763,2,0,L|256:80,1,92.5,0|0,0:0|1:0,0:0:0:0:
376,88,51085,2,0,L|392:208,1,92.5,8|0,0:0|0:0,0:0:0:0:
104,304,51408,6,0,L|240:304,1,92.5,2|0,3:0|0:0,0:0:0:0:
328,304,51731,1,8,0:0:0:0:
208,208,51892,2,0,L|320:208,1,92.5,2|0,3:0|0:0,0:0:0:0:
416,208,52215,1,0,1:0:0:0:
288,144,52376,2,0,L|184:144,1,92.5,8|0,0:0|0:0,0:0:0:0:
440,336,52698,6,0,L|448:208,1,92.5,2|0,2:0|0:0,0:0:0:0:
320,240,53021,1,8,0:0:0:0:
432,192,53182,2,0,L|304:192,1,92.5,0|0,0:0|1:0,0:0:0:0:
224,168,53505,1,0,1:0:0:0:
344,128,53666,2,0,L|456:128,1,92.5,8|0,0:0|3:0,0:0:0:0:
176,88,53989,5,8,2:0:0:0:
56,120,54150,2,0,L|48:224,1,92.5,8|8,0:0|0:3,0:0:0:0:
176,224,54473,1,12,0:3:0:0:
56,304,54634,2,0,L|184:304,1,92.5,8|4,3:0|3:3,0:0:0:0:
280,264,54956,2,0,L|168:264,1,92.5,12|8,3:0|3:0,0:0:0:0:
240,216,55198,1,8,3:0:0:0:
440,216,55279,6,0,L|448:96,1,92.5,4|0,3:0|0:0,0:0:0:0:
304,144,55602,2,0,L|296:48,1,92.5,8|0,1:2|0:0,0:0:0:0:
432,336,55924,2,0,L|440:224,1,92.5,0|4,1:0|0:3,0:0:0:0:
312,240,56247,1,8,1:2:0:0:
438,243,56408,1,4,0:3:0:0:
200,280,56569,6,0,L|192:160,1,92.5,0|0,1:0|0:0,0:0:0:0:
328,200,56892,2,0,L|336:80,1,92.5,8|8,1:2|0:3,0:0:0:0:
200,160,57215,2,0,L|192:56,1,92.5,0|4,1:0|0:3,0:0:0:0:
336,48,57537,2,0,L|224:48,1,92.5,8|4,1:2|0:3,0:0:0:0:
16,152,57860,6,0,L|120:152,1,92.5,0|0,1:0|0:0,0:0:0:0:
248,152,58182,1,8,1:2:0:0:
120,216,58344,2,0,L|112:328,1,92.5,8|0,0:3|1:0,0:0:0:0:
248,312,58666,1,4,0:3:0:0:
400,272,58827,2,0,L|288:272,1,92.5,8|4,1:2|0:3,0:0:0:0:
80,176,59150,6,0,L|216:176,2,92.5,0|0|8,1:0|0:0|1:2,0:0:0:0:
320,224,59634,2,0,P|368:168|304:80,1,185,0|0,1:0|1:0,0:0:0:0:
176,80,60118,2,0,L|64:80,1,92.5,8|0,1:2|0:0,0:0:0:0:
344,256,60440,6,0,L|472:256,2,92.5,8|2|4,1:2|3:3|0:3,0:0:0:0:
168,256,60924,2,0,P|120:168|192:128,1,185,8|8,2:2|3:2,0:0:0:0:
312,128,61408,2,0,L|432:128,1,92.5,8|2,1:2|3:0,0:0:0:0:
144,280,61731,6,0,L|16:280,2,92.5,8|8|4,2:0|3:3|3:3,0:0:0:0:
304,280,62215,2,0,P|352:208|288:136,1,185,8|8,2:0|3:3,0:0:0:0:
160,136,62699,2,0,L|40:136,1,92.5,8|0,2:0|0:0,0:0:0:0:
368,128,63021,6,0,L|384:248,1,92.5,4|0,3:0|0:0,0:0:0:0:
248,232,63344,1,8,1:2:0:0:
376,280,63505,2,0,L|160:280,1,185,2|0,3:0|1:0,0:0:0:0:
320,200,63989,2,0,L|440:200,1,92.5,10|2,1:2|3:0,0:0:0:0:
184,168,64311,6,0,L|48:168,1,92.5,0|0,3:0|3:0,0:0:0:0:
160,112,64553,2,0,L|304:112,1,138.75,0|4,3:0|3:0,0:0:0:0:
168,56,64956,2,0,L|72:56,1,92.5,8|8,1:2|0:3,0:0:0:0:
208,128,65279,1,12,0:3:0:0:
72,128,65440,1,12,0:3:0:0:
400,320,65602,6,0,L|408:200,1,92.5,12|0,0:0|0:0,0:0:0:0:
272,224,65924,2,0,L|384:224,1,92.5,4|0,0:0|0:0,0:0:0:0:
232,184,66247,2,0,L|224:72,1,92.5,4|0,0:0|0:0,0:0:0:0:
376,88,66569,2,0,L|384:216,1,92.5,4|0,0:0|0:0,0:0:0:0:
112,320,66892,6,0,L|104:200,1,92.5,4|0,0:0|0:0,0:0:0:0:
240,224,67214,2,0,L|128:224,1,92.5,4|0,0:0|0:0,0:0:0:0:
280,184,67537,2,0,L|288:72,1,92.5,8|0,0:0|0:0,0:0:0:0:
136,88,67859,2,0,L|128:216,1,92.5,8|0,0:0|0:0,0:0:0:0:
392,328,68182,6,0,L|400:224,1,92.5,4|0,0:0|0:0,0:0:0:0:
264,232,68505,2,0,L|256:104,1,92.5,4|0,0:0|0:0,0:0:0:0:
112,168,68827,2,0,L|120:56,1,92.5,4|0,0:0|0:0,0:0:0:0:
240,64,69150,1,12,0:0:0:0:
120,64,69311,1,4,0:0:0:0:
384,136,69473,5,4,0:0:0:0:
248,160,69634,2,0,L|240:264,1,92.5,8|4,3:0|0:0,0:0:0:0:
376,296,69956,2,0,L|432:296,2,46.25,8|8|8,2:0|3:0|2:0,0:0:0:0:
240,296,70279,1,8,3:0:0:0:
392,256,70440,1,8,2:0:0:0:
448,232,70521,1,8,2:0:0:0:
448,168,70602,1,8,2:0:0:0:
392,144,70682,1,8,2:0:0:0:
168,344,70763,6,0,P|40:248|200:64,1,462.5,4|0,1:2|0:0,0:0:0:0:
320,64,71731,1,0,0:0:0:0:
200,64,71892,1,0,0:0:0:0:
368,352,72053,6,0,P|424:288|360:208,1,185,4|0,0:0|0:0,0:0:0:0:
248,208,72537,2,0,P|200:152|264:64,1,185,0|0,0:0|0:0,0:0:0:0:
368,64,73021,2,0,L|464:64,1,92.5,0|0,0:0|0:0,0:0:0:0:
176,288,73344,6,0,L|40:288,1,92.5,12|8,1:2|0:3,0:0:0:0:
224,208,73666,1,4,0:3:0:0:
448,128,73827,2,0,L|328:128,1,92.5,12|8,1:2|0:3,0:0:0:0:
200,120,74150,1,4,0:3:0:0:
360,80,74311,1,8,2:3:0:0:
72,96,74473,5,12,3:3:0:0:
256,192,74634,12,14,75924,0:0:0:0:
216,248,76892,5,0,0:0:0:0:
472,240,77215,2,0,L|232:80,2,277.5,4|0|0,0:0|0:0|0:0,0:0:0:0:
64,296,78505,6,0,L|56:200,1,92.5,4|0,1:2|0:0,0:0:0:0:
304,168,78827,2,0,L|440:168,1,92.5,8|0,0:0|0:0,0:0:0:0:
336,128,79069,1,0,0:0:0:0:
160,128,79150,2,0,L|48:128,1,92.5,0|0,1:0|0:0,0:0:0:0:
200,200,79473,1,8,0:0:0:0:
64,208,79634,1,0,0:0:0:0:
312,320,79795,6,0,L|424:320,1,92.5,0|0,1:0|0:0,0:0:0:0:
176,256,80118,2,0,L|168:152,1,92.5,8|0,0:0|0:0,0:0:0:0:
240,160,80360,1,8,0:0:0:0:
432,88,80440,2,0,L|328:88,1,92.5,0|0,1:0|0:0,0:0:0:0:
96,88,80763,2,0,L|80:208,1,92.5,8|0,0:0|0:0,0:0:0:0:
152,184,81005,1,0,0:0:0:0:
328,296,81085,6,0,L|432:296,1,92.5,0|0,2:0|0:0,0:0:0:0:
200,256,81408,2,0,L|80:256,1,92.5,8|0,0:0|0:0,0:0:0:0:
160,224,81650,1,0,0:0:0:0:
336,176,81731,2,0,L|344:72,1,92.5,0|2,1:0|2:0,0:0:0:0:
208,88,82053,1,8,0:0:0:0:
343,83,82215,1,0,0:0:0:0:
120,280,82376,6,0,L|24:256,1,92.5,4|8,1:2|1:2,0:0:0:0:
88,240,82618,1,8,1:2:0:0:
288,240,82698,1,0,1:2:0:0:
160,184,82860,2,0,L|152:80,1,92.5,4|0,3:3|0:0,0:0:0:0:
432,192,83182,2,0,P|424:128|320:64,1,185,8|8,2:0|3:0,0:0:0:0:
272,56,83585,1,8,2:2:0:0:
88,104,83666,6,0,L|80:208,1,92.5,4|0,1:2|0:0,0:0:0:0:
312,192,83989,2,0,L|408:192,1,92.5,8|0,0:0|0:0,0:0:0:0:
352,256,84231,1,0,0:0:0:0:
168,312,84311,2,0,L|160:200,1,92.5,0|0,1:0|0:0,0:0:0:0:
288,184,84634,2,0,L|168:184,1,92.5,8|0,0:0|0:0,0:0:0:0:
424,168,84956,6,0,L|432:48,1,92.5,0|0,1:0|0:0,0:0:0:0:
312,56,85279,2,0,L|424:56,1,92.5,8|0,0:0|0:0,0:0:0:0:
160,136,85602,2,0,L|64:136,1,92.5,0|0,1:0|0:0,0:0:0:0:
296,224,85924,2,0,L|304:352,1,92.5,8|0,0:0|0:0,0:0:0:0:
56,256,86247,6,0,L|48:152,1,92.5,8|0,2:0|0:0,0:0:0:0:
112,160,86489,1,0,0:0:0:0:
288,160,86569,1,8,2:0:0:0:
408,136,86731,2,0,L|400:32,1,92.5,0|8,0:0|2:0,0:0:0:0:
168,48,87053,2,0,L|104:48,2,46.25,8|8|8,3:3|3:3|1:3,0:0:0:0:
408,200,87376,6,0,L|272:200,1,92.5,8|2,1:2|0:0,0:0:0:0:
184,208,87698,1,8,0:3:0:0:
320,256,87860,2,0,L|328:360,1,92.5,0|4,1:0|2:0,0:0:0:0:
264,352,88102,1,0,0:0:0:0:
72,288,88182,2,0,L|192:288,1,92.5,0|8,1:0|2:0,0:0:0:0:
384,288,88505,1,0,1:0:0:0:
440,256,88585,1,0,0:0:0:0:
432,200,88666,1,8,2:0:0:0:
376,176,88747,1,8,2:0:0:0:
160,240,88827,6,0,P|128:200|176:128,1,138.75,8|0,0:3|0:0,0:0:0:0:
320,136,89150,2,0,L|432:136,1,92.5,4|0,1:2|0:0,0:0:0:0:
272,64,89473,2,0,L|160:64,1,92.5,0|0,1:0|1:0,0:0:0:0:
312,144,89795,1,8,0:0:0:0:
176,144,89956,1,0,0:0:0:0:
424,328,90118,6,0,L|432:224,1,92.5,0|0,1:0|1:0,0:0:0:0:
288,208,90440,2,0,L|416:208,1,92.5,8|0,0:0|0:0,0:0:0:0:
336,160,90682,1,0,0:0:0:0:
176,160,90763,2,0,L|64:160,1,92.5,0|0,1:0|1:0,0:0:0:0:
216,96,91085,1,8,0:0:0:0:
88,96,91247,1,0,0:0:0:0:
344,312,91408,6,0,L|352:216,1,92.5,0|0,1:0|0:0,0:0:0:0:
208,216,91731,2,0,L|200:104,1,92.5,8|0,0:0|0:0,0:0:0:0:
264,120,91973,1,0,0:0:0:0:
440,128,92053,2,0,L|448:232,1,92.5,0|0,1:0|1:0,0:0:0:0:
320,248,92376,1,8,0:0:0:0:
448,248,92537,1,0,0:0:0:0:
216,312,92698,6,0,L|80:312,1,92.5,4|4,1:2|3:0,0:0:0:0:
80,288,92940,1,4,3:0:0:0:
80,232,93021,1,8,3:0:0:0:
128,200,93102,1,8,3:0:0:0:
312,200,93182,2,0,L|432:200,1,92.5,12|0,2:0|0:0,0:0:0:0:
160,112,93505,2,0,L|288:112,1,92.5,10|0,0:2|0:0,0:0:0:0:
376,112,93827,1,8,0:3:0:0:
96,208,93989,6,0,L|88:320,1,92.5,4|0,1:2|0:0,0:0:0:0:
392,320,94311,2,0,L|288:320,1,92.5,8|0,1:2|0:0,0:0:0:0:
56,208,94634,2,0,L|176:208,1,92.5,8|0,2:0|0:0,0:0:0:0:
376,208,94956,2,0,L|480:208,1,92.5,8|0,1:2|0:0,0:0:0:0:
216,136,95279,6,0,L|88:136,1,92.5,8|0,2:0|0:0,0:0:0:0:
352,64,95602,2,0,L|472:64,1,92.5,8|0,1:2|0:0,0:0:0:0:
160,264,95924,2,0,L|280:264,1,92.5,8|0,2:0|0:0,0:0:0:0:
480,264,96247,2,0,L|488:136,1,92.5,8|8,1:2|2:0,0:0:0:0:
416,168,96489,1,8,2:0:0:0:
256,256,96569,6,0,P|208:200|296:120,1,185,4|0,3:0|0:0,0:0:0:0:
376,120,97053,1,12,3:0:0:0:
120,224,97215,2,0,L|16:224,2,92.5,8|0|0,0:0|1:0|0:0,0:0:0:0:
344,344,97698,6,0,P|432:320|472:224,1,185,4|0,1:2|3:0,0:0:0:0:
352,240,98182,1,0,3:0:0:0:
112,224,98344,2,0,P|80:112|160:104,1,185,0|0,3:0|3:0,0:0:0:0:
256,88,98827,1,8,3:0:0:0:
120,56,98989,1,0,3:0:0:0:
384,320,99150,6,0,L|496:320,2,92.5,4|0|0,1:2|0:0|1:0,0:0:0:0:
136,264,99634,2,0,L|128:144,1,92.5,0|8,0:0|0:3,0:0:0:0:
264,168,99956,1,12,3:0:0:0:
128,168,100118,1,0,0:0:0:0:
400,168,100279,5,12,3:0:0:0:
256,192,100440,12,0,101569,0:0:0:0:
248,288,101731,6,0,L|144:288,1,92.5,4|0,3:2|2:0,0:0:0:0:
288,200,102053,1,8,0:0:0:0:
168,136,102215,2,0,L|280:136,1,92.5,4|0,3:0|0:0,0:0:0:0:
400,136,102537,1,8,0:0:0:0:
128,328,102698,6,0,P|80:256|144:200,1,185,4|8,1:2|2:0,0:0:0:0:
376,208,103182,2,0,L|488:208,2,92.5,8|0|4,0:3|0:0|0:3,0:0:0:0:
320,208,103585,1,0,0:0:0:0:
152,208,103666,1,8,2:0:0:0:
288,176,103827,1,12,0:3:0:0:
152,112,103989,1,8,0:3:0:0:
288,72,104150,1,4,3:0:0:0:
56,296,104311,6,0,L|48:184,1,92.5,4|0,1:2|0:0,0:0:0:0:
280,200,104634,1,0,1:0:0:0:
136,184,104795,2,0,L|128:80,1,92.5,8|0,3:0|0:0,0:0:0:0:
368,176,105118,2,0,L|464:224,1,92.5,8|0,2:0|0:0,0:0:0:0:
192,288,105440,1,4,3:3:0:0:
80,264,105602,6,0,P|40:208|184:88,1,277.5,0|0,0:0|0:0,0:0:0:0:
360,320,106247,2,0,P|432:248|312:152,1,277.5,0|0,0:0|0:0,0:0:0:0:
72,96,106892,6,0,L|168:96,1,92.5,4|0,2:0|0:0,0:0:0:0:
384,200,107215,2,0,L|280:200,1,92.5,8|0,0:0|0:0,0:0:0:0:
240,200,107456,1,0,0:0:0:0:
80,192,107537,2,0,L|72:304,1,92.5,0|0,1:0|0:0,0:0:0:0:
296,328,107860,2,0,L|192:328,1,92.5,8|0,0:0|0:0,0:0:0:0:
256,288,108102,1,0,0:0:0:0:
408,232,108182,6,0,L|416:128,1,92.5,0|0,1:0|0:0,0:0:0:0:
184,184,108505,2,0,L|176:64,1,92.5,8|0,0:0|0:0,0:0:0:0:
240,96,108747,1,8,0:0:0:0:
400,96,108827,2,0,L|496:144,1,92.5,0|0,1:0|0:0,0:0:0:0:
264,264,109150,2,0,L|160:200,1,92.5,8|0,0:0|0:0,0:0:0:0:
432,312,109473,6,0,L|328:312,1,92.5,0|0,1:0|0:0,0:0:0:0:
96,304,109795,2,0,L|88:168,1,92.5,8|0,0:0|0:0,0:0:0:0:
152,208,110037,1,0,0:0:0:0:
320,208,110118,2,0,L|432:208,1,92.5,0|0,1:0|0:0,0:0:0:0:
160,80,110440,2,0,L|288:80,1,92.5,8|0,0:0|0:0,0:0:0:0:
480,128,110763,6,0,L|488:248,1,92.5,0|0,1:0|0:0,0:0:0:0:
264,288,111085,2,0,L|376:288,1,92.5,8|0,0:0|0:0,0:0:0:0:
312,240,111327,1,8,0:0:0:0:
144,208,111408,2,0,L|128:80,1,92.5,0|0,1:0|0:0,0:0:0:0:
352,112,111731,2,0,L|456:112,1,92.5,8|0,0:0|0:0,0:0:0:0:
392,64,111973,1,8,0:0:0:0:
208,64,112053,6,0,L|96:64,1,92.5,0|0,1:0|0:0,0:0:0:0:
344,136,112376,2,0,L|360:248,1,92.5,8|0,0:0|0:0,0:0:0:0:
216,232,112698,2,0,L|208:352,1,92.5,0|0,1:0|0:0,0:0:0:0:
456,344,113021,2,0,L|464:224,1,92.5,8|0,0:0|0:0,0:0:0:0:
232,320,113344,6,0,L|112:320,1,92.5,0|0,1:0|0:0,0:0:0:0:
296,264,113666,2,0,L|304:136,1,92.5,8|0,0:0|0:0,0:0:0:0:
72,192,113989,2,0,L|64:88,1,92.5,0|0,1:0|0:0,0:0:0:0:
200,64,114311,2,0,L|72:64,1,92.5,8|0,0:0|0:0,0:0:0:0:
352,136,114634,5,8,2:0:0:0:
216,152,114795,2,0,L|208:256,1,92.5,0|8,0:0|0:0,0:0:0:0:
456,320,115118,2,0,L|320:320,1,92.5,0|8,0:0|2:0,0:0:0:0:
232,320,115440,1,8,3:0:0:0:
288,320,115521,1,8,3:0:0:0:
344,320,115602,1,8,2:0:0:0:
96,256,115763,6,0,L|88:160,1,92.5,12|4,2:3|3:0,0:0:0:0:
312,144,116085,2,0,L|184:144,1,92.5,8|12,3:0|3:0,0:0:0:0:
336,88,116408,1,8,3:0:0:0:
104,80,116569,1,8,3:0:0:0:
232,152,116731,1,8,3:0:0:0:
280,184,116811,1,0,3:0:0:0:
232,216,116892,1,12,3:0:0:0:
88,288,117053,1,8,2:0:0:0:
144,288,117134,1,8,3:0:0:0:
288,296,117215,5,4,1:2:0:0:
336,264,117295,1,0,2:0:0:0:
328,200,117376,1,0,2:0:0:0:
272,184,117456,1,0,2:0:0:0:
112,176,117537,1,8,0:0:0:0:
64,144,117618,1,0,0:0:0:0:
72,96,117698,1,0,0:0:0:0:
128,80,117779,1,0,0:0:0:0:
312,104,117860,5,0,2:0:0:0:
280,56,117940,1,0,0:0:0:0:
232,40,118021,2,0,L|160:40,1,46.25,0|0,0:0|0:0,0:0:0:0:
368,48,118182,1,8,0:0:0:0:
416,72,118263,1,0,0:0:0:0:
456,104,118344,1,0,0:0:0:0:
464,152,118424,1,0,0:0:0:0:
280,336,118505,5,4,3:0:0:0:
224,320,118585,1,0,0:0:0:0:
200,264,118666,1,0,0:0:0:0:
224,208,118747,1,0,0:0:0:0:
272,184,118827,1,8,0:0:0:0:
328,176,118908,1,0,0:0:0:0:
368,128,118989,1,0,0:0:0:0:
336,80,119069,1,8,0:0:0:0:
184,40,119150,5,4,3:0:0:0:
128,56,119231,1,0,0:0:0:0:
88,96,119311,1,0,0:0:0:0:
80,152,119392,1,0,0:0:0:0:
232,192,119473,1,8,0:0:0:0:
240,248,119553,1,0,0:0:0:0:
88,256,119634,1,0,0:0:0:0:
80,312,119715,1,0,0:0:0:0:
256,344,119795,6,0,L|376:344,1,92.5,4|0,3:0|0:0,0:0:0:0:
112,280,120118,2,0,L|104:168,1,92.5,8|0,0:0|0:0,0:0:0:0:
176,192,120360,1,0,0:0:0:0:
328,192,120440,2,0,L|440:192,1,92.5,0|0,1:0|1:0,0:0:0:0:
176,168,120763,2,0,L|168:48,1,92.5,8|0,0:0|0:0,0:0:0:0:
232,80,121005,1,0,0:0:0:0:
408,64,121085,6,0,L|304:64,1,92.5,0|0,1:0|0:0,0:0:0:0:
88,144,121408,2,0,L|208:144,1,92.5,8|0,0:0|0:0,0:0:0:0:
232,144,121650,1,8,0:0:0:0:
416,144,121731,2,0,L|432:248,1,92.5,0|0,1:0|0:0,0:0:0:0:
208,288,122053,2,0,L|104:288,1,92.5,8|0,0:0|0:0,0:0:0:0:
384,232,122376,6,0,L|392:112,1,92.5,4|0,1:2|0:0,0:0:0:0:
248,136,122698,1,0,0:0:0:0:
392,80,122860,1,8,0:0:0:0:
336,80,122940,1,0,0:0:0:0:
280,80,123021,1,8,0:0:0:0:
128,128,123182,1,8,0:0:0:0:
224,64,123344,1,4,0:0:0:0:
104,32,123505,1,8,0:0:0:0:
328,240,123666,6,0,L|448:240,1,92.5,4|8,1:2|0:0,0:0:0:0:
368,288,123908,1,8,0:0:0:0:
184,312,123989,1,4,0:0:0:0:
48,264,124150,1,8,0:0:0:0:
112,240,124231,1,8,0:0:0:0:
176,224,124311,1,8,0:0:0:0:
48,168,124473,1,8,0:0:0:0:
304,128,124634,2,0,L|384:128,2,46.25,12|8|8,0:0|0:0|0:0,0:0:0:0:
80,80,124956,6,0,L|200:80,1,92.5,4|0,1:2|0:0,0:0:0:0:
312,80,125279,1,0,0:0:0:0:
72,256,125440,2,0,L|176:256,1,92.5,12|8,0:0|3:0,0:0:0:0:
312,256,125763,1,8,3:0:0:0:
168,320,125924,1,12,3:0:0:0:
440,312,126085,5,4,0:2:0:0:
256,192,126247,12,4,132698,0:0:0:0:
