osu file format v14

[General]
AudioFilename: audio.mp3
AudioLeadIn: 0
PreviewTime: 140906
Countdown: 0
SampleSet: Soft
StackLeniency: 0.7
Mode: 2
LetterboxInBreaks: 0
WidescreenStoryboard: 1

[Editor]
Bookmarks: 232035
DistanceSpacing: 1.2
BeatDivisor: 4
GridSize: 32
TimelineZoom: 2.7

[Metadata]
Title:Euphorium
TitleUnicode:ユーフォリアム
Artist:Suzuyu
ArtistUnicode:鈴湯
Creator:-Joakh
Version:Spec's Rain
Source:アストラエアの白き永遠 Finale -白き星の夢-
Tags:Spectator White Eternity of Astral Air no Shiroki Towa Finale Hoshi no Yume Galgame Video Game FAVORITE 山本美禰子 Yamamoto Mineko 小高光太郎 Odaka Kotaro UiNA Eroge Japanese Visual Novel VN Opening OP Full Version
BeatmapID:2617241
BeatmapSetID:1254692

[Difficulty]
HPDrainRate:5
CircleSize:4
OverallDifficulty:9.1
ApproachRate:9.1
SliderMultiplier:1.8
SliderTickRate:2

[Events]
//Background and Video events
0,0,"BGRain.jpg",0,0
//Break Periods
2,181429,188387
//Storyboard Layer 0 (Background)
//Storyboard Layer 1 (Fail)
//Storyboard Layer 2 (Pass)
//Storyboard Layer 3 (Foreground)
//Storyboard Layer 4 (Overlay)
//Storyboard Sound Samples

[TimingPoints]
584,322.58064516129,4,2,2,60,1,0
584,-100,4,2,2,60,0,0
5745,-100,4,2,1,60,0,0
10906,-100,4,2,1,65,0,0
19938,-100,4,2,1,30,0,0
21390,-100,4,2,1,45,0,0
23809,-125,4,2,2,40,0,0
34132,-125,4,2,1,45,0,0
43164,-125,4,2,3,45,0,0
44454,-100,4,2,1,55,0,0
54777,-100,4,2,1,60,0,0
65100,-100,4,2,1,50,0,0
71551,-100,4,2,2,50,0,0
72600,-100,4,2,1,60,0,0
76390,-100,4,2,3,60,0,0
76632,-100,4,2,3,5,0,0
76713,-100,4,2,3,60,0,0
77116,-100,4,2,3,5,0,0
77196,-100,4,2,3,60,0,0
77600,-100,4,2,3,5,0,0
77680,-100,4,2,3,60,0,0
77922,-100,4,2,3,5,0,0
78003,-100,4,2,1,75,0,1
88325,-100,4,2,1,75,0,1
88567,-100,4,2,1,5,0,0
88648,-100,4,2,1,75,0,1
98164,-100,4,2,3,75,0,1
99938,-100,4,2,3,75,0,0
101229,-100,4,2,1,60,0,0
106067,-100,4,2,1,60,0,0
111551,-100,4,2,1,55,0,0
121874,-100,4,2,1,60,0,0
132196,-100,4,2,1,50,0,0
137358,-100,4,2,1,50,0,0
138648,-100,4,2,1,55,0,0
139938,-100,4,2,1,60,0,0
141229,-100,4,2,3,65,0,0
141632,-100,4,2,3,5,0,0
141713,-100,4,2,3,65,0,0
142116,-100,4,2,3,5,0,0
142196,-100,4,2,3,65,0,0
142438,-100,4,2,3,5,0,0
142519,-100,4,2,1,75,0,1
152801,-100,4,2,1,75,0,0
152842,-100,4,2,1,75,0,1
162680,-100,4,2,3,75,0,1
165745,-100,4,2,1,70,0,0
176067,-100,4,2,1,65,0,0
177358,-100,4,2,3,65,0,0
180745,-100,4,2,3,50,0,0
184938,-100,4,2,3,50,0,0
185422,-100,4,2,3,50,0,0
190180,-100,4,2,3,5,0,0
190261,-100,4,2,1,55,0,0
191551,-100,4,2,1,60,0,0
195019,-100,4,2,1,5,0,0
195100,-100,4,2,1,60,0,0
196309,-100,4,2,1,5,0,0
196390,-100,4,2,1,60,0,0
196713,-100,4,2,1,65,0,0
207035,-100,4,2,3,50,0,0
211551,-100,4,2,1,55,0,0
212196,-100,4,2,1,60,0,0
214777,-100,4,2,1,65,0,0
219616,-100,4,2,3,65,0,0
219938,-100,4,2,1,70,0,0
222519,-100,4,2,1,75,0,0
223809,-100,4,2,3,70,0,0
224213,-100,4,2,3,5,0,0
224293,-100,4,2,3,70,0,0
224696,-100,4,2,3,5,0,0
224777,-100,4,2,3,70,0,0
225019,-100,4,2,3,5,0,0
225100,-100,4,2,1,75,0,0
225583,-100,4,2,1,75,0,0
230180,-100,4,2,1,5,0,0
230261,-100,4,2,1,75,0,0
234696,-100,4,2,1,5,0,0
234777,-100,4,2,1,75,0,0
235019,-100,4,2,1,5,0,0
235100,-100,4,2,1,75,0,0
235342,-100,4,2,1,5,0,0
235422,-100,4,2,1,75,0,0
235664,-100,4,2,1,5,0,0
235745,-100,4,2,1,80,0,1
236229,-100,4,2,1,80,0,1
245261,-100,4,2,3,80,0,1
247035,-100,4,2,3,80,0,1
248325,-100,4,2,1,75,0,1
251148,-100,4,2,1,5,0,1
251229,-100,4,2,1,75,0,1
252196,-100,4,2,3,70,0,0
253487,-100,4,2,1,70,0,1
253567,-100,4,2,1,70,0,0
263809,-100,4,2,1,75,0,1
263890,-100,4,2,1,75,0,0
268971,-100,4,2,1,70,0,0
271551,-100,4,2,1,65,0,0
272680,-100,4,2,1,65,0,1
272761,-100,4,2,1,65,0,0
274132,-100,4,2,1,49,0,0
275422,-100,4,2,1,43,0,0
276713,-100,4,2,1,37,0,0
278003,-100,4,2,1,31,0,0
279293,-100,4,2,1,5,0,0

[Colours]
Combo1 : 255,255,128
Combo2 : 192,192,192
Combo3 : 255,128,192
Combo4 : 128,128,255

[HitObjects]
137,314,584,5,2,0:0:0:0:
59,268,745,1,0,0:0:0:0:
38,180,906,1,0,0:0:0:0:
71,96,1067,1,0,0:0:0:0:
224,103,1229,2,0,L|128:102,1,90,2|0,0:0|0:0,0:0:0:0:
20,180,1551,2,0,L|135:182,1,90
260,322,1874,5,2,0:0:0:0:
338,276,2035,1,0,0:0:0:0:
359,188,2196,1,0,0:0:0:0:
326,104,2357,1,0,0:0:0:0:
173,111,2519,2,0,L|269:110,1,90,2|0,0:0|0:0,0:0:0:0:
377,188,2841,2,0,L|262:190,1,90
157,272,3164,5,2,0:0:0:0:
117,191,3325,1,0,0:0:0:0:
150,106,3487,1,0,0:0:0:0:
234,76,3648,1,0,0:0:0:0:
382,106,3809,2,0,L|394:222,1,90,2|0,0:0|0:0,0:0:0:0:
233,203,4132,2,0,L|221:319,1,90
473,188,4454,5,2,0:0:0:0:
382,184,4616,1,2,0:0:0:0:
292,180,4777,1,2,0:0:0:0:
40,224,4938,1,2,0:0:0:0:
284,321,5422,2,0,L|296:252,3,45,2|0|2|0,0:0|0:0|0:0|0:0,0:0:0:0:
128,274,5745,6,0,P|68:238|143:181,1,180,4|0,0:0|0:0,0:0:0:0:
258,98,6229,2,0,L|267:216,1,90,2|2,0:0|0:0,0:0:0:0:
148,249,6551,2,0,L|42:249,1,90,2|2,0:0|0:0,0:0:0:0:
311,338,6874,6,0,P|382:321|347:231,1,180,4|0,0:0|0:0,0:0:0:0:
243,186,7358,2,0,L|237:307,1,90,8|8,0:0|0:0,0:0:0:0:
373,176,7680,1,2,0:0:0:0:
282,169,7842,1,0,0:0:0:0:
192,162,8003,1,2,0:0:0:0:
102,156,8164,1,0,0:0:0:0:
371,276,8325,6,0,P|426:261|429:146,1,180,4|0,0:0|0:0,0:0:0:0:
310,114,8809,2,0,L|302:231,1,90,0|2,0:0|0:0,0:0:0:0:
165,109,9132,2,0,L|157:226,1,90,2|2,0:0|0:0,0:0:0:0:
406,295,9454,6,0,P|469:260|383:226,1,180,4|0,0:0|0:0,0:0:0:0:
270,249,9938,2,0,L|258:149,1,90,2|0,0:0|0:0,0:0:0:0:
408,121,10261,1,0,3:0:0:0:
349,120,10342,1,0,3:0:0:0:
290,119,10422,1,0,3:0:0:0:
231,118,10503,1,0,3:0:0:0:
172,118,10583,1,0,3:0:0:0:
442,280,10906,6,0,L|329:288,1,90,4|0,0:0|0:0,0:0:0:0:
212,342,11229,2,0,L|206:215,1,90,8|0,0:0|0:0,0:0:0:0:
332,247,11551,1,2,0:0:0:0:
414,209,11713,1,0,0:0:0:0:
438,122,11874,1,8,0:0:0:0:
399,40,12035,1,0,0:0:0:0:
270,72,12196,6,0,L|260:169,1,90,2|0,0:0|0:0,0:0:0:0:
375,217,12519,2,0,L|487:224,1,90,8|0,0:0|0:0,0:0:0:0:
410,240,12761,1,8,0:0:0:0:
346,254,12842,2,0,L|223:247,1,90,8|0,0:0|0:0,0:0:0:0:
407,170,13164,2,0,L|412:73,1,90,8|0,0:0|0:0,0:0:0:0:
154,131,13487,6,0,L|53:131,2,90,8|0|0,0:0|0:0|0:0,0:0:0:0:
409,238,13971,2,0,P|468:198|390:142,1,180,8|8,0:0|0:0,0:0:0:0:
293,135,14454,1,0,0:0:0:0:
60,272,14616,2,0,L|47:146,1,90,4|0,0:0|0:0,0:0:0:0:
149,95,14938,5,0,0:0:0:0:
202,97,15018,1,0,0:0:0:0:
257,99,15099,1,2,0:0:0:0:
311,102,15180,1,0,0:0:0:0:
364,104,15260,1,8,0:0:0:0:
243,150,15422,1,0,0:0:0:0:
485,275,15583,2,0,L|482:70,1,180,8|2,0:0|0:0,0:0:0:0:
228,58,16067,6,0,L|131:51,1,90,12|0,0:0|3:0,0:0:0:0:
253,133,16390,2,0,L|365:144,1,90,8|0,0:0|3:0,0:0:0:0:
29,329,16713,2,0,L|23:206,1,90,8|0,0:0|3:0,0:0:0:0:
159,193,17035,2,0,L|40:196,1,90,8|0,0:0|3:0,0:0:0:0:
369,318,17358,6,0,L|250:321,1,90,8|0,0:0|3:0,0:0:0:0:
138,231,17680,2,0,L|257:234,1,90,8|0,0:0|3:0,0:0:0:0:
461,248,18003,2,0,L|345:249,1,90,2|0,3:0|3:0,0:0:0:0:
235,323,18325,2,0,L|219:241,3,45,2|0|0|0,3:0|3:0|3:0|0:0,0:0:0:0:
391,254,18648,6,0,P|449:221|363:162,1,180,4|0,0:0|0:0,0:0:0:0:
152,100,19132,2,0,L|42:96,1,90,4|0,0:0|0:0,0:0:0:0:
182,177,19454,1,8,0:0:0:0:
184,222,19535,1,8,0:0:0:0:
186,267,19616,1,8,0:0:0:0:
432,261,19777,5,12,0:0:0:0:
256,192,19938,12,0,21229,0:0:0:0:
256,359,21390,5,2,0:0:0:0:
176,326,21551,1,2,0:0:0:0:
146,239,21713,1,2,0:0:0:0:
189,160,21874,1,2,0:0:0:0:
275,137,22035,1,2,0:0:0:0:
351,171,22196,1,2,0:0:0:0:
384,255,22358,1,2,0:0:0:0:
384,255,22519,1,2,0:0:0:0:
344,168,22681,1,2,0:0:0:0:
245,135,22842,1,2,0:0:0:0:
496,135,23003,1,2,0:0:0:0:
278,365,23809,6,0,P|192:263|299:198,1,288,2|0,0:0|0:0,0:0:0:0:
403,202,24777,2,0,L|402:101,1,72
276,221,25100,2,0,P|362:119|255:54,1,288,2|0,0:0|0:0,0:0:0:0:
189,202,26067,2,0,L|190:101,1,72
338,106,26390,6,0,L|42:104,2,288,2|2|2,0:0|0:0|0:0,0:0:0:0:
189,354,28325,1,0,0:0:0:0:
191,281,28487,1,0,0:0:0:0:
334,244,28648,1,0,0:0:0:0:
209,226,28809,1,0,0:0:0:0:
482,108,28971,6,0,L|194:109,1,288,2|0,3:2|0:0,0:0:0:0:
369,192,29938,1,0,0:0:0:0:
197,198,30261,1,2,0:0:0:0:
471,315,30583,2,0,L|470:219,1,72
253,240,31067,2,0,P|184:192|266:120,1,216,0|2,0:0|0:0,0:0:0:0:
471,315,31874,6,0,L|470:219,1,72
257,220,32519,1,0,0:0:0:0:
89,286,32842,2,0,P|154:244|75:77,1,288,2|0,0:0|3:0,0:0:0:0:
182,82,33648,1,0,3:0:0:0:
273,84,33809,1,0,3:0:0:0:
451,324,34132,6,0,P|437:264|349:231,1,144,2|0,0:0|0:0,0:0:0:0:
246,232,34616,2,0,L|400:232,1,144,2|0,0:0|0:0,0:0:0:0:
493,232,35100,1,0,0:0:0:0:
390,232,35261,1,0,0:0:0:0:
156,246,35422,6,0,L|147:101,1,144,2|0,0:0|0:0,0:0:0:0:
291,103,35906,2,0,L|118:102,1,144,2|2,0:0|0:0,0:0:0:0:
293,214,36390,2,0,L|292:135,1,72,0|0,3:0|3:0,0:0:0:0:
52,195,36713,6,0,L|223:195,1,144,2|0,0:0|0:0,0:0:0:0:
336,198,37196,2,0,P|387:229|325:251,1,144,2|0,0:0|0:0,0:0:0:0:
196,195,37680,1,2,0:0:0:0:
451,253,38003,5,2,0:0:0:0:
451,253,38164,1,0,0:0:0:0:
451,253,38325,1,0,0:0:0:0:
230,126,38487,2,0,L|74:126,1,144,2|0,0:0|0:0,0:0:0:0:
385,126,38971,1,2,0:0:0:0:
184,236,39293,6,0,L|358:235,3,144,2|2|2|2,0:0|0:0|0:0|0:0,0:0:0:0:
81,168,40583,6,0,L|249:168,1,144,8|0,0:0|0:0,0:0:0:0:
369,261,41067,2,0,L|201:261,1,144,2|0,0:0|0:0,0:0:0:0:
369,261,41551,1,2,0:0:0:0:
125,288,41874,6,0,L|121:139,1,144,8|2,0:0|0:0,0:0:0:0:
274,161,42358,2,0,L|440:163,1,144,8|2,0:0|0:0,0:0:0:0:
274,161,42842,2,0,L|269:263,1,72,8|2,0:0|0:0,0:0:0:0:
383,234,43164,5,4,0:0:0:0:
107,236,43325,1,8,3:3:0:0:
340,362,43648,1,2,0:0:0:0:
416,336,43809,1,2,0:0:0:0:
445,260,43971,1,2,0:0:0:0:
409,187,44132,1,2,0:0:0:0:
335,154,44293,1,2,0:0:0:0:
82,257,44454,6,0,P|48:204|150:151,1,180,4|8,0:0|0:0,0:0:0:0:
259,134,44938,2,0,L|58:135,1,180,2|0,0:0|0:0,0:0:0:0:
196,212,45422,2,0,L|207:115,1,90,8|0,0:0|0:0,0:0:0:0:
448,188,45745,6,0,P|434:123|317:74,1,180,2|8,0:0|0:0,0:0:0:0:
222,156,46229,2,0,L|429:157,1,180,2|0,0:0|0:0,0:0:0:0:
270,238,46713,2,0,L|155:239,1,90,8|0,0:0|0:0,0:0:0:0:
458,329,47035,6,0,P|443:260|315:219,1,180,2|8,0:0|0:0,0:0:0:0:
352,122,47519,1,0,0:0:0:0:
225,68,47680,2,0,L|325:65,1,90,2|2,0:0|0:0,0:0:0:0:
464,129,48003,1,8,0:0:0:0:
257,286,48325,6,0,P|201:244|269:178,1,180,2|8,0:0|0:0,0:0:0:0:
258,92,48809,1,2,0:0:0:0:
411,151,48971,2,0,L|311:141,1,90
188,208,49293,2,0,L|297:222,1,90,8|0,0:0|0:0,0:0:0:0:
35,304,49616,6,0,P|49:246|155:198,1,180,2|8,0:0|0:0,0:0:0:0:
469,195,50261,1,0,0:0:0:0:
379,191,50422,1,0,0:0:0:0:
289,188,50583,1,8,0:0:0:0:
93,237,50906,6,0,P|34:207|105:150,1,180,2|8,0:0|0:0,0:0:0:0:
217,103,51390,2,0,L|31:101,1,180,2|0,0:0|0:0,0:0:0:0:
35,22,51874,1,8,0:0:0:0:
470,304,52196,6,0,L|471:111,1,180,2|8,0:0|0:0,0:0:0:0:
363,121,52680,1,2,0:0:0:0:
232,123,52842,2,0,L|331:125,1,90,0|2,0:0|0:0,0:0:0:0:
473,123,53164,1,8,0:0:0:0:
323,211,53487,5,2,0:0:0:0:
173,212,53648,1,2,0:0:0:0:
323,211,53809,1,2,0:0:0:0:
173,212,53971,1,2,0:0:0:0:
415,163,54293,2,0,L|415:272,1,90,0|0,3:0|3:0,0:0:0:0:
287,311,54616,2,0,L|230:311,1,45,0|0,3:0|3:0,0:0:0:0:
62,360,54777,6,0,L|56:172,1,180,2|8,0:0|0:0,0:0:0:0:
194,177,55261,1,0,0:0:0:0:
338,173,55422,2,0,L|331:272,1,90,2|0,0:0|0:0,0:0:0:0:
183,250,55745,2,0,L|176:349,1,90,8|2,0:0|0:0,0:0:0:0:
450,360,56067,6,0,L|456:172,1,180,2|8,0:0|0:0,0:0:0:0:
318,177,56551,1,0,0:0:0:0:
174,173,56712,2,0,L|181:272,1,90,2|0,0:0|0:0,0:0:0:0:
329,250,57035,2,0,L|336:349,1,90,8|2,0:0|0:0,0:0:0:0:
103,324,57358,6,0,P|111:245|228:217,1,180,2|8,0:0|0:0,0:0:0:0:
344,202,57842,1,2,0:0:0:0:
187,98,58003,2,0,L|178:203,1,90,0|2,0:0|0:0,0:0:0:0:
327,195,58325,1,8,0:0:0:0:
166,204,58487,1,0,0:0:0:0:
459,215,58648,6,0,L|249:217,1,180,2|8,0:0|0:0,0:0:0:0:
31,259,59132,2,0,L|241:261,1,180,2|0,0:0|0:0,0:0:0:0:
466,346,59616,2,0,L|465:234,1,90,8|2,0:0|0:0,0:0:0:0:
245,95,59938,6,0,L|139:87,2,90,8|2|2,0:0|0:0|0:0,0:0:0:0:
386,186,60422,2,0,P|366:114|245:71,1,180,8|0,0:0|0:0,0:0:0:0:
143,118,60906,2,0,L|135:236,1,90,8|2,0:0|0:0,0:0:0:0:
358,196,61229,6,0,L|464:188,2,90,8|2|2,0:0|0:0|0:0,0:0:0:0:
222,233,61713,2,0,P|172:187|234:104,1,180,8|0,0:0|0:0,0:0:0:0:
355,108,62196,2,0,L|358:222,1,90,8|2,0:0|0:0,0:0:0:0:
52,318,62519,6,0,L|251:330,1,180,2|8,0:0|0:0,0:0:0:0:
373,365,63003,2,0,L|375:183,1,180,2|0,0:0|0:0,0:0:0:0:
234,169,63487,2,0,L|350:159,1,90,8|0,0:0|0:0,0:0:0:0:
57,257,63809,6,0,P|28:207|98:148,1,135,2|2,0:0|0:0,0:0:0:0:
126,152,64132,1,2,0:0:0:0:
276,98,64293,1,0,3:0:0:0:
276,98,64454,2,0,L|163:91,1,90,2|0,0:0|3:0,0:0:0:0:
413,249,64777,2,0,L|414:120,1,90,2|0,0:0|3:0,0:0:0:0:
194,180,65100,6,0,P|110:166|3:189,3,180,4|2|2|2,0:0|0:0|0:0|0:0,0:0:0:0:
318,180,66390,2,0,P|402:166|509:189,3,180,2|2|2|2,0:0|0:0|0:0|0:0,0:0:0:0:
210,295,67680,6,0,P|152:229|215:194,1,180,2|2,0:0|0:0,0:0:0:0:
412,296,68325,2,0,P|470:230|407:195,1,180,2|2,0:0|0:0,0:0:0:0:
188,170,68971,5,8,0:0:0:0:
436,166,69132,1,8,0:0:0:0:
290,244,69454,1,8,0:0:0:0:
290,244,69535,1,8,0:0:0:0:
290,244,69616,1,8,0:0:0:0:
150,169,69777,1,8,0:0:0:0:
297,86,69938,1,8,0:0:0:0:
343,119,70019,1,8,0:0:0:0:
343,119,70100,1,8,0:0:0:0:
297,86,70180,1,8,0:0:0:0:
109,85,70261,1,14,0:0:0:0:
312,322,71551,6,0,P|363:307|324:203,1,180,2|0,0:0|0:0,0:0:0:0:
193,207,72035,2,0,P|142:192|181:88,1,180
309,86,72519,2,0,L|327:15,3,45
149,110,72842,6,0,L|52:106,2,90,8|0|2,0:0|3:0|0:0,0:0:0:0:
383,111,73325,2,0,L|480:107,2,90,8|0|2,0:0|3:0|0:0,0:0:0:0:
243,54,73809,1,8,0:0:0:0:
483,189,73971,5,12,0:0:0:0:
256,192,74132,12,2,75422,0:0:0:0:
256,192,76713,12,2,77680,0:0:0:0:
468,222,78003,6,0,L|271:203,1,180,4|8,0:0|0:0,0:0:0:0:
392,171,78487,1,0,3:0:0:0:
253,171,78648,2,0,L|249:296,1,90,2|0,0:0|0:0,0:0:0:0:
391,306,78971,2,0,L|502:304,1,90,8|0,0:0|0:0,0:0:0:0:
209,279,79293,6,0,P|145:245|211:192,1,180,2|8,0:0|0:0,0:0:0:0:
324,107,79777,2,0,L|327:38,1,45,2|8,0:0|0:0,0:0:0:0:
238,57,79938,2,0,L|126:59,1,90,2|0,0:0|0:0,0:0:0:0:
392,279,80261,2,0,L|269:283,1,90,8|2,0:0|0:0,0:0:0:0:
42,252,80583,6,0,L|36:135,1,90,2|0,0:0|0:0,0:0:0:0:
184,215,80906,2,0,L|305:207,1,90,8|0,0:0|3:0,0:0:0:0:
161,326,81229,1,2,0:0:0:0:
115,248,81390,1,0,0:0:0:0:
148,164,81551,1,8,0:0:0:0:
232,130,81713,1,0,0:0:0:0:
479,205,81874,5,8,0:0:0:0:
372,207,82035,1,8,0:0:0:0:
372,207,82116,1,8,0:0:0:0:
372,207,82196,1,8,0:0:0:0:
136,251,82358,2,0,L|31:255,1,90,8|0,0:0|0:0,0:0:0:0:
296,329,82680,2,0,L|502:326,1,180,8|2,0:0|0:0,0:0:0:0:
178,238,83164,6,0,P|121:191|195:124,1,180,4|8,0:0|0:0,0:0:0:0:
297,120,83648,1,0,0:0:0:0:
164,141,83809,2,0,L|157:237,1,90,2|0,0:0|3:0,0:0:0:0:
413,277,84132,2,0,L|305:278,1,90,8|0,0:0|0:0,0:0:0:0:
59,162,84454,6,0,L|167:163,1,90,2|0,0:0|3:0,0:0:0:0:
399,73,84777,2,0,L|416:188,1,90,8|0,0:0|0:0,0:0:0:0:
174,334,85100,1,2,0:0:0:0:
94,293,85261,1,0,3:0:0:0:
68,206,85422,1,8,0:0:0:0:
99,121,85583,1,0,0:0:0:0:
383,219,85745,6,0,P|440:182|349:131,1,180,8|8,0:0|0:0,0:0:0:0:
249,178,86229,2,0,L|356:178,1,90,8|0,0:0|0:0,0:0:0:0:
492,280,86551,1,8,0:0:0:0:
438,280,86631,1,0,0:0:0:0:
383,280,86712,1,8,0:0:0:0:
72,159,86874,1,4,1:1:0:0:
207,219,87035,6,0,L|323:219,1,90,2|0,0:0|3:0,0:0:0:0:
126,257,87358,2,0,L|120:370,1,90,8|0,0:0|3:0,0:0:0:0:
356,343,87680,1,2,0:0:0:0:
478,338,87842,1,8,0:0:0:0:
478,338,87922,1,8,0:0:0:0:
478,338,88003,1,8,0:0:0:0:
358,232,88164,1,8,0:0:0:0:
300,231,88245,1,8,0:0:0:0:
110,225,88325,1,0,0:0:0:0:
149,352,88648,6,0,P|83:307|163:295,1,180,4|2,0:0|0:0,0:0:0:0:
288,290,89132,1,0,3:0:0:0:
138,204,89293,2,0,L|130:103,1,90,8|0,0:0|0:0,0:0:0:0:
379,69,89616,6,0,L|478:75,2,90,2|0|8,0:0|3:0|0:0,0:0:0:0:
233,189,90100,2,0,P|171:143|255:113,1,180,0|0,0:0|3:0,0:0:0:0:
480,180,90583,2,0,L|385:177,1,90,8|2,0:0|0:0,0:0:0:0:
153,268,90906,6,0,P|72:240|49:140,1,180,2|8,0:0|0:0,0:0:0:0:
183,126,91390,1,0,3:0:0:0:
334,150,91551,2,0,L|353:267,1,90,2|0,0:0|0:0,0:0:0:0:
191,321,91874,1,8,0:0:0:0:
348,322,92035,1,0,3:0:0:0:
62,220,92196,5,8,0:0:0:0:
169,144,92358,2,0,L|176:221,4,45,8|8|8|8|8,0:0|0:0|0:0|0:0|3:3,0:0:0:0:
40,186,92842,1,0,0:0:0:0:
345,187,93003,1,8,3:3:0:0:
483,188,93164,1,0,0:0:0:0:
345,187,93325,1,8,3:3:0:0:
41,112,93487,6,0,L|34:231,1,90,12|2,0:0|0:0,0:0:0:0:
205,176,93809,2,0,L|304:176,1,90,8|2,0:0|0:0,0:0:0:0:
143,290,94132,1,8,0:0:0:0:
70,236,94293,1,2,0:0:0:0:
50,148,94454,1,8,0:0:0:0:
90,67,94616,1,2,0:0:0:0:
323,132,94777,6,0,L|424:133,1,90,8|2,0:0|0:0,0:0:0:0:
241,196,95100,2,0,L|233:310,1,90,8|2,0:0|0:0,0:0:0:0:
397,333,95422,2,0,P|454:291|383:229,1,180,8|8,0:0|0:0,0:0:0:0:
260,244,95906,2,0,L|178:245,1,45,0|0,1:0|1:0,1:0:0:0:
418,149,96067,6,0,P|400:77|293:32,1,180,8|0,0:0|0:0,0:0:0:0:
174,78,96551,2,0,L|176:184,1,90,2|8,0:0|0:0,0:0:0:0:
315,207,96874,2,0,L|421:207,1,90,2|0,0:0|3:0,0:0:0:0:
145,315,97196,6,0,L|350:313,1,180,4|0,3:0|3:0,0:0:0:0:
326,212,97680,1,0,3:0:0:0:
47,210,97842,1,0,3:0:0:0:
325,128,98164,1,2,0:0:0:0:
176,129,98325,1,2,0:0:0:0:
325,128,98487,1,2,0:0:0:0:
44,245,98648,6,0,L|229:241,2,180,4|0|0,0:0|3:0|3:0,0:0:0:0:
208,251,99454,2,0,L|214:370,1,90,8|0,0:0|0:0,0:0:0:0:
79,339,99777,1,8,0:0:0:0:
398,339,99938,5,0,0:0:0:0:
256,192,100100,12,2,101229,0:0:0:0:
256,192,103809,12,2,105745,0:0:0:0:
334,246,106067,6,0,L|348:185,3,45,0|0|0|0,3:0|3:0|3:0|3:0,0:0:0:0:
177,196,106390,6,0,P|120:158|191:92,1,180,4|0,2:1|0:0,0:0:0:0:
321,154,106874,2,0,L|417:141,2,90,2|0|0,0:0|0:0|0:0,0:0:0:0:
175,87,107358,1,2,0:0:0:0:
407,279,107519,6,0,P|472:246|402:210,1,180,4|2,0:0|0:0,0:0:0:0:
279,172,108003,2,0,L|272:286,1,90,2|2,0:0|0:0,0:0:0:0:
411,269,108325,1,2,0:0:0:0:
270,366,108487,2,0,L|252:289,5,45,0|0|0|0|0|0,3:0|3:0|3:0|3:0|3:0|3:0,0:0:0:0:
115,311,108971,6,0,P|66:275|129:281,1,135,8|0,0:0|0:0,0:0:0:0:
259,245,109293,1,0,3:0:0:0:
302,232,109374,1,0,3:0:0:0:
337,204,109454,1,0,3:0:0:0:
351,161,109535,1,0,3:0:0:0:
353,115,109616,1,0,3:0:0:0:
335,74,109696,1,0,3:0:0:0:
301,43,109777,1,8,3:2:0:0:
257,31,109858,1,0,3:0:0:0:
212,29,109938,1,2,3:2:0:0:
477,29,110100,5,12,0:0:0:0:
256,192,110261,12,0,111229,0:0:0:0:
252,280,111551,6,0,L|55:258,1,180,4|2,0:0|0:0,0:0:0:0:
71,170,112035,1,2,0:0:0:0:
206,107,112196,2,0,L|206:233,1,90,2|0,0:0|0:0,0:0:0:0:
62,285,112519,2,0,L|185:287,1,90,2|0,0:0|0:0,0:0:0:0:
394,359,112842,6,0,L|397:171,1,180,2|2,0:0|0:0,0:0:0:0:
253,177,113325,1,2,0:0:0:0:
252,61,113487,1,2,0:0:0:0:
301,64,113567,1,0,0:0:0:0:
351,66,113648,1,0,0:0:0:0:
481,155,113809,1,2,0:0:0:0:
483,260,113971,1,0,0:0:0:0:
220,304,114132,6,0,P|133:282|137:198,1,180,4|2,0:0|0:0,0:0:0:0:
263,192,114616,1,0,0:0:0:0:
132,166,114777,2,0,L|252:158,1,90,2|0,0:0|0:0,0:0:0:0:
359,220,115100,2,0,L|479:212,1,90,2|0,0:0|0:0,0:0:0:0:
191,355,115422,6,0,L|183:247,1,90,2|2,0:0|0:0,0:0:0:0:
332,230,115745,2,0,L|324:122,1,90,2|2,0:0|0:0,0:0:0:0:
166,151,116067,1,0,3:0:0:0:
324,140,116229,1,0,3:0:0:0:
166,151,116390,2,0,L|76:150,1,90,0|0,3:0|3:0,0:0:0:0:
379,311,116713,6,0,P|439:279|353:237,1,180,4|2,0:0|0:0,0:0:0:0:
252,214,117196,1,2,0:0:0:0:
383,135,117358,1,2,0:0:0:0:
388,220,117519,1,0,0:0:0:0:
240,299,117680,1,2,0:0:0:0:
392,304,117842,1,0,0:0:0:0:
134,64,118003,6,0,L|28:55,1,90,2|0,0:0|0:0,0:0:0:0:
203,136,118325,2,0,L|309:127,1,90,2|2,0:0|0:0,0:0:0:0:
129,219,118648,2,0,L|125:328,1,90,2|0,0:0|0:0,0:0:0:0:
263,307,118971,1,2,0:0:0:0:
125,308,119132,1,0,0:0:0:0:
426,250,119293,6,0,P|418:188|294:135,1,180,4|2,0:0|0:0,0:0:0:0:
169,142,119777,2,0,L|168:243,1,90,8|0,0:0|0:0,0:0:0:0:
327,230,120100,1,2,0:0:0:0:
448,308,120261,2,0,L|334:306,1,90,2|0,0:0|0:0,0:0:0:0:
112,329,120583,6,0,L|220:323,1,90,2|2,0:0|0:0,0:0:0:0:
333,263,120906,2,0,L|336:377,1,90,2|2,0:0|0:0,0:0:0:0:
193,265,121229,1,0,3:0:0:0:
362,206,121390,2,0,L|253:205,1,90,0|0,3:0|3:0,0:0:0:0:
129,201,121713,2,0,L|125:286,1,45,0|0,3:0|3:0,0:0:0:0:
317,324,121874,6,0,P|390:282|309:232,1,180,4|8,0:0|0:0,0:0:0:0:
206,186,122358,2,0,L|95:184,1,90,2|0,0:0|0:0,0:0:0:0:
253,282,122680,2,0,L|265:181,1,90,2|8,0:0|0:0,0:0:0:0:
398,192,123003,1,0,0:0:0:0:
162,339,123164,6,0,P|89:297|170:247,1,180,2|8,0:0|0:0,0:0:0:0:
269,203,123648,2,0,L|159:203,1,90,2|0,0:0|0:0,0:0:0:0:
38,139,123970,2,0,L|147:137,1,90,2|8,0:0|0:0,0:0:0:0:
272,188,124293,1,0,0:0:0:0:
27,360,124454,6,0,P|41:291|160:250,1,180,2|8,0:0|0:0,0:0:0:0:
273,247,124938,2,0,L|272:55,1,180,2|2,0:0|0:0,0:0:0:0:
126,68,125422,1,8,0:0:0:0:
124,153,125583,1,0,0:0:0:0:
415,292,125745,6,0,P|402:228|277:172,1,180,2|8,0:0|0:0,0:0:0:0:
163,246,126229,2,0,L|344:243,1,180,2|0,0:0|0:0,0:0:0:0:
199,309,126713,2,0,L|82:308,1,90,8|2,0:0|0:0,0:0:0:0:
372,164,127035,6,0,L|476:163,2,90,8|2|2,0:0|0:0|0:0,0:0:0:0:
247,222,127519,2,0,P|189:178|272:118,1,180,8|0,0:0|0:0,0:0:0:0:
387,56,128003,2,0,L|285:59,1,90,8|2,0:0|0:0,0:0:0:0:
50,302,128325,6,0,L|51:186,1,90,8|2,0:0|0:0,0:0:0:0:
159,199,128648,1,2,0:0:0:0:
312,204,128809,2,0,P|303:129|193:88,1,180,8|0,0:0|0:0,0:0:0:0:
63,161,129293,2,0,L|179:156,1,90,8|2,0:0|0:0,0:0:0:0:
392,292,129616,6,0,P|441:262|371:178,1,180,2|8,0:0|0:0,0:0:0:0:
262,176,130100,2,0,P|271:113|391:61,1,180,2|0,0:0|0:0,0:0:0:0:
366,143,130583,1,8,0:0:0:0:
213,144,130745,1,0,0:0:0:0:
469,271,130906,6,0,L|303:266,2,135,2|2|0,0:0|0:0|3:0,0:0:0:0:
209,342,131551,2,0,L|209:234,1,90,2|0,0:0|3:0,0:0:0:0:
371,192,131874,2,0,L|275:190,1,90,2|0,0:0|3:0,0:0:0:0:
42,273,132196,6,0,L|237:272,3,180,4|2|2|2,0:0|0:0|0:0|0:0,0:0:0:0:
467,274,133487,2,0,L|272:273,3,180,2|2|2|2,0:0|0:0|0:0|0:0,0:0:0:0:
122,268,134777,6,0,P|64:205|137:185,1,180,2|2,0:0|0:0,0:0:0:0:
377,115,135422,2,0,P|441:158|379:204,1,180,2|2,0:0|0:0,0:0:0:0:
149,253,136068,5,8,0:0:0:0:
411,251,136229,1,8,0:0:0:0:
271,171,136551,1,8,0:0:0:0:
271,171,136632,1,8,0:0:0:0:
271,171,136713,1,8,0:0:0:0:
134,103,136874,1,8,0:0:0:0:
274,83,137035,1,8,0:0:0:0:
319,110,137116,1,8,0:0:0:0:
319,110,137197,1,8,0:0:0:0:
274,83,137277,1,8,0:0:0:0:
95,81,137358,5,12,0:0:0:0:
318,182,137680,1,2,0:0:0:0:
325,278,137842,1,2,0:0:0:0:
137,182,138164,1,0,3:0:0:0:
131,270,138326,1,0,3:0:0:0:
124,358,138487,1,0,3:0:0:0:
379,181,138648,5,4,2:1:0:0:
201,298,138971,1,0,0:0:0:0:
330,299,139132,1,4,2:1:0:0:
443,183,139454,1,0,0:0:0:0:
306,179,139616,2,0,L|294:112,3,45,2|0|0|0,0:0|0:0|0:0|0:0,0:0:0:0:
106,205,139938,6,0,P|46:164|119:111,1,180,8|2,0:0|0:0,0:0:0:0:
252,133,140422,2,0,L|253:255,1,90,8|0,0:0|3:0,0:0:0:0:
122,223,140745,1,2,0:0:0:0:
116,328,140906,1,8,0:0:0:0:
377,335,141067,5,8,0:0:0:0:
256,192,141229,12,2,142196,0:0:0:0:
426,314,142519,6,0,P|411:249|306:196,1,180,4|8,0:0|0:0,0:0:0:0:
180,176,143003,1,0,3:0:0:0:
319,176,143164,2,0,L|323:301,1,90,2|0,0:0|0:0,0:0:0:0:
181,311,143487,2,0,L|70:309,1,90,8|0,0:0|0:0,0:0:0:0:
331,279,143809,6,0,P|395:245|329:192,1,180,2|8,0:0|0:0,0:0:0:0:
193,199,144293,2,0,L|192:130,1,45,2|2,0:0|0:0,0:0:0:0:
281,113,144454,2,0,L|152:105,1,90,2|0,0:0|0:0,0:0:0:0:
46,238,144777,2,0,L|169:250,1,90,8|2,0:0|0:0,0:0:0:0:
414,336,145099,6,0,L|420:219,1,90,2|0,0:0|0:0,0:0:0:0:
273,269,145422,2,0,L|152:261,1,90,8|0,0:0|3:0,0:0:0:0:
334,324,145745,1,2,0:0:0:0:
380,246,145906,1,0,0:0:0:0:
347,162,146067,1,8,0:0:0:0:
263,128,146229,1,0,0:0:0:0:
33,205,146390,5,8,0:0:0:0:
143,202,146551,1,8,0:0:0:0:
33,205,146712,1,8,0:0:0:0:
277,201,146874,2,0,L|367:201,1,90,8|0,0:0|0:0,0:0:0:0:
94,327,147196,2,0,L|273:329,1,180,8|2,0:0|0:0,0:0:0:0:
30,226,147680,6,0,P|45:157|157:119,1,180,4|8,0:0|0:0,0:0:0:0:
275,119,148164,1,0,0:0:0:0:
134,136,148325,2,0,L|141:232,1,90,2|0,0:0|3:0,0:0:0:0:
391,187,148648,2,0,L|499:188,1,90,8|0,0:0|0:0,0:0:0:0:
137,311,148970,6,0,L|29:312,1,90,2|0,0:0|3:0,0:0:0:0:
411,252,149293,2,0,L|427:369,1,90,8|0,0:0|0:0,0:0:0:0:
174,334,149616,1,2,0:0:0:0:
94,293,149777,1,0,3:0:0:0:
68,206,149938,1,8,0:0:0:0:
99,121,150099,1,0,0:0:0:0:
369,99,150261,6,0,L|180:97,1,180,8|8,0:0|0:0,0:0:0:0:
55,184,150745,2,0,L|162:184,1,90,8|0,0:0|0:0,0:0:0:0:
301,280,151067,1,8,0:0:0:0:
247,280,151147,1,0,0:0:0:0:
192,280,151228,1,8,0:0:0:0:
461,164,151390,1,4,1:1:0:0:
348,99,151551,6,0,L|470:101,1,90,2|0,0:0|3:0,0:0:0:0:
180,219,151874,2,0,L|63:221,1,90,8|0,0:0|3:0,0:0:0:0:
354,288,152196,1,2,0:0:0:0:
232,283,152358,1,8,0:0:0:0:
232,283,152438,1,8,0:0:0:0:
232,283,152519,1,8,0:0:0:0:
353,194,152680,1,8,0:0:0:0:
411,193,152761,1,8,0:0:0:0:
183,190,152842,6,0,L|59:194,1,90,4|0,1:2|0:0,0:0:0:0:
363,352,153164,2,0,P|429:307|349:295,1,180,8|2,0:0|0:0,0:0:0:0:
224,290,153648,1,0,0:0:0:0:
374,204,153809,2,0,L|382:103,1,90,8|0,0:0|0:0,0:0:0:0:
115,66,154132,6,0,L|16:72,2,90,2|0|8,0:0|3:0|0:0,0:0:0:0:
258,186,154616,2,0,P|320:140|236:110,1,180,0|0,0:0|3:0,0:0:0:0:
95,131,155099,2,0,L|83:244,1,90,8|0,0:0|0:0,0:0:0:0:
359,268,155422,6,0,P|440:240|443:140,1,180,2|8,0:0|0:0,0:0:0:0:
307,128,155906,1,0,3:0:0:0:
475,219,156067,2,0,L|477:336,1,90,2|0,0:0|0:0,0:0:0:0:
319,306,156390,1,8,0:0:0:0:
476,308,156551,1,0,3:0:0:0:
185,265,156712,5,8,0:0:0:0:
310,220,156874,2,0,L|322:151,4,45,8|8|8|8|8,0:0|0:0|0:0|0:0|3:3,0:0:0:0:
435,120,157358,1,0,0:0:0:0:
181,107,157519,1,8,3:3:0:0:
43,108,157680,1,0,0:0:0:0:
181,107,157841,1,8,3:3:0:0:
441,168,158003,6,0,L|448:287,1,90,12|2,0:0|0:0,0:0:0:0:
296,337,158325,2,0,L|289:231,1,90,8|2,0:0|0:0,0:0:0:0:
143,290,158648,1,8,0:0:0:0:
70,236,158809,1,2,0:0:0:0:
50,148,158970,1,8,0:0:0:0:
90,67,159132,1,2,0:0:0:0:
385,127,159293,6,0,L|284:128,1,90,8|2,0:0|0:0,0:0:0:0:
148,147,159616,2,0,L|156:261,1,90,8|2,0:0|0:0,0:0:0:0:
302,322,159938,2,0,P|359:280|288:218,1,180,8|8,0:0|0:0,0:0:0:0:
147,228,160422,2,0,L|201:225,1,45,8|8,0:0|0:0,0:0:0:0:
379,151,160583,6,0,L|170:163,1,180,8|0,0:0|0:0,0:0:0:0:
352,95,161067,2,0,L|350:201,1,90,2|8,0:0|0:0,0:0:0:0:
197,207,161390,2,0,L|91:207,1,90,2|0,0:0|3:0,0:0:0:0:
422,338,161712,6,0,L|428:138,1,180,4|0,3:0|3:0,0:0:0:0:
298,155,162196,1,0,3:0:0:0:
40,152,162358,1,0,3:0:0:0:
187,128,162680,1,2,0:0:0:0:
336,129,162841,1,2,0:0:0:0:
187,128,163003,1,2,0:0:0:0:
468,245,163164,6,0,L|283:241,2,180,4|0|0,0:0|3:0|3:0,0:0:0:0:
304,251,163970,2,0,L|298:370,1,90,8|0,0:0|0:0,0:0:0:0:
438,340,164293,1,8,0:0:0:0:
123,331,164454,5,2,0:0:0:0:
256,192,164616,12,0,165583,3:0:0:0:
154,65,165745,6,0,L|83:64,2,45,4|0|0,0:0|0:0|0:0,0:0:0:0:
282,141,166067,2,0,L|353:140,2,45,8|0|0,0:0|0:0|0:0,0:0:0:0:
149,172,166390,2,0,L|78:171,2,45,2|0|0,0:0|0:0|0:0,0:0:0:0:
277,248,166712,2,0,L|348:247,2,45,8|0|0,0:0|0:0|0:0,0:0:0:0:
40,347,167035,6,0,L|40:232,1,90,2|0,0:0|0:0,0:0:0:0:
176,254,167358,1,8,0:0:0:0:
442,189,167519,1,0,0:0:0:0:
396,188,167600,1,8,0:0:0:0:
351,188,167680,1,2,0:0:0:0:
226,186,167842,1,0,0:0:0:0:
346,104,168003,2,0,L|401:104,1,45,8|0,0:0|0:0,0:0:0:0:
201,300,168164,2,0,L|146:300,1,45
369,345,168325,6,0,P|417:308|350:221,1,180,6|8,0:0|0:0,0:0:0:0:
220,220,168809,2,0,L|218:324,1,90,2|0,0:0|0:0,0:0:0:0:
379,340,169132,2,0,L|257:342,2,90,2|8|2,0:0|0:0|0:0,0:0:0:0:
119,235,169616,6,0,P|58:200|142:164,1,180,8|2,0:0|0:0,0:0:0:0:
401,86,170100,2,0,L|500:86,1,90,8|0,0:0|0:0,0:0:0:0:
230,212,170422,2,0,L|133:214,1,90,8|0,0:0|0:0,0:0:0:0:
262,276,170745,1,2,0:0:0:0:
29,249,170906,6,0,P|45:180|173:140,1,180,12|2,0:0|0:0,0:0:0:0:
369,192,171390,2,0,P|353:123|225:83,1,180,8|2,0:0|0:0,0:0:0:0:
29,246,171874,2,0,L|247:243,1,180,8|2,0:0|0:0,0:0:0:0:
475,233,172358,6,0,L|477:349,1,90,8|0,0:0|0:0,0:0:0:0:
335,337,172680,1,2,0:0:0:0:
382,338,172761,1,0,0:0:0:0:
429,340,172842,1,8,3:3:0:0:
290,273,173003,1,0,3:0:0:0:
287,177,173164,1,0,3:0:0:0:
440,163,173325,2,0,L|503:165,1,45,0|0,3:0|3:0,0:0:0:0:
251,201,173487,6,0,P|197:166|275:100,1,180,12|2,0:0|0:0,0:0:0:0:
482,277,173971,2,0,L|279:276,1,180,8|2,0:0|0:0,0:0:0:0:
48,196,174454,1,8,0:0:0:0:
189,192,174616,1,8,3:3:0:0:
48,196,174777,1,0,0:0:0:0:
189,192,174938,1,2,0:0:0:0:
458,75,175100,6,0,L|456:187,1,90,8|0,3:3|3:0,0:0:0:0:
400,165,175342,1,0,3:0:0:0:
246,64,175422,2,0,L|148:63,1,90,0|8,3:0|3:3,0:0:0:0:
296,132,175745,2,0,L|308:183,3,45,0|0|0|0,3:0|3:0|3:0|3:0,0:0:0:0:
107,175,176067,1,4,0:0:0:0:
350,272,176390,5,0,0:0:0:0:
351,191,176551,2,0,L|155:191,1,180,2|0,0:0|0:0,0:0:0:0:
170,101,177035,1,2,0:0:0:0:
456,270,177358,5,4,3:0:0:0:
333,272,177519,1,2,0:0:0:0:
456,270,177680,1,0,3:0:0:0:
186,173,177842,1,2,0:0:0:0:
309,171,178003,1,0,3:0:0:0:
38,89,178164,1,2,0:0:0:0:
161,87,178325,1,0,3:0:0:0:
38,89,178487,1,2,0:0:0:0:
406,80,178648,5,4,0:0:0:0:
256,192,178809,12,2,181229,0:0:0:0:
282,296,188971,6,0,P|344:262|261:115,1,270,2|0,3:2|3:0,0:0:0:0:
124,116,189616,1,0,3:0:0:0:
368,241,190261,1,2,0:0:0:0:
139,189,190422,6,0,L|138:307,1,90,8|2,0:0|0:0,0:0:0:0:
274,241,190745,2,0,L|273:359,1,90,2|2,0:0|0:0,0:0:0:0:
424,249,191067,1,0,3:0:0:0:
198,151,191229,1,0,3:0:0:0:
65,152,191390,1,0,3:0:0:0:
357,306,191551,6,0,P|426:290|434:184,1,180,4|0,2:1|0:0,0:0:0:0:
439,114,192035,1,0,0:0:0:0:
297,118,192196,2,0,L|297:301,1,180,8|0,0:0|0:0,0:0:0:0:
155,306,192842,6,0,P|86:290|78:184,1,180,2|0,0:0|0:0,0:0:0:0:
73,114,193326,1,0,0:0:0:0:
213,111,193487,2,0,L|106:111,1,90,8|2,0:0|0:0,0:0:0:0:
273,111,193809,1,2,0:0:0:0:
125,110,193971,1,2,0:0:0:0:
460,106,194132,6,0,L|462:321,1,180,4|0,2:1|0:0,0:0:0:0:
52,106,194777,2,0,L|50:321,1,180,8|2,0:0|0:0,0:0:0:0:
456,104,195422,6,0,L|239:104,1,180,4|0,0:0|0:0,0:0:0:0:
276,197,195906,1,0,0:0:0:0:
406,290,196067,2,0,L|306:291,1,90,8|0,0:0|0:0,0:0:0:0:
144,201,196390,2,0,L|234:201,1,90,2|0,0:0|0:0,0:0:0:0:
471,192,196713,6,0,P|451:122|343:86,1,180,8|0,0:0|3:0,0:0:0:0:
357,185,197196,1,0,3:0:0:0:
248,268,197358,2,0,L|343:260,1,90,0|0,3:0|0:0,0:0:0:0:
480,261,197680,2,0,L|481:353,1,90,2|0,0:0|0:0,0:0:0:0:
65,224,198003,6,0,L|264:225,1,180,8|2,0:0|0:0,0:0:0:0:
388,144,198487,2,0,L|187:142,1,180,0|0,3:0|0:0,0:0:0:0:
60,144,198971,2,0,L|57:256,1,90,2|0,0:0|0:0,0:0:0:0:
347,298,199293,6,0,P|426:269|388:176,1,180,8|2,0:0|0:0,0:0:0:0:
265,149,199777,1,0,3:0:0:0:
265,149,199938,2,0,L|392:150,1,90,2|0,0:0|3:0,0:0:0:0:
203,216,200261,2,0,L|200:326,1,90,2|0,0:0|0:0,0:0:0:0:
68,343,200583,5,8,0:0:0:0:
220,305,200745,1,8,0:0:0:0:
68,343,200906,1,8,0:0:0:0:
392,258,201067,2,0,P|460:230|380:183,1,180,8|8,3:3|0:0,0:0:0:0:
307,120,201551,1,8,0:0:0:0:
456,115,201713,1,8,0:0:0:0:
143,197,201874,6,0,P|85:161|159:100,1,180,4|2,0:0|0:0,0:0:0:0:
428,249,202358,2,0,L|427:45,1,180
143,54,202842,1,2,0:0:0:0:
426,200,203164,5,8,0:0:0:0:
305,204,203325,1,0,3:0:0:0:
426,200,203487,1,8,0:0:0:0:
71,201,203648,1,0,3:0:0:0:
190,195,203809,1,8,0:0:0:0:
71,201,203971,1,0,3:0:0:0:
305,204,204132,1,8,0:0:0:0:
426,200,204294,1,0,3:0:0:0:
80,198,204454,5,12,0:0:0:0:
256,192,204616,12,2,206874,0:0:0:0:
308,225,207035,6,0,P|361:193|291:118,1,180,2|2,0:0|0:0,0:0:0:0:
189,118,207519,1,2,0:0:0:0:
435,204,207842,1,2,0:0:0:0:
434,107,208003,1,2,0:0:0:0:
261,346,208325,5,0,0:0:0:0:
365,344,208487,1,2,0:0:0:0:
251,346,208648,1,0,0:0:0:0:
147,344,208810,1,0,0:0:0:0:
435,204,209132,1,2,0:0:0:0:
436,210,209293,1,0,0:0:0:0:
436,210,209454,1,0,0:0:0:0:
297,211,209616,6,0,P|240:169|316:107,1,180,2|2,0:0|0:0,0:0:0:0:
438,103,210100,2,0,L|229:103,1,180,2|0,0:0|0:0,0:0:0:0:
114,106,210583,1,2,0:0:0:0:
308,312,210906,6,0,P|379:278|296:149,1,270,0|0,3:0|3:0,0:0:0:0:
158,150,211551,1,0,3:0:0:0:
158,150,211632,1,0,3:0:0:0:
158,150,211713,1,0,3:0:0:0:
312,236,211874,2,0,L|413:234,1,90,0|0,3:0|3:0,0:0:0:0:
55,325,212196,6,0,P|69:254|190:214,1,180,8|2,0:0|0:0,0:0:0:0:
457,325,212680,2,0,P|443:254|322:214,1,180,8|2,0:0|0:0,0:0:0:0:
83,207,213164,1,8,0:0:0:0:
355,323,213487,6,0,P|420:281|339:135,1,270,2|8,0:0|3:0,0:0:0:0:
221,219,214132,2,0,L|312:209,1,90,8|2,0:0|0:0,0:0:0:0:
445,227,214454,2,0,L|446:337,1,90,8|2,0:0|0:0,0:0:0:0:
203,315,214777,6,0,P|131:284|150:193,1,180,6|2,0:0|0:0,0:0:0:0:
146,104,215261,1,0,0:0:0:0:
298,189,215422,2,0,L|192:184,1,90,2|2,0:0|0:0,0:0:0:0:
69,227,215745,2,0,L|64:345,1,90,2|2,0:0|0:0,0:0:0:0:
307,247,216067,5,2,0:0:0:0:
397,242,216229,1,0,0:0:0:0:
486,238,216390,1,2,0:0:0:0:
235,143,216551,1,0,0:0:0:0:
236,223,216713,1,2,0:0:0:0:
474,106,216874,1,2,0:0:0:0:
357,109,217035,1,2,0:0:0:0:
474,106,217196,1,2,0:0:0:0:
151,160,217358,5,8,0:0:0:0:
149,257,217519,1,0,3:0:0:0:
371,195,217681,1,2,0:0:0:0:
487,196,217842,1,0,3:0:0:0:
214,340,218003,1,2,0:0:0:0:
94,341,218164,1,0,3:0:0:0:
411,261,218325,1,2,0:0:0:0:
413,358,218486,1,0,3:0:0:0:
179,252,218648,5,8,0:0:0:0:
51,252,218809,1,0,3:0:0:0:
316,154,218971,1,2,0:0:0:0:
188,154,219132,1,0,3:0:0:0:
444,113,219293,1,2,0:0:0:0:
446,210,219454,1,0,3:0:0:0:
191,276,219616,2,0,L|119:274,1,45,2|2,0:0|0:0,0:0:0:0:
337,336,219777,2,0,L|408:338,1,45,2|2,0:0|0:0,0:0:0:0:
128,361,219938,6,0,P|61:325|139:312,1,180,8|2,0:0|0:0,0:0:0:0:
363,361,220422,2,0,P|430:325|352:312,1,180,8|2,0:0|0:0,0:0:0:0:
129,318,220906,2,0,P|62:282|140:269,1,180,8|2,0:0|0:0,0:0:0:0:
403,124,221390,5,8,0:0:0:0:
289,124,221551,1,8,0:0:0:0:
175,124,221713,1,0,3:0:0:0:
488,247,221874,1,8,0:0:0:0:
374,247,222035,1,8,0:0:0:0:
128,330,222196,2,0,L|120:265,3,45,0|0|0|0,3:0|3:0|3:0|3:0,0:0:0:0:
47,246,222519,5,8,0:0:0:0:
348,247,222680,1,8,0:0:0:0:
465,246,223003,5,8,0:0:0:0:
164,247,223164,1,8,0:0:0:0:
47,246,223487,5,8,0:0:0:0:
348,247,223648,1,8,0:0:0:0:
159,173,225100,5,4,0:0:0:0:
256,192,225261,12,0,227519,0:0:0:0:
311,181,227680,5,4,0:0:0:0:
256,192,227842,12,2,228809,0:0:0:0:
352,155,228971,5,8,0:0:0:0:
227,157,229132,1,8,0:0:0:0:
352,155,229293,1,8,0:0:0:0:
65,155,229454,1,8,0:0:0:0:
67,270,229777,2,0,P|84:207|186:162,1,180,8|0,0:0|0:0,0:0:0:0:
426,224,230261,5,12,3:0:0:0:
315,169,230422,1,0,3:0:0:0:
360,169,230503,1,0,3:0:0:0:
404,169,230583,1,0,3:0:0:0:
403,56,230745,1,0,3:0:0:0:
359,56,230825,1,0,3:0:0:0:
314,56,230906,1,0,3:0:0:0:
177,57,231067,1,0,3:0:0:0:
467,130,231229,2,0,L|466:243,1,90,0|0,3:0|3:0,0:0:0:0:
174,251,231551,5,2,3:0:0:0:
59,182,231713,1,0,3:0:0:0:
103,181,231793,1,0,3:0:0:0:
148,180,231874,1,0,3:0:0:0:
300,81,232035,1,0,3:0:0:0:
256,80,232115,1,0,3:0:0:0:
211,79,232196,1,0,3:0:0:0:
72,81,232358,1,0,3:0:0:0:
217,180,232519,2,0,L|225:250,3,45,0|0|0|0,3:0|3:0|3:0|3:0,0:0:0:0:
463,295,232842,5,8,0:0:0:0:
349,292,233003,1,0,0:0:0:0:
231,288,233164,1,2,0:0:0:0:
471,173,233325,1,8,0:0:0:0:
353,169,233486,1,0,0:0:0:0:
109,292,233648,1,8,0:0:0:0:
231,288,233809,1,0,0:0:0:0:
356,283,233971,1,2,0:0:0:0:
115,72,234132,6,0,L|-7:70,1,90,2|2,0:0|0:0,0:0:0:0:
171,147,234454,2,0,L|279:151,1,90,8|0,0:0|0:0,0:0:0:0:
412,146,234777,2,0,L|413:254,1,90,8|0,0:0|0:0,0:0:0:0:
267,229,235100,2,0,L|163:228,1,90,8|0,0:0|0:0,0:0:0:0:
30,307,235422,1,0,0:0:0:0:
465,251,235745,6,0,P|464:189|336:123,1,180,4|2,0:0|0:0,0:0:0:0:
233,123,236229,1,0,3:0:0:0:
379,201,236390,2,0,L|380:305,1,90,8|0,0:0|0:0,0:0:0:0:
122,311,236713,6,0,P|59:271|136:237,1,180,2|8,0:0|0:0,0:0:0:0:
261,194,237196,2,0,L|380:204,2,90,0|0|0,0:0|3:0|3:0,0:0:0:0:
112,279,237680,2,0,L|110:169,1,90,8|0,0:0|0:0,0:0:0:0:
377,262,238003,6,0,P|445:234|422:142,1,180,2|8,0:0|0:0,0:0:0:0:
426,52,238487,1,0,3:0:0:0:
292,144,238648,2,0,L|402:147,1,90,2|0,0:0|0:0,0:0:0:0:
228,215,238971,2,0,L|118:218,1,90,8|0,0:0|3:0,0:0:0:0:
442,291,239293,5,8,0:0:0:0:
315,297,239454,2,0,L|296:226,4,45,8|0|8|8|8,0:0|0:0|0:0|0:0|3:3,0:0:0:0:
442,291,239938,1,0,0:0:0:0:
138,145,240100,1,8,3:3:0:0:
256,142,240261,1,0,0:0:0:0:
375,140,240422,1,8,3:3:0:0:
58,312,240583,6,0,L|51:187,1,90,12|2,0:0|0:0,0:0:0:0:
202,254,240906,2,0,L|317:246,1,90,8|2,0:0|0:0,0:0:0:0:
149,334,241229,1,8,0:0:0:0:
72,286,241390,1,2,0:0:0:0:
47,199,241551,1,8,0:0:0:0:
92,121,241713,1,2,0:0:0:0:
379,54,241874,6,0,L|495:62,1,90,8|2,0:0|0:0,0:0:0:0:
344,132,242196,2,0,L|460:141,1,90,8|2,0:0|0:0,0:0:0:0:
282,192,242519,2,0,L|289:303,1,90,8|2,0:0|0:0,0:0:0:0:
128,194,242842,2,0,L|135:305,1,90,8|8,0:0|0:0,0:0:0:0:
187,281,243083,1,8,0:0:0:0:
382,285,243164,6,0,P|447:245|363:231,1,180,8|0,0:0|0:0,0:0:0:0:
248,208,243648,2,0,L|247:104,1,90,2|8,0:0|0:0,0:0:0:0:
391,65,243971,2,0,L|268:57,1,90,2|0,0:0|3:0,0:0:0:0:
51,228,244293,6,0,P|64:161|167:113,1,180,4|0,3:2|3:0,0:0:0:0:
268,113,244777,1,0,3:0:0:0:
496,108,244938,1,0,3:0:0:0:
271,227,245261,2,0,L|397:223,1,90,2|2,0:0|0:0,0:0:0:0:
205,173,245583,1,2,0:0:0:0:
468,223,245745,6,0,P|460:161|339:108,1,180,4|0,0:0|3:0,0:0:0:0:
219,103,246229,1,2,0:0:0:0:
366,102,246390,1,0,3:0:0:0:
89,172,246551,2,0,L|205:178,1,90,8|0,0:0|0:0,0:0:0:0:
318,139,246874,1,8,0:0:0:0:
32,138,247035,5,0,0:0:0:0:
256,192,247196,12,0,248164,0:0:0:0:
250,314,248325,6,0,P|307:280|240:189,1,180,8|2,0:0|0:0,0:0:0:0:
122,213,248809,2,0,P|65:179|132:88,1,180,8|2,0:0|0:0,0:0:0:0:
349,84,249293,1,8,0:0:0:0:
182,153,249616,5,2,0:0:0:0:
331,152,249777,1,8,0:0:0:0:
182,153,249938,1,0,0:0:0:0:
182,153,250100,1,2,0:0:0:0:
448,292,250261,1,8,3:0:0:0:
448,175,250422,1,2,0:0:0:0:
178,359,250583,1,8,3:0:0:0:
178,242,250744,1,2,0:0:0:0:
463,151,250906,6,0,P|459:96|345:32,1,180,4|2,0:0|0:0,0:0:0:0:
134,85,251390,2,0,L|29:85,1,90,2|0,0:0|0:0,0:0:0:0:
350,88,251713,2,0,L|455:88,1,90,8|0,0:0|0:0,0:0:0:0:
331,87,252035,1,8,0:0:0:0:
45,87,252196,5,2,0:0:0:0:
256,192,252358,12,0,253164,0:0:0:0:
256,189,253487,5,4,0:0:0:0:
256,192,253648,12,8,258325,0:0:0:0:
243,275,258648,6,0,P|161:250|167:150,1,180,2|8,0:0|0:0,0:0:0:0:
155,77,259132,1,0,0:0:0:0:
323,146,259293,2,0,L|209:146,1,90,2|0,0:0|0:0,0:0:0:0:
399,208,259616,2,0,L|400:308,1,90,8|0,0:0|0:0,0:0:0:0:
89,253,259938,6,0,L|197:254,1,90,2|0,0:0|3:0,0:0:0:0:
309,177,260261,2,0,L|208:175,1,90,8|0,0:0|3:0,0:0:0:0:
72,174,260583,2,0,P|23:89|74:58,1,180,2|8,0:0|0:0,0:0:0:0:
195,144,261067,1,0,3:0:0:0:
449,245,261229,5,8,0:0:0:0:
311,244,261390,2,0,L|312:149,1,90,8|0,0:0|0:0,0:0:0:0:
446,97,261713,2,0,L|351:95,1,90,8|0,0:0|0:0,0:0:0:0:
224,132,262035,2,0,L|146:130,2,45,8|8|8,0:0|0:0|0:0,0:0:0:0:
461,288,262358,1,4,1:1:0:0:
461,172,262519,1,2,0:0:0:0:
204,361,262680,5,8,0:0:0:0:
152,360,262761,1,0,0:0:0:0:
101,359,262842,1,2,0:0:0:0:
274,292,263003,1,8,0:0:0:0:
328,291,263084,1,0,0:0:0:0:
382,290,263165,1,2,0:0:0:0:
227,208,263325,1,8,0:0:0:0:
477,206,263487,1,8,0:0:0:0:
359,209,263648,1,8,0:0:0:0:
357,154,263729,1,8,0:0:0:0:
181,77,263809,5,4,0:0:0:0:
128,88,263890,1,0,0:0:0:0:
90,127,263971,1,0,0:0:0:0:
73,177,264051,1,0,0:0:0:0:
72,230,264132,1,8,0:0:0:0:
93,279,264213,1,0,0:0:0:0:
134,313,264293,1,0,0:0:0:0:
187,319,264374,1,0,0:0:0:0:
373,70,264454,5,2,0:0:0:0:
426,81,264535,1,0,0:0:0:0:
464,120,264616,1,0,0:0:0:0:
481,170,264696,1,0,0:0:0:0:
482,223,264777,1,8,0:0:0:0:
461,272,264858,1,0,0:0:0:0:
420,306,264938,1,0,0:0:0:0:
367,312,265019,1,0,0:0:0:0:
172,337,265100,6,0,L|163:254,3,45,2|0|0|0,0:0|0:0|0:0|0:0,0:0:0:0:
236,254,265422,2,0,L|245:171,3,45,8|0|0|2,0:0|0:0|0:0|0:0,0:0:0:0:
60,238,265745,5,2,0:0:0:0:
65,184,265825,1,0,0:0:0:0:
80,132,265906,1,0,0:0:0:0:
106,84,265987,1,0,0:0:0:0:
146,49,266067,1,8,0:0:0:0:
196,28,266148,1,0,0:0:0:0:
249,18,266229,1,0,0:0:0:0:
302,11,266309,1,0,0:0:0:0:
126,300,266390,6,0,L|121:89,1,180,2|8,0:0|0:0,0:0:0:0:
246,118,266874,1,0,0:0:0:0:
98,212,267035,2,0,L|188:215,1,90,2|0,0:0|3:0,0:0:0:0:
327,285,267358,2,0,L|211:280,1,90,8|0,0:0|0:0,0:0:0:0:
481,199,267680,6,0,L|280:187,1,180,2|8,0:0|0:0,0:0:0:0:
146,183,268164,1,0,0:0:0:0:
146,183,268245,1,8,0:0:0:0:
146,183,268325,1,8,0:0:0:0:
302,141,268487,1,0,0:0:0:0:
143,77,268648,2,0,L|141:188,1,90,8|2,0:0|0:0,0:0:0:0:
195,164,268890,1,2,0:0:0:0:
386,292,268971,6,0,P|441:264|361:207,1,180,8|0,0:0|3:0,0:0:0:0:
249,197,269454,1,0,3:0:0:0:
302,190,269535,1,0,3:0:0:0:
355,183,269616,1,2,0:0:0:0:
492,234,269777,1,2,0:0:0:0:
495,339,269938,1,2,0:0:0:0:
358,326,270100,1,2,0:0:0:0:
135,232,270261,6,0,P|76:177|151:178,1,180,8|8,0:0|0:0,0:0:0:0:
298,181,270745,1,8,0:0:0:0:
244,181,270825,1,8,0:0:0:0:
189,181,270906,1,8,0:0:0:0:
352,278,271067,1,8,0:0:0:0:
297,276,271148,1,8,0:0:0:0:
242,274,271229,1,8,0:0:0:0:
188,273,271309,1,8,0:0:0:0:
133,272,271390,1,8,0:0:0:0:
78,271,271471,1,0,0:0:0:0:
248,203,271551,6,0,P|310:173|227:158,1,180,12|0,0:0|0:0,0:0:0:0:
85,147,272035,2,0,L|84:256,1,90,8|2,0:0|0:0,0:0:0:0:
236,238,272358,1,2,0:0:0:0:
83,237,272519,1,2,0:0:0:0:
433,231,272680,5,12,0:0:0:0:
256,192,272842,12,0,279293,0:0:0:0:
