osu file format v14

[General]
AudioFilename: 888.mp3
AudioLeadIn: 0
PreviewTime: 6800
Countdown: 0
SampleSet: Soft
StackLeniency: 0.7
Mode: 0
LetterboxInBreaks: 0
WidescreenStoryboard: 1

[Editor]
Bookmarks: 55762
DistanceSpacing: 1.2
BeatDivisor: 2
GridSize: 4
TimelineZoom: 1.5

[Metadata]
Title:Wagamama Dorumiru
TitleUnicode:わがままドルミール
Artist:Suzushiro
ArtistUnicode:すずしろ
Creator:moonlightleaf
Version:Normal
Source:Hachi Hachi
Tags:U-ske ぉこランチ! Oko Lunch! rhythm game
BeatmapID:939984
BeatmapSetID:436392

[Difficulty]
HPDrainRate:4
CircleSize:3
OverallDifficulty:4
ApproachRate:4
SliderMultiplier:1
SliderTickRate:1

[Events]
//Background and Video events
0,0,"BG.jpg",0,0
//Break Periods
//Storyboard Layer 0 (Background)
//Storyboard Layer 1 (Fail)
//Storyboard Layer 2 (Pass)
//Storyboard Layer 3 (Foreground)
//Storyboard Sound Samples

[TimingPoints]
5109,422.535211267606,4,2,1,70,1,0
57503,-100,4,2,1,70,0,1
81165,-100,4,2,1,70,0,0
113278,-100,4,2,1,5,0,0

[Colours]
Combo1 : 209,164,255
Combo2 : 251,190,195
Combo3 : 185,226,254
Combo4 : 249,243,185

[HitObjects]
360,104,5321,6,0,L|356:54,2,50,0|0|0,0:0|0:0|0:0,0:0:0:0:
364,224,6166,2,0,L|366:273,2,50,0|0|0,0:0|0:0|0:0,0:0:0:0:
312,195,6799,6,0,L|204:203,1,100,6|8,0:0|0:0,0:0:0:0:
152,208,7433,2,0,L|48:176,1,100,2|0,0:0|0:0,0:0:0:0:
0,164,8067,1,8,0:0:0:0:
71,68,8490,2,0,P|117:47|166:50,1,100,6|0,0:0|0:0,0:0:0:0:
216,84,9123,2,0,P|265:92|314:83,1,100,2|0,0:0|0:0,0:0:0:0:
372,68,9757,2,0,L|388:132,1,50,8|0,0:0|0:0,0:0:0:0:
392,176,10180,6,0,L|384:276,1,100,6|0,0:0|0:0,0:0:0:0:
380,336,10814,1,0,0:0:0:0:
475,263,11236,1,6,0:0:0:0:
392,176,11659,2,0,P|342:169|293:177,1,100,6|0,0:0|0:0,0:0:0:0:
256,223,12292,2,0,P|259:272|248:321,2,100,8|0|0,0:0|0:0|0:0,0:0:0:0:
224,172,13349,1,0,0:0:0:0:
184,124,13560,6,0,L|64:140,1,100,2|0,0:0|0:0,0:0:0:0:
40,176,14194,1,0,0:0:0:0:
40,236,14405,2,0,L|40:340,1,100,2|8,0:0|0:0,0:0:0:0:
140,272,15250,2,0,P|187:256|237:262,1,100,2|0,0:0|0:0,0:0:0:0:
285,296,15884,1,0,0:0:0:0:
333,332,16095,2,0,P|382:338|429:322,1,100,2|8,0:0|0:0,0:0:0:0:
476,212,16940,6,0,L|492:104,1,100,2|0,0:0|0:0,0:0:0:0:
468,60,17574,1,0,0:0:0:0:
408,60,17785,2,0,P|361:72|314:56,1,100,2|8,0:0|0:0,0:0:0:0:
220,132,18630,2,0,L|216:248,2,100,2|0|2,0:0|0:0|0:0,0:0:0:0:
196,76,19687,1,0,0:0:0:0:
152,35,19898,2,0,L|112:79,1,50,8|0,0:0|0:0,0:0:0:0:
88,124,20321,6,0,P|76:176|84:236,1,100,2|6,0:0|0:0,0:0:0:0:
128,332,21166,1,6,0:0:0:0:
220,252,21588,2,0,L|268:288,1,50,8|0,0:0|0:0,0:0:0:0:
312,315,22011,2,0,P|359:303|407:317,1,100,0|2,0:0|0:0,0:0:0:0:
460,344,22645,1,2,0:0:0:0:
488,292,22856,2,0,L|496:188,1,100,0|8,0:0|0:0,0:0:0:0:
472,76,23701,5,2,0:0:0:0:
359,120,24123,2,0,P|310:122|262:108,2,100,0|2|8,0:0|0:0|0:0,0:0:0:0:
400,164,25180,2,0,L|392:284,1,100,2|0,0:0|0:0,0:0:0:0:
362,315,25814,2,0,B|296:264|232:352|172:297,1,200,2|0,0:0|0:0,0:0:0:0:
72,232,27081,6,0,L|68:132,1,100,6|0,0:0|0:0,0:0:0:0:
100,81,27715,1,0,0:0:0:0:
160,72,27926,2,0,P|196:84|268:72,1,100,2|8,0:0|0:0,0:0:0:0:
356,144,28771,2,0,L|340:256,1,100,2|0,0:0|0:0,0:0:0:0:
296,280,29405,1,0,0:0:0:0:
247,243,29616,2,0,P|202:222|153:223,1,100,2|8,0:0|0:0,0:0:0:0:
84,323,30461,6,0,P|129:343|178:342,2,100,2|0|2,0:0|0:0|0:0,0:0:0:0:
41,280,31518,1,0,0:0:0:0:
42,220,31729,2,0,L|44:170,1,50,8|0,0:0|0:0,0:0:0:0:
84,124,32152,2,0,P|123:94|172:88,1,100,2|0,0:0|0:0,0:0:0:0:
228,104,32785,1,0,0:0:0:0:
280,136,32997,2,0,P|327:148|375:134,1,100,2|8,0:0|0:0,0:0:0:0:
432,112,33630,1,0,0:0:0:0:
452,232,34053,6,0,L|457:281,2,50,0|0|0,0:0|0:0|0:0,0:0:0:0:
344,288,34898,2,0,L|344:338,2,50,0|8|0,0:0|0:0|0:0,0:0:0:0:
224,308,35743,2,0,L|208:355,2,50,0|0|2,0:0|0:0|0:0,0:0:0:0:
248,252,36377,1,0,0:0:0:0:
256,132,36800,2,0,L|316:124,1,50,8|0,0:0|0:0,0:0:0:0:
364,120,37222,6,0,P|404:116|476:136,2,100,2|0|0,0:0|0:0|0:0,0:0:0:0:
276,204,38490,1,8,0:0:0:0:
276,204,38701,2,0,L|276:324,1,100,2|0,0:0|0:0,0:0:0:0:
272,364,39335,1,8,0:0:0:0:
160,320,39757,2,0,P|111:311|62:323,1,100,2|8,0:0|0:0,0:0:0:0:
56,204,40602,6,0,P|148:164|248:184,1,200,6|0,0:0|0:0,0:0:0:0:
348,236,41870,2,0,L|404:268,1,50,0|0,0:0|0:0,0:0:0:0:
448,280,42292,2,0,L|455:130,1,150,2|0,0:0|0:0,0:0:0:0:
408,92,43138,2,0,P|334:104|263:82,1,150,2|0,0:0|0:0,0:0:0:0:
212,52,43983,5,6,0:0:0:0:
100,91,44405,1,0,0:0:0:0:
100,91,44616,2,0,P|49:245|190:324,1,350,0|0,0:0|0:0,0:0:0:0:
248,312,46307,2,0,L|304:300,1,50,0|2,0:0|0:0,0:0:0:0:
412,268,46940,1,0,0:0:0:0:
456,156,47363,5,6,0:0:0:0:
300,64,47997,2,0,L|288:112,1,50,2|2,0:0|0:0,0:0:0:0:
252,228,48630,1,0,0:0:0:0:
164,148,49053,1,6,0:0:0:0:
52,292,49687,2,0,L|46:242,1,50,0|2,0:0|0:0,0:0:0:0:
36,124,50321,1,0,0:0:0:0:
119,40,50743,6,0,P|169:32|217:44,2,100,6|0|2,0:0|0:0|0:0,0:0:0:0:
36,124,52011,1,0,0:0:0:0:
96,228,52433,1,6,0:0:0:0:
332,184,53278,1,6,0:0:0:0:
256,192,54123,12,0,55602,0:0:0:0:
252,200,57504,6,0,L|244:316,2,100,6|0|2,0:0|0:0|0:0,0:0:0:0:
192,96,58771,2,0,L|142:99,1,50,8|0,0:0|0:0,0:0:0:0:
84,104,59194,1,2,0:0:0:0:
44,148,59405,2,0,L|46:197,2,50,0|0|2,0:0|0:0|0:0,0:0:0:0:
156,188,60250,2,0,L|159:237,2,50,0|8|0,0:0|0:0|0:0,0:0:0:0:
152,128,60884,5,6,0:0:0:0:
268,96,61307,2,0,B|312:88|312:88|369:97|369:97|415:89,1,150,0|0,0:0|0:0,0:0:0:0:
472,108,62152,2,0,L|477:157,1,50,8|0,0:0|0:0,0:0:0:0:
400,248,62785,2,0,L|396:198,1,50,0|8,0:0|0:0,0:0:0:0:
340,176,63208,2,0,B|296:184|296:184|238:174|238:174|192:182,1,150,2|8,0:0|0:0,0:0:0:0:
140,212,64053,1,0,0:0:0:0:
88,240,64264,6,0,P|99:288|92:337,2,100,2|0|2,0:0|0:0|0:0,0:0:0:0:
52,192,65321,2,0,L|2:192,2,50,0|8|0,0:0|0:0|0:0,0:0:0:0:
84,144,65954,2,0,P|132:131|180:141,1,100,6|0,0:0|0:0,0:0:0:0:
236,164,66588,1,2,0:0:0:0:
312,256,67011,2,0,L|315:305,2,50,0|8|0,0:0|0:0|0:0,0:0:0:0:
420,208,67856,6,0,L|458:239,2,50,0|0|2,0:0|0:0|0:0,0:0:0:0:
440,88,68701,2,0,L|488:76,2,50,0|8|0,0:0|0:0|0:0,0:0:0:0:
320,106,69546,2,0,P|272:96|223:102,2,100,2|0|0,0:0|0:0|0:0,0:0:0:0:
372,140,70601,1,8,0:0:0:0:
476,200,71024,5,6,0:0:0:0:
380,271,71447,2,0,P|332:287|283:282,1,100,0|2,0:0|0:0,0:0:0:0:
190,207,72292,2,0,L|172:160,1,50,8|0,0:0|0:0,0:0:0:0:
167,101,72715,2,0,P|206:71|255:72,1,100,2|0,0:0|0:0,0:0:0:0:
314,86,73349,1,2,0:0:0:0:
336,204,73771,2,0,L|364:256,2,50,0|8|0,0:0|0:0|0:0,0:0:0:0:
284,172,74405,5,2,0:0:0:0:
178,228,74828,1,0,0:0:0:0:
172,108,75250,2,0,L|220:88,1,50,2|0,0:0|0:0,0:0:0:0:
275,71,75673,2,0,P|347:92|422:88,1,150,8|0,0:0|0:0,0:0:0:0:
480,108,76518,1,0,0:0:0:0:
500,165,76729,2,0,L|503:314,1,150,0|8,0:0|0:0,0:0:0:0:
388,352,77785,6,0,P|340:339|292:351,1,100,2|0,0:0|0:0,0:0:0:0:
232,362,78419,1,0,0:0:0:0:
172,364,78630,2,0,P|122:368|80:344,1,100,2|8,0:0|0:0,0:0:0:0:
12,244,79476,2,0,L|4:132,1,100,2|0,0:0|0:0,0:0:0:0:
0,84,80109,1,0,0:0:0:0:
120,68,80532,2,0,L|126:18,2,50,8|8|0,0:0|0:0|0:0,0:0:0:0:
112,128,81166,5,2,0:0:0:0:
361,296,82222,2,0,L|401:326,2,50,0|0|0,0:0|0:0|0:0,0:0:0:0:
317,256,82856,1,6,0:0:0:0:
308,135,83278,2,0,P|355:119|403:133,2,100,0|6|0,0:0|0:0|0:0,0:0:0:0:
209,200,84546,6,0,P|160:206|123:239,2,100,6|8|0,0:0|0:0|0:0,0:0:0:0:
305,272,85814,2,0,L|329:328,1,50,8|0,0:0|0:0,0:0:0:0:
377,348,86236,2,0,L|425:252,1,100,2|8,0:0|0:0,0:0:0:0:
453,208,86870,1,2,0:0:0:0:
453,88,87292,2,0,L|453:38,2,50,0|8|0,0:0|0:0|0:0,0:0:0:0:
405,124,87926,6,0,P|361:128|293:108,1,100,2|8,0:0|0:0,0:0:0:0:
249,96,88560,1,2,0:0:0:0:
137,48,88983,2,0,L|87:48,2,50,0|0|0,0:0|0:0|0:0,0:0:0:0:
165,100,89616,2,0,L|169:204,1,100,2|8,0:0|0:0,0:0:0:0:
169,260,90250,1,2,0:0:0:0:
213,300,90461,2,0,P|262:300|308:319,1,100,0|8,0:0|0:0,0:0:0:0:
361,348,91095,1,0,0:0:0:0:
421,332,91307,6,0,L|433:224,1,100,2|0,0:0|0:0,0:0:0:0:
437,172,91940,1,2,0:0:0:0:
457,52,92363,2,0,L|496:20,2,50,0|0|0,0:0|0:0|0:0,0:0:0:0:
401,72,92997,2,0,P|337:80|289:68,1,100,2|0,0:0|0:0,0:0:0:0:
245,56,93630,1,2,0:0:0:0:
129,88,94053,2,0,L|79:97,2,50,0|0|0,0:0|0:0|0:0,0:0:0:0:
177,124,94687,6,0,L|165:228,1,100,6|0,0:0|0:0,0:0:0:0:
157,284,95321,1,2,0:0:0:0:
37,300,95743,1,0,0:0:0:0:
9,184,96166,1,6,0:0:0:0:
117,136,96588,2,0,B|157:148|157:148|269:128|269:128|311:141,1,200,6|0,0:0|0:0,0:0:0:0:
361,176,97645,2,0,L|369:228,1,50,8|0,0:0|0:0,0:0:0:0:
381,284,98067,5,6,0:0:0:0:
277,340,98490,2,0,L|227:330,1,50,0|2,0:0|0:0,0:0:0:0:
129,264,99123,2,0,L|174:243,1,50,0|0,0:0|0:0,0:0:0:0:
257,156,99757,2,0,L|207:146,1,50,2|0,0:0|0:0,0:0:0:0:
109,80,100390,2,0,L|154:59,1,50,2|0,0:0|0:0,0:0:0:0:
273,48,101025,2,0,L|322:57,1,50,2|0,0:0|0:0,0:0:0:0:
381,72,101447,5,2,0:0:0:0:
425,184,101870,2,0,L|431:233,1,50,0|2,0:0|0:0,0:0:0:0:
337,308,102504,2,0,L|343:258,1,50,0|0,0:0|0:0,0:0:0:0:
241,192,103138,2,0,L|247:241,1,50,2|0,0:0|0:0,0:0:0:0:
153,316,103770,2,0,B|141:272|141:272|141:216|141:216|130:168,1,150,2|2,0:0|0:0,0:0:0:0:
117,48,104828,5,2,0:0:0:0:
229,92,105250,2,0,L|279:92,1,50,0|0,0:0|0:0,0:0:0:0:
365,176,105884,2,0,L|315:176,1,50,0|0,0:0|0:0,0:0:0:0:
221,252,106518,2,0,L|271:252,1,50,2|0,0:0|0:0,0:0:0:0:
357,336,107152,2,0,L|307:336,1,50,2|0,0:0|0:0,0:0:0:0:
189,340,107785,2,0,L|139:340,1,50,2|0,0:0|0:0,0:0:0:0:
77,340,108208,6,0,L|53:242,1,100,2|0,0:0|0:0,0:0:0:0:
37,184,108842,1,2,0:0:0:0:
329,116,109898,6,0,P|356:210|328:305,1,200,4|0,0:0|0:0,0:0:0:0:
177,212,111376,1,6,0:0:0:0:
