osu file format v14

[General]
AudioFilename: 888.mp3
AudioLeadIn: 0
PreviewTime: 6800
Countdown: 0
SampleSet: Soft
StackLeniency: 0.7
Mode: 0
LetterboxInBreaks: 0
WidescreenStoryboard: 1

[Editor]
Bookmarks: 55762
DistanceSpacing: 2
BeatDivisor: 4
GridSize: 4
TimelineZoom: 2.3

[Metadata]
Title:Wagamama Dorumiru
TitleUnicode:わがままドルミール
Artist:Suzushiro
ArtistUnicode:すずしろ
Creator:moonlightleaf
Version:Hard
Source:Hachi Hachi
Tags:U-ske ぉこランチ! Oko Lunch! rhythm game
BeatmapID:939982
BeatmapSetID:436392

[Difficulty]
HPDrainRate:5
CircleSize:4
OverallDifficulty:5
ApproachRate:6
SliderMultiplier:1.2
SliderTickRate:1

[Events]
//Background and Video events
0,0,"BG.jpg",0,0
//Break Periods
//Storyboard Layer 0 (Background)
//Storyboard Layer 1 (Fail)
//Storyboard Layer 2 (Pass)
//Storyboard Layer 3 (Foreground)
//Storyboard Sound Samples

[TimingPoints]
5109,422.535211267606,4,2,1,70,1,0
57503,-100,4,2,1,70,0,1
81165,-100,4,2,1,70,0,0
113278,-100,4,2,1,5,0,0

[Colours]
Combo1 : 209,164,255
Combo2 : 251,190,195
Combo3 : 185,226,254
Combo4 : 249,243,185

[HitObjects]
80,216,5320,6,0,L|85:275,1,60,0|0,0:0|0:0,0:0:0:0:
168,328,5742,2,0,L|156:208,1,120,0|0,0:0|0:0,0:0:0:0:
152,112,6376,1,0,0:0:0:0:
236,160,6587,1,0,0:0:0:0:
240,64,6799,6,0,L|320:56,1,60,6|0,0:0|0:0,0:0:0:0:
396,48,7221,1,8,0:0:0:0:
359,136,7432,2,0,P|343:193|350:252,1,120,2|0,0:0|0:0,0:0:0:0:
280,316,8066,2,0,L|208:320,1,60,8|0,0:0|0:0,0:0:0:0:
152,248,8489,6,0,L|190:201,1,60,6|0,0:0|0:0,0:0:0:0:
252,128,8911,1,8,0:0:0:0:
163,91,9122,2,0,P|105:87|55:120,1,120,2|0,0:0|0:0,0:0:0:0:
20,208,9756,1,8,0:0:0:0:
66,292,9968,1,0,0:0:0:0:
152,248,10179,6,0,L|190:201,1,60,6|0,0:0|0:0,0:0:0:0:
252,128,10601,1,8,0:0:0:0:
284,216,10813,1,2,0:0:0:0:
300,232,11235,5,6,0:0:0:0:
316,248,11658,5,6,0:0:0:0:
335,264,12080,5,2,0:0:0:0:
397,191,12292,2,0,L|454:173,1,60,8|0,0:0|0:0,0:0:0:0:
388,104,12714,2,0,L|330:86,1,60,0|0,0:0|0:0,0:0:0:0:
240,60,13137,1,0,0:0:0:0:
264,152,13348,1,0,0:0:0:0:
284,243,13559,6,0,P|254:247|226:238,1,60,2|0,0:0|0:0,0:0:0:0:
144,288,13982,2,0,L|152:348,1,60,0|0,0:0|0:0,0:0:0:0:
62,379,14404,1,2,0:0:0:0:
44,284,14615,2,0,L|36:224,1,60,0|8,0:0|0:0,0:0:0:0:
24,128,15038,1,0,0:0:0:0:
112,168,15249,6,0,L|232:168,1,120,2|0,0:0|0:0,0:0:0:0:
312,220,15883,1,0,0:0:0:0:
328,124,16094,2,0,L|338:64,1,60,2|0,0:0|0:0,0:0:0:0:
420,12,16517,1,8,0:0:0:0:
432,108,16728,1,0,0:0:0:0:
436,204,16939,6,0,L|379:184,1,60,2|0,0:0|0:0,0:0:0:0:
288,220,17362,1,0,0:0:0:0:
324,308,17573,2,0,P|350:295|369:272,1,60,0|2,0:0|0:0,0:0:0:0:
464,296,17996,2,0,L|471:355,2,60,0|8|0,0:0|0:0|0:0,0:0:0:0:
436,204,18629,5,2,0:0:0:0:
384,124,18841,1,0,0:0:0:0:
339,208,19052,2,0,P|311:215|281:212,1,60,0|0,0:0|0:0,0:0:0:0:
216,140,19475,2,0,L|202:81,1,60,2|0,0:0|0:0,0:0:0:0:
120,36,19897,1,8,0:0:0:0:
48,100,20108,1,0,0:0:0:0:
148,168,20320,1,2,0:0:0:0:
136,204,20743,5,6,0:0:0:0:
124,240,21166,5,6,0:0:0:0:
112,276,21588,5,8,0:0:0:0:
172,348,21800,2,0,L|291:359,1,120,0|0,0:0|0:0,0:0:0:0:
372,308,22433,1,2,0:0:0:0:
444,368,22645,1,2,0:0:0:0:
464,276,22856,2,0,L|476:217,1,60,0|0,0:0|0:0,0:0:0:0:
427,136,23278,2,0,P|403:153|387:178,1,60,8|0,0:0|0:0,0:0:0:0:
376,276,23701,6,0,P|347:268|322:251,1,60,2|0,0:0|0:0,0:0:0:0:
236,212,24123,2,0,L|117:222,1,120,0|2,0:0|0:0,0:0:0:0:
36,168,24757,1,0,0:0:0:0:
32,264,24969,1,8,0:0:0:0:
108,152,25180,6,0,L|227:139,1,120,2|0,0:0|0:0,0:0:0:0:
320,116,25813,2,0,L|368:104,3,30,2|0|0|0,0:0|0:0|0:0|0:0,0:0:0:0:
396,112,26235,2,0,L|432:116,3,30,0|0|0|0,0:0|0:0|0:0|0:0,0:0:0:0:
468,140,26658,2,0,L|470:199,1,60,10|0,0:0|0:0,0:0:0:0:
376,216,27081,6,0,L|380:276,1,60,6|0,0:0|0:0,0:0:0:0:
292,316,27504,2,0,L|289:256,1,60,0|0,0:0|0:0,0:0:0:0:
236,176,27926,1,2,0:0:0:0:
188,260,28138,2,0,L|130:243,1,60,0|8,0:0|0:0,0:0:0:0:
64,176,28560,1,0,0:0:0:0:
132,108,28770,6,0,L|190:91,1,60,2|0,0:0|0:0,0:0:0:0:
284,116,29194,1,0,0:0:0:0:
272,212,29405,1,0,0:0:0:0:
360,180,29615,2,0,L|419:189,1,60,2|0,0:0|0:0,0:0:0:0:
452,100,30039,1,8,0:0:0:0:
364,64,30250,1,0,0:0:0:0:
283,116,30461,6,0,P|225:124|173:97,1,120,2|0,0:0|0:0,0:0:0:0:
96,36,31095,1,0,0:0:0:0:
32,108,31307,1,2,0:0:0:0:
104,172,31518,2,0,L|93:231,1,60,0|8,0:0|0:0,0:0:0:0:
76,324,31940,1,0,0:0:0:0:
168,296,32151,6,0,L|225:279,1,60,2|0,0:0|0:0,0:0:0:0:
316,244,32574,1,0,0:0:0:0:
332,148,32785,1,0,0:0:0:0:
404,208,32996,2,0,L|462:220,1,60,2|0,0:0|0:0,0:0:0:0:
412,304,33418,2,0,L|353:317,1,60,8|0,0:0|0:0,0:0:0:0:
260,340,33842,6,0,P|229:325|213:301,1,60,2|0,0:0|0:0,0:0:0:0:
177,217,34264,1,0,0:0:0:0:
269,185,34476,2,0,L|276:244,1,60,0|2,0:0|0:0,0:0:0:0:
260,340,34898,1,0,0:0:0:0:
353,317,35108,2,0,L|412:304,1,60,8|0,0:0|0:0,0:0:0:0:
488,244,35531,5,2,0:0:0:0:
400,204,35742,2,0,L|340:200,1,60,0|0,0:0|0:0,0:0:0:0:
326,104,36166,2,0,P|273:129|244:181,1,120,2|0,0:0|0:0,0:0:0:0:
220,272,36800,1,8,0:0:0:0:
188,260,37222,5,2,0:0:0:0:
156,244,37645,5,0,0:0:0:0:
124,232,38066,5,2,0:0:0:0:
92,216,38489,6,0,L|34:232,1,60,8|2,0:0|0:0,0:0:0:0:
12,328,38912,1,2,0:0:0:0:
92,384,39123,1,0,0:0:0:0:
152,307,39335,2,0,P|175:289|203:278,1,60,8|0,0:0|0:0,0:0:0:0:
300,284,39757,2,0,L|307:343,1,60,2|0,0:0|0:0,0:0:0:0:
400,368,40179,2,0,L|407:308,1,60,8|0,0:0|0:0,0:0:0:0:
367,219,40602,6,0,P|316:192|257:200,1,120,6|0,0:0|0:0,0:0:0:0:
92,296,41447,1,0,0:0:0:0:
92,296,41659,1,0,0:0:0:0:
72,104,42080,5,0,0:0:0:0:
139,172,42291,2,0,P|153:145|173:123,1,60,2|0,0:0|0:0,0:0:0:0:
232,200,42714,2,0,P|261:201|291:195,1,60,2|0,0:0|0:0,0:0:0:0:
364,139,43137,2,0,P|392:132|422:133,1,60,2|0,0:0|0:0,0:0:0:0:
492,200,43559,2,0,L|484:259,1,60,0|0,0:0|0:0,0:0:0:0:
392,288,43983,6,0,L|399:228,1,60,6|0,0:0|0:0,0:0:0:0:
364,139,44404,2,0,L|296:120,1,60,0|0,0:0|0:0,0:0:0:0:
216,92,44827,1,2,0:0:0:0:
216,92,45038,1,2,0:0:0:0:
48,188,45460,1,0,0:0:0:0:
216,284,45883,1,0,0:0:0:0:
216,92,46307,5,0,0:0:0:0:
304,128,46518,2,0,L|363:135,1,60,2|0,0:0|0:0,0:0:0:0:
388,228,46939,2,0,L|328:220,1,60,0|0,0:0|0:0,0:0:0:0:
208,224,47362,6,0,P|151:242|114:288,1,120,6|0,0:0|0:0,0:0:0:0:
32,340,47997,1,2,0:0:0:0:
32,340,48102,1,2,0:0:0:0:
32,340,48208,2,0,L|22:280,1,60,2|0,0:0|0:0,0:0:0:0:
64,196,48630,2,0,L|75:137,1,60,0|0,0:0|0:0,0:0:0:0:
136,31,49053,6,0,P|195:32|243:66,1,120,6|0,0:0|0:0,0:0:0:0:
256,160,49687,1,0,0:0:0:0:
332,104,49898,2,0,L|387:81,1,60,2|0,0:0|0:0,0:0:0:0:
480,108,50320,2,0,L|483:167,1,60,0|0,0:0|0:0,0:0:0:0:
468,288,50743,6,0,P|438:280|412:264,1,60,6|0,0:0|0:0,0:0:0:0:
317,256,51166,2,0,L|314:315,1,60,0|0,0:0|0:0,0:0:0:0:
224,348,51587,2,0,L|226:288,1,60,2|0,0:0|0:0,0:0:0:0:
212,192,52011,2,0,P|182:198|158:215,1,60,0|0,0:0|0:0,0:0:0:0:
87,311,52432,6,0,P|48:268|39:209,1,120,6|0,0:0|0:0,0:0:0:0:
160,60,53278,2,0,L|280:44,1,120,6|0,0:0|0:0,0:0:0:0:
364,92,53911,1,0,0:0:0:0:
340,184,54122,1,2,0:0:0:0:
256,192,54229,12,0,55601,0:0:0:0:
288,104,56869,5,0,0:0:0:0:
329,190,57080,1,0,0:0:0:0:
244,232,57291,1,0,0:0:0:0:
204,144,57503,6,0,P|175:135|145:137,1,60,6|0,0:0|0:0,0:0:0:0:
68,194,57925,2,0,L|70:253,1,60,0|0,0:0|0:0,0:0:0:0:
160,290,58348,2,0,L|162:230,1,60,2|0,0:0|0:0,0:0:0:0:
204,144,58770,1,0,0:0:0:0:
260,224,58982,1,0,0:0:0:0:
272,319,59193,6,0,P|325:294|354:243,1,120,2|0,0:0|0:0,0:0:0:0:
340,148,59827,1,2,0:0:0:0:
428,184,60038,2,0,L|487:194,2,60,0|0|8,0:0|0:0|0:0,0:0:0:0:
354,243,60672,1,0,0:0:0:0:
316,356,60883,5,6,0:0:0:0:
316,356,61306,2,0,L|264:325,1,60,0|0,0:0|0:0,0:0:0:0:
296,236,61728,2,0,L|254:192,1,60,2|0,0:0|0:0,0:0:0:0:
332,136,62151,2,0,L|302:83,1,60,8|0,0:0|0:0,0:0:0:0:
220,32,62573,6,0,L|160:32,1,60,0|0,0:0|0:0,0:0:0:0:
92,100,62996,1,8,0:0:0:0:
112,192,63207,2,0,L|98:311,1,120,2|0,0:0|0:0,0:0:0:0:
180,360,63841,2,0,L|186:300,1,60,8|0,0:0|0:0,0:0:0:0:
276,264,64263,6,0,L|270:324,1,60,2|0,0:0|0:0,0:0:0:0:
364,344,64686,2,0,L|370:284,1,60,0|0,0:0|0:0,0:0:0:0:
376,188,65108,1,2,0:0:0:0:
452,248,65320,1,0,0:0:0:0:
471,155,65531,2,0,P|457:130|435:109,1,60,8|0,0:0|0:0,0:0:0:0:
315,114,65953,6,0,P|255:114|203:85,1,120,6|0,0:0|0:0,0:0:0:0:
128,144,66587,2,0,P|150:198|141:257,1,120,2|0,0:0|0:0,0:0:0:0:
75,327,67221,2,0,P|57:304|51:275,1,60,8|0,0:0|0:0,0:0:0:0:
44,180,67644,6,0,L|56:121,1,60,2|0,0:0|0:0,0:0:0:0:
80,28,68066,1,0,0:0:0:0:
148,96,68277,2,0,P|207:97|262:75,1,120,2|0,0:0|0:0,0:0:0:0:
344,28,68911,1,8,0:0:0:0:
428,72,69122,6,0,L|436:204,1,120,0|2,0:0|0:0,0:0:0:0:
420,288,69756,2,0,L|413:347,1,60,8|0,0:0|0:0,0:0:0:0:
328,304,70179,2,0,L|314:245,1,60,2|0,0:0|0:0,0:0:0:0:
232,296,70601,2,0,L|225:355,1,60,8|0,0:0|0:0,0:0:0:0:
148,279,71024,6,0,P|178:229|233:211,1,120,6|0,0:0|0:0,0:0:0:0:
320,256,71658,1,0,0:0:0:0:
404,208,71869,2,0,L|414:148,1,60,2|0,0:0|0:0,0:0:0:0:
328,108,72291,2,0,L|317:167,1,60,8|0,0:0|0:0,0:0:0:0:
232,212,72714,6,0,P|173:207|121:179,1,120,2|0,0:0|0:0,0:0:0:0:
84,92,73348,2,0,P|38:128|27:186,1,120,2|0,0:0|0:0,0:0:0:0:
37,280,73982,1,8,0:0:0:0:
92,360,74193,1,0,0:0:0:0:
160,260,74404,5,2,0:0:0:0:
160,260,74827,2,0,P|216:243|271:264,1,120,0|2,0:0|0:0,0:0:0:0:
336,337,75460,1,0,0:0:0:0:
368,245,75672,2,0,L|386:188,1,60,8|0,0:0|0:0,0:0:0:0:
396,93,76094,6,0,P|338:100|284:75,1,120,2|0,0:0|0:0,0:0:0:0:
200,28,76728,2,0,L|190:87,1,60,0|2,0:0|0:0,0:0:0:0:
177,183,77150,1,0,0:0:0:0:
260,232,77362,2,0,L|269:172,1,60,8|0,0:0|0:0,0:0:0:0:
190,87,77784,6,0,P|134:71|82:98,1,120,2|0,0:0|0:0,0:0:0:0:
20,172,78418,1,0,0:0:0:0:
68,256,78630,2,0,P|124:272|176:245,1,120,2|8,0:0|0:0,0:0:0:0:
244,176,79263,1,0,0:0:0:0:
276,268,79475,6,0,L|281:327,2,60,2|0|0,0:0|0:0|0:0,0:0:0:0:
340,196,80108,2,0,L|459:181,1,120,0|8,0:0|0:0,0:0:0:0:
488,88,80742,2,0,L|428:94,1,60,8|0,0:0|0:0,0:0:0:0:
330,108,81165,6,0,B|260:144|168:68|96:103,1,240,2|0,0:0|0:0,0:0:0:0:
32,176,82221,1,0,0:0:0:0:
32,272,82432,1,0,0:0:0:0:
120,228,82644,1,0,0:0:0:0:
204,272,82855,5,6,0:0:0:0:
392,240,83277,1,0,0:0:0:0:
236,352,83700,1,6,0:0:0:0:
428,344,84122,1,0,0:0:0:0:
355,167,84545,6,0,P|301:143|243:150,1,120,6|8,0:0|0:0,0:0:0:0:
172,216,85179,1,2,0:0:0:0:
120,136,85390,2,0,L|60:141,1,60,0|0,0:0|0:0,0:0:0:0:
4,220,85813,2,0,L|20:284,1,60,8|0,0:0|0:0,0:0:0:0:
86,346,86235,6,0,L|118:295,1,60,2|0,0:0|0:0,0:0:0:0:
172,216,86658,1,8,0:0:0:0:
216,300,86869,2,0,P|273:316|331:305,1,120,2|0,0:0|0:0,0:0:0:0:
424,272,87503,2,0,L|440:329,1,60,8|0,0:0|0:0,0:0:0:0:
502,258,87925,6,0,P|472:208|416:191,1,120,2|8,0:0|0:0,0:0:0:0:
323,212,88559,2,0,P|264:208|211:182,1,120,2|0,0:0|0:0,0:0:0:0:
132,128,89193,2,0,L|73:139,1,60,8|0,0:0|0:0,0:0:0:0:
40,228,89615,6,0,L|47:287,1,60,2|0,0:0|0:0,0:0:0:0:
120,352,90038,1,8,0:0:0:0:
148,259,90249,2,0,P|207:252|263:271,1,120,2|0,0:0|0:0,0:0:0:0:
319,347,90883,2,0,P|349:352|379:349,1,60,8|0,0:0|0:0,0:0:0:0:
464,300,91306,5,2,0:0:0:0:
480,204,91517,1,0,0:0:0:0:
388,232,91728,2,0,L|256:196,1,120,8|0,0:0|0:0,0:0:0:0:
200,136,92362,1,0,0:0:0:0:
280,84,92573,2,0,L|334:59,1,60,8|0,0:0|0:0,0:0:0:0:
428,80,92996,6,0,L|440:144,1,60,2|0,0:0|0:0,0:0:0:0:
420,232,93418,2,0,L|423:291,2,60,8|2|0,0:0|0:0|0:0,0:0:0:0:
356,160,94052,1,0,0:0:0:0:
328,251,94263,2,0,P|299:262|270:264,1,60,8|0,0:0|0:0,0:0:0:0:
175,235,94686,6,0,P|147:228|117:231,1,60,6|0,0:0|0:0,0:0:0:0:
36,184,95108,2,0,L|28:124,2,60,8|2|2,0:0|0:0|0:0,0:0:0:0:
44,280,95742,2,0,L|50:339,1,60,0|8,0:0|0:0,0:0:0:0:
144,367,96165,6,0,P|193:335|252:340,1,120,6|6,0:0|0:0,0:0:0:0:
340,376,96799,2,0,L|343:316,1,60,8|0,0:0|0:0,0:0:0:0:
420,256,97221,2,0,L|423:315,1,60,2|2,0:0|0:0,0:0:0:0:
508,268,97644,2,0,L|504:208,1,60,8|2,0:0|0:0,0:0:0:0:
411,132,98066,6,0,P|353:141|296:123,1,120,6|0,0:0|0:0,0:0:0:0:
224,60,98700,1,2,0:0:0:0:
176,244,99122,2,0,P|154:222|130:205,1,60,0|0,0:0|0:0,0:0:0:0:
252,356,99756,6,0,P|281:353|309:341,1,60,2|0,0:0|0:0,0:0:0:0:
288,152,100390,2,0,P|269:175|260:203,1,60,2|0,0:0|0:0,0:0:0:0:
443,147,101024,2,0,P|432:120|410:100,1,60,2|0,0:0|0:0,0:0:0:0:
324,64,101446,1,2,0:0:0:0:
140,119,101869,6,0,P|110:124|80:120,1,60,0|2,0:0|0:0,0:0:0:0:
63,312,102503,2,0,P|80:286|90:258,1,60,0|0,0:0|0:0,0:0:0:0:
256,163,103137,2,0,P|284:156|314:157,1,60,2|0,0:0|0:0,0:0:0:0:
416,319,103770,2,0,P|387:327|357:325,2,60,2|0|0,0:0|0:0|0:0,0:0:0:0:
488,260,104404,2,0,L|491:200,1,60,2|0,0:0|0:0,0:0:0:0:
500,104,104827,1,2,0:0:0:0:
308,88,105249,6,0,L|248:84,2,60,0|2|0,0:0|0:0|0:0,0:0:0:0:
360,168,105883,2,0,L|419:164,2,60,0|0|0,0:0|0:0|0:0,0:0:0:0:
276,216,106517,6,0,L|216:219,2,60,2|0|0,0:0|0:0|0:0,0:0:0:0:
344,284,107151,2,0,L|403:287,2,60,2|0|0,0:0|0:0|0:0,0:0:0:0:
256,324,107784,2,0,L|176:316,1,60,2|0,0:0|0:0,0:0:0:0:
108,280,108207,6,0,L|98:220,1,60,2|0,0:0|0:0,0:0:0:0:
172,160,108629,2,0,L|172:100,1,60,2|2,0:0|0:0,0:0:0:0:
256,192,109897,5,4,0:0:0:0:
256,60,110742,1,6,0:0:0:0:
256,60,111376,1,6,0:0:0:0:
