osu file format v14

[General]
AudioFilename: audio.mp3
AudioLeadIn: 0
PreviewTime: 56076
Countdown: 0
SampleSet: Normal
StackLeniency: 0.7
Mode: 0
LetterboxInBreaks: 0
WidescreenStoryboard: 0

[Editor]
Bookmarks: 38076,47442,56808,69686,75540
DistanceSpacing: 2.1
BeatDivisor: 4
GridSize: 8
TimelineZoom: 2.3

[Metadata]
Title:Zetsubou-sei Hero Chiryouyaku (TV Size)
TitleUnicode:絶望性:ヒーロー治療薬 (TV Size)
Artist:Suzumu feat.Soraru
ArtistUnicode:スズム feat.そらる
Creator:Keada
Version:Mirai
Source:Danganronpa: Kibou no Gakuen to Zetsubou no Koukousei The Animation
Tags:yahuri cxu hobbes2 shoe ダンガンロンパ 希望の学園と絶望の高校生 そらる
BeatmapID:1028936
BeatmapSetID:482194

[Difficulty]
HPDrainRate:6.5
CircleSize:4.5
OverallDifficulty:9
ApproachRate:9.3
SliderMultiplier:1.4
SliderTickRate:1

[Events]
//Background and Video events
0,0,"nekoshonen_enoshima_junko_danganronpa_girl_99375_1920x1080.jpg",0,0
Video,665,"vid.avi"
//Break Periods
//Storyboard Layer 0 (Background)
//Storyboard Layer 1 (Fail)
//Storyboard Layer 2 (Pass)
//Storyboard Layer 3 (Foreground)
//Storyboard Sound Samples

[TimingPoints]
-411,292.682926829268,4,2,0,30,1,0
8808,-90.9090909090909,4,2,0,60,0,0
9979,-80,4,1,1,60,0,0
19345,-80,4,1,1,65,0,0
28710,-133.333333333333,4,1,1,50,0,0
31052,-100,4,1,1,50,0,0
31637,-133.333333333333,4,1,1,50,0,0
33393,-100,4,1,1,50,0,0
33979,-133.333333333333,4,1,1,50,0,0
35735,-100,4,1,1,50,0,0
36467,-133.333333333333,4,1,1,50,0,0
36906,-100,4,1,1,50,0,0
38076,-90.9090909090909,4,1,1,60,0,0
47442,-100,4,1,1,60,0,0
47881,-100,4,1,2,60,0,0
52125,-100,4,1,1,60,0,0
52710,-100,4,1,2,60,0,0
53296,-100,4,1,1,60,0,0
53881,-100,4,1,2,60,0,0
54467,-86.9565217391304,4,1,1,60,0,0
55637,-86.9565217391304,4,1,3,60,0,0
56808,-74.0740740740741,4,1,1,70,0,1
56954,-74.0740740740741,4,1,3,70,0,1
61491,-74.0740740740741,4,1,1,70,0,1
61930,-74.0740740740741,4,1,3,70,0,1
65003,-74.0740740740741,4,1,1,70,0,1
66613,-74.0740740740741,4,1,3,70,0,1
70857,-74.0740740740741,4,1,1,70,0,1
71296,-74.0740740740741,4,1,3,70,0,1
73198,-74.0740740740741,4,1,1,70,0,1
75540,-83.3333333333333,4,1,1,60,0,0
83735,-100,4,1,1,60,0,0
84174,-100,4,1,3,60,0,0
84906,-100,4,1,1,60,0,0
86223,-100,4,1,1,5,0,0

[Colours]
Combo1 : 242,102,204
Combo2 : 245,147,118
Combo3 : 247,64,96

[HitObjects]
184,152,613,6,0,P|232:128|304:184,1,140,2|2,0:0|0:0,0:0:0:0:
272,296,1052,2,0,L|176:272,1,70,2|0,0:0|0:0,0:0:0:0:
344,240,1345,2,0,L|440:216,1,70,2|2,0:0|0:0,0:0:0:0:
496,320,1637,1,0,0:0:0:0:
344,240,1784,6,0,B|336:192|336:192|368:88,1,140,2|2,0:0|0:0,0:0:0:0:
480,56,2223,2,0,B|493:100|493:100|490:123,1,70,2|0,0:0|0:0,0:0:0:0:
411,223,2515,2,0,B|408:200|408:200|422:153,1,70,2|2,0:0|0:0,0:0:0:0:
480,56,2808,1,0,0:0:0:0:
288,112,2954,6,0,P|240:128|176:48,1,140,2|2,0:0|0:0,0:0:0:0:
339,61,3393,2,0,P|355:93|355:149,1,70,2|0,0:0|0:0,0:0:0:0:
248,264,3686,2,0,P|252:229|267:198,1,70,2|2,0:0|0:0,0:0:0:0:
432,128,3979,1,0,0:0:0:0:
320,288,4125,6,0,B|296:376|296:376|336:336,1,140,2|2,0:0|0:0,0:0:0:0:
448,208,4564,1,2,0:0:0:0:
472,288,4710,1,0,0:0:0:0:
368,208,4857,1,2,0:0:0:0:
392,128,5003,1,2,0:0:0:0:
392,128,5296,6,0,B|336:128|336:128|312:144|312:144|240:144,1,140,2|0,0:0|0:0,0:0:0:0:
136,72,5735,1,2,0:0:0:0:
104,192,5881,1,0,0:0:0:0:
224,160,6028,1,2,0:0:0:0:
112,216,6174,1,2,0:0:0:0:
208,136,6320,1,0,0:0:0:0:
248,312,6467,6,0,B|184:336|184:280|112:312,1,140,2|0,0:0|0:0,0:0:0:0:
0,376,6906,1,2,0:0:0:0:
128,376,7052,1,0,0:0:0:0:
64,264,7198,1,2,0:0:0:0:
0,376,7345,1,2,0:0:0:0:
152,368,7491,1,0,0:0:0:0:
0,304,7637,6,0,P|-9:244|68:188,1,140,2|0,0:0|0:0,0:0:0:0:
187,198,8076,1,2,0:0:0:0:
128,88,8223,1,0,0:0:0:0:
110,216,8369,1,2,0:0:0:0:
200,120,8515,1,2,0:0:0:0:
72,144,8662,1,0,0:0:0:0:
201,282,8808,6,0,P|257:250|257:162,1,154.000004699707,2|0,0:0|0:0,0:0:0:0:
232,136,9174,1,0,0:0:0:0:
224,96,9247,1,0,0:0:0:0:
240,64,9320,1,0,0:0:0:0:
272,40,9393,1,0,0:0:0:0:
312,40,9467,1,0,0:0:0:0:
344,56,9540,5,2,0:0:0:0:
296,56,9613,1,2,0:0:0:0:
248,56,9686,1,2,0:0:0:0:
200,56,9759,1,2,0:0:0:0:
152,56,9832,1,2,0:0:0:0:
104,56,9906,1,2,0:0:0:0:
56,56,9979,6,0,P|16:136|88:216,1,175,4|0,0:0|2:0,0:0:0:0:
240,256,10418,2,0,P|264:216|256:160,1,87.5,8|0,0:0|2:0,0:0:0:0:
96,128,10710,1,2,0:0:0:0:
88,160,10783,1,0,2:0:0:0:
81,192,10856,1,2,0:0:0:0:
74,224,10929,1,0,2:0:0:0:
67,256,11003,1,8,0:0:0:0:
328,280,11149,6,0,B|272:248|272:248|144:264,1,175,6|0,0:0|2:0,0:0:0:0:
340,360,11588,2,0,B|380:344|380:344|420:280,1,87.5,8|0,0:0|2:0,0:0:0:0:
408,128,11881,1,2,0:0:0:0:
377,115,11954,1,0,2:0:0:0:
347,105,12027,1,2,0:0:0:0:
315,113,12100,1,0,2:0:0:0:
283,121,12174,1,8,0:0:0:0:
472,206,12320,6,0,P|512:134|456:46,1,175,6|0,0:0|2:0,0:0:0:0:
283,121,12759,2,0,L|272:216,1,87.5,8|0,1:0|2:0,1:0:0:0:
432,320,13052,1,2,0:0:0:0:
404,303,13125,1,0,2:0:0:0:
372,296,13198,1,2,0:0:0:0:
339,299,13271,1,0,2:0:0:0:
310,314,13344,1,8,0:0:0:0:
105,223,13491,6,0,B|169:207|169:207|201:223|201:223|287:204,1,175,6|2,0:0|0:0,0:0:0:0:
344,184,13857,1,2,0:0:0:0:
344,184,13930,1,8,0:0:0:0:
232,48,14076,1,2,0:0:0:0:
360,224,14223,1,8,0:0:0:0:
320,56,14369,1,2,0:0:0:0:
304,272,14515,1,8,0:0:0:0:
400,24,14662,6,0,B|456:0|456:0|384:112,1,175,6|0,0:0|2:0,0:0:0:0:
208,160,15101,2,0,B|168:152|168:152|120:112,1,87.5,8|0,0:0|2:0,0:0:0:0:
336,152,15393,1,2,0:0:0:0:
337,184,15466,1,0,2:0:0:0:
339,217,15539,1,2,0:0:0:0:
340,250,15612,1,0,2:0:0:0:
342,283,15685,1,8,0:0:0:0:
96,240,15832,6,0,B|160:192|160:192|264:192,1,175,6|0,0:0|2:0,0:0:0:0:
448,208,16271,1,8,0:0:0:0:
264,272,16418,1,0,2:0:0:0:
312,88,16564,1,2,0:0:0:0:
339,70,16637,1,0,2:0:0:0:
371,63,16710,1,2,0:0:0:0:
403,68,16783,1,0,2:0:0:0:
432,84,16856,1,8,0:0:0:0:
256,192,17003,6,0,B|200:168|200:168|144:176|144:176|72:144,1,175,6|0,0:0|2:0,0:0:0:0:
328,159,17442,2,0,P|336:207|309:257,1,87.5,8|0,0:0|2:0,0:0:0:0:
112,304,17735,1,2,0:0:0:0:
139,286,17808,1,0,2:0:0:0:
171,278,17881,1,2,0:0:0:0:
203,283,17954,1,0,2:0:0:0:
232,298,18027,1,8,0:0:0:0:
8,224,18174,6,0,L|0:32,1,175,6|2,0:0|0:0,0:0:0:0:
72,24,18540,1,2,0:0:0:0:
72,24,18613,1,8,0:0:0:0:
96,248,18759,1,0,2:0:0:0:
272,112,18906,1,2,0:0:0:0:
8,224,19052,1,8,0:0:0:0:
2,267,19125,1,8,0:0:0:0:
18,307,19198,1,8,0:0:0:0:
50,336,19271,1,8,0:0:0:0:
93,346,19345,6,0,B|152:328|152:328|192:336|192:336|224:312|264:304,1,175,6|2,0:0|0:0,0:0:0:0:
480,320,19784,5,8,0:0:0:0:
448,104,19930,1,2,0:0:0:0:
392,360,20076,5,8,0:0:0:0:
504,176,20223,1,2,0:0:0:0:
240,168,20369,5,8,0:0:0:0:
448,240,20515,1,2,0:0:0:0:
240,80,20662,5,8,0:0:0:0:
320,280,20808,1,2,0:0:0:0:
456,56,20954,5,8,0:0:0:0:
387,264,21101,1,2,0:0:0:0:
296,16,21247,5,8,0:0:0:0:
464,160,21393,1,2,0:0:0:0:
256,240,21540,1,8,0:0:0:0:
456,56,21686,6,0,L|464:248,1,175,6|2,0:0|0:0,0:0:0:0:
208,312,22125,5,8,0:0:0:0:
256,96,22271,1,2,0:0:0:0:
416,304,22418,5,8,0:0:0:0:
208,232,22564,1,2,0:0:0:0:
456,144,22710,5,8,0:0:0:0:
472,360,22857,1,2,0:0:0:0:
376,112,23003,5,8,0:0:0:0:
288,312,23149,1,2,0:0:0:0:
208,80,23296,6,0,B|256:72|256:72|304:80,1,87.5,8|2,0:0|0:0,0:0:0:0:
432,248,23588,5,8,0:0:0:0:
168,240,23735,1,2,0:0:0:0:
168,240,23808,1,2,0:0:0:0:
168,240,23881,1,8,0:0:0:0:
448,120,24028,6,0,B|464:176|464:176|440:224|440:224|456:304,1,175,6|2,0:0|0:0,0:0:0:0:
192,328,24467,5,8,0:0:0:0:
144,112,24613,1,2,0:0:0:0:
328,296,24759,5,8,0:0:0:0:
112,312,24906,1,2,0:0:0:0:
312,144,25052,5,8,0:0:0:0:
272,360,25198,1,2,0:0:0:0:
160,120,25345,5,8,0:0:0:0:
352,216,25491,1,2,0:0:0:0:
88,208,25637,5,8,0:0:0:0:
240,56,25784,1,2,0:0:0:0:
240,320,25930,2,0,B|195:324|195:324|128:304,1,87.5,8|2,0:0|0:0,0:0:0:0:
32,128,26223,1,8,0:0:0:0:
328,120,26369,6,0,L|352:304,1,175,6|2,0:0|0:0,0:0:0:0:
88,272,26808,5,8,0:0:0:0:
176,72,26954,1,2,0:0:0:0:
168,336,27101,5,8,0:0:0:0:
104,128,27247,1,2,0:0:0:0:
272,328,27393,5,8,0:0:0:0:
56,328,27540,1,2,0:0:0:0:
280,192,27686,5,8,0:0:0:0:
321,182,27759,1,2,0:0:0:0:
357,205,27832,1,2,0:0:0:0:
365,247,27905,1,2,0:0:0:0:
342,282,27978,1,8,0:0:0:0:
300,290,28051,1,8,0:0:0:0:
265,266,28125,1,8,0:0:0:0:
224,264,28198,1,8,0:0:0:0:
184,288,28271,5,8,0:0:0:0:
357,205,28418,1,4,0:0:0:0:
240,344,28564,1,2,0:0:0:0:
167,204,28710,6,0,P|208:183|271:196,1,105.000004005432,6|0,0:0|2:0,0:0:0:0:
184,288,29149,2,0,P|144:288|112:280,1,52.5000020027161,2|0,0:0|2:0,0:0:0:0:
16,216,29442,6,0,B|8:176|8:176|32:96,1,105.000004005432,2|2,0:0|0:0,0:0:0:0:
88,24,29881,1,0,2:0:0:0:
208,128,30028,2,0,P|152:136|104:112,1,105.000004005432,2|2,0:0|0:0,0:0:0:0:
167,50,30467,1,0,2:0:0:0:
272,80,30613,2,0,P|288:128|280:152,1,52.5000020027161,2|0,0:0|2:0,0:0:0:0:
264,216,30906,1,2,0:0:0:0:
368,96,31052,6,0,L|440:88,1,70,10|0,0:0|2:0,0:0:0:0:
512,192,31345,2,0,L|440:184,1,70,10|0,0:0|2:0,0:0:0:0:
352,200,31637,1,0,2:0:0:0:
416,264,31784,6,0,P|424:304|416:336,1,52.5000020027161,2|0,0:0|2:0,0:0:0:0:
280,272,32076,2,0,P|279:245|286:220,1,52.5000020027161,2|0,0:0|2:0,0:0:0:0:
368,96,32369,6,0,P|328:104|280:88,1,78.7500030040742,2|0,0:0|2:0,0:0:0:0:
256,64,32662,2,0,P|224:56|200:64,1,52.5000020027161,2|0,0:0|2:0,0:0:0:0:
112,152,32954,1,2,0:0:0:0:
240,144,33101,1,0,2:0:0:0:
128,72,33247,1,2,0:0:0:0:
272,168,33393,6,0,P|280:208|272:240,1,70,10|0,0:0|2:0,0:0:0:0:
126,140,33686,2,0,P|119:105|127:72,1,70,10|0,0:0|2:0,0:0:0:0:
208,112,33979,1,0,2:0:0:0:
152,224,34125,6,0,P|104:224|48:176,1,105.000004005432,2|2,0:0|0:0,0:0:0:0:
32,104,34564,1,0,2:0:0:0:
16,256,34710,6,0,L|8:360,1,105.000004005432,2|2,0:0|0:0,0:0:0:0:
96,368,35149,1,0,2:0:0:0:
108,205,35296,2,0,P|75:193|37:197,1,52.5000020027161,2|0,0:0|2:0,0:0:0:0:
16,256,35588,1,2,0:0:0:0:
192,264,35735,6,0,B|224:256|224:256|256:224,1,70,10|0,0:0|2:0,0:0:0:0:
336,80,36028,2,0,B|304:88|304:88|272:120,1,70,10|0,0:0|2:0,0:0:0:0:
250,229,36320,1,0,2:0:0:0:
368,216,36467,6,0,P|360:176|344:160,1,52.5000020027161,2|0,0:0|2:0,0:0:0:0:
250,229,36759,1,2,0:0:0:0:
440,264,36906,6,0,L|440:112,1,140,6|8,0:0|0:0,0:0:0:0:
448,80,37271,1,8,0:0:0:0:
448,80,37345,1,8,0:0:0:0:
261,239,37491,1,8,0:0:0:0:
261,239,37564,1,8,0:0:0:0:
261,239,37637,2,0,P|213:247|173:231,1,70,2|0,0:0|2:0,0:0:0:0:
120,152,37930,1,2,0:0:0:0:
352,176,38076,6,0,L|368:344,1,154.000004699707,6|0,0:0|2:0,0:0:0:0:
440,192,38515,2,0,P|440:144|416:104,1,77.0000023498536,8|0,0:0|2:0,0:0:0:0:
320,8,38808,1,2,0:0:0:0:
352,176,38954,1,0,2:0:0:0:
472,48,39101,2,0,B|432:40|432:40|384:48,1,77.0000023498536,8|0,0:0|2:0,0:0:0:0:
272,136,39393,5,2,0:0:0:0:
160,24,39540,1,0,2:0:0:0:
304,72,39686,2,0,L|312:160,1,77.0000023498536,8|0,1:0|2:0,1:0:0:0:
232,280,39979,2,0,P|264:272|320:288,1,77.0000023498536,2|0,0:0|2:0,0:0:0:0:
400,352,40271,1,8,0:0:0:0:
184,336,40418,6,0,P|160:288|212:207,1,154.000004699707,2|2,0:0|0:0,0:0:0:0:
344,136,40857,1,8,0:0:0:0:
208,64,41003,1,0,2:0:0:0:
304,208,41149,2,0,B|342:217|342:217|400:208,1,77.0000023498536,2|0,0:0|2:0,0:0:0:0:
320,66,41442,2,0,B|272:53|272:53|202:64,1,115.50000352478,8|0,0:0|2:0,0:0:0:0:
136,96,41735,5,2,0:0:0:0:
152,248,41881,1,0,2:0:0:0:
8,192,42028,2,0,P|40:176|104:184,1,77.0000023498536,8|0,0:0|2:0,0:0:0:0:
224,224,42320,1,2,0:0:0:0:
72,256,42467,1,2,0:0:0:0:
136,96,42613,1,8,0:0:0:0:
256,304,42759,6,0,P|216:308|168:288,1,77.0000023498536,6|0,0:0|2:0,0:0:0:0:
352,192,43052,2,0,P|392:188|440:208,1,77.0000023498536,12|0,0:0|2:0,0:0:0:0:
432,312,43345,1,0,2:0:0:0:
284,227,43491,2,0,P|276:179|300:131,1,77.0000023498536,2|0,0:0|2:0,0:0:0:0:
432,104,43784,2,0,P|394:116|344:96,1,77.0000023498536,8|0,0:0|2:0,0:0:0:0:
224,32,44076,6,0,P|272:48|296:80,1,77.0000023498536,2|0,0:0|2:0,0:0:0:0:
352,208,44369,1,8,0:0:0:0:
208,144,44515,1,0,2:0:0:0:
360,24,44662,1,2,0:0:0:0:
224,160,44808,1,0,2:0:0:0:
344,8,44954,1,8,0:0:0:0:
264,232,45101,6,0,B|192:264|192:200|104:240,1,154.000004699707,6|2,0:0|0:0,0:0:0:0:
8,344,45540,1,8,0:0:0:0:
48,192,45686,1,0,2:0:0:0:
160,304,45832,2,0,P|96:312|64:296,1,77.0000023498536,2|0,0:0|2:0,0:0:0:0:
0,208,46125,1,8,0:0:0:0:
224,160,46271,6,0,B|240:192|232:222|232:222|246:246|246:246|232:288|256:320,1,154.000004699707,6|2,0:0|0:0,0:0:0:0:
136,200,46710,2,8,P|128:144|144:112,1,77.0000023498536,8|0,0:0|2:0,0:0:0:0:
304,40,47003,1,2,0:0:0:0:
317,276,47149,1,8,0:0:0:0:
317,276,47223,1,8,0:0:0:0:
317,276,47296,1,2,0:0:0:0:
170,57,47442,6,0,B|210:33|210:33|322:41,1,140,6|0,0:0|2:0,0:0:0:0:
456,120,47881,2,0,P|480:152|480:200,1,70,8|4,0:0|0:0,0:0:0:0:
304,120,48174,2,0,P|282:146|275:180,1,70,2|4,0:0|0:0,0:0:0:0:
472,256,48467,1,8,0:0:0:0:
312,328,48613,6,0,L|232:320,1,70,4|2,0:0|0:0,0:0:0:0:
80,256,48906,2,0,L|160:248,1,70,4|8,0:0|0:0,0:0:0:0:
328,248,49198,2,0,L|248:240,1,70,4|2,0:0|0:0,0:0:0:0:
96,176,49491,2,0,L|176:168,1,70,4|8,0:0|0:0,0:0:0:0:
292,306,49784,6,0,P|260:250|324:178,1,140,4|4,0:0|0:0,0:0:0:0:
432,296,50223,2,0,L|440:368,1,70,8|4,0:0|0:0,0:0:0:0:
368,208,50515,2,0,L|375:138,1,70,2|4,0:0|0:0,0:0:0:0:
448,16,50808,1,8,0:0:0:0:
304,160,50954,6,0,P|248:176|176:104,1,140,4|4,0:0|0:0,0:0:0:0:
264,0,51393,2,0,P|272:40|264:80,1,70,8|4,0:0|0:0,0:0:0:0:
108,162,51686,2,0,P|104:127|111:93,1,70,2|4,0:0|0:0,0:0:0:0:
256,96,51979,1,8,0:0:0:0:
80,264,52125,6,0,B|128:256|128:256|168:272|168:272|232:264,1,140,6|2,0:0|0:0,0:0:0:0:
384,320,52564,1,8,0:0:0:0:
352,152,52710,1,4,0:0:0:0:
215,266,52857,1,2,0:0:0:0:
388,235,53003,1,4,0:0:0:0:
280,104,53149,1,8,0:0:0:0:
328,368,53296,6,0,P|400:392|456:328,1,140,6|2,0:0|0:0,0:0:0:0:
440,160,53735,1,8,0:0:0:0:
272,264,53881,1,4,0:0:0:0:
446,356,54028,1,2,0:0:0:0:
320,208,54174,1,4,0:0:0:0:
512,176,54320,1,8,0:0:0:0:
301,336,54467,6,0,B|229:360|229:288|133:336,1,161.000003070831,6|2,0:0|0:0,0:0:0:0:
32,112,54906,1,8,0:0:0:0:
224,184,55052,1,2,0:0:0:0:
40,264,55198,1,8,0:0:0:0:
17,229,55271,1,8,0:0:0:0:
23,191,55344,1,2,0:0:0:0:
56,170,55417,1,2,0:0:0:0:
89,148,55491,1,2,0:0:0:0:
98,110,55564,1,2,0:0:0:0:
78,77,55637,5,12,0:0:0:0:
232,352,56076,6,0,B|224:312|224:312|232:256,1,80.5000015354157,0|0,2:0|2:0,2:0:0:0:
352,64,56369,1,0,2:0:0:0:
160,208,56515,1,0,2:0:0:0:
392,288,56662,1,0,2:0:0:0:
89,148,56808,6,0,P|78:244|65:348,1,189.000000720978,6|2,0:0|0:0,0:0:0:0:
304,312,57247,1,8,0:0:0:0:
232,88,57393,1,4,0:0:0:0:
32,216,57540,2,0,P|79:237|143:219,1,94.5000003604889,2|4,0:0|0:0,0:0:0:0:
296,168,57832,1,8,0:0:0:0:
101,54,57979,6,0,L|85:174,1,94.5000003604889,4|2,0:0|0:0,0:0:0:0:
308,261,58271,2,0,L|295:167,1,94.5000003604889,4|8,0:0|0:0,0:0:0:0:
72,240,58564,2,0,P|152:272|240:184,1,189.000000720978,4|4,0:0|0:0,0:0:0:0:
360,80,59003,1,8,0:0:0:0:
145,176,59149,6,0,L|153:376,1,189.000000720978,4|4,0:0|0:0,0:0:0:0:
56,152,59588,1,8,0:0:0:0:
256,280,59735,1,4,0:0:0:0:
32,360,59881,2,0,L|18:266,1,94.5000003604889,2|4,0:0|0:0,0:0:0:0:
120,88,60174,1,8,0:0:0:0:
377,277,60320,6,0,P|321:309|241:245,1,141.750000540733,6|0,0:0|2:0,0:0:0:0:
314,108,60613,6,0,P|346:164|282:244,1,141.750000540733,6|0,0:0|2:0,0:0:0:0:
149,171,60906,6,0,P|205:139|285:203,1,141.750000540733,6|0,0:0|2:0,0:0:0:0:
214,340,61198,6,0,P|181:284|246:204,1,141.750000540733,6|0,0:0|2:0,0:0:0:0:
391,215,61491,6,0,B|327:202|327:202|278:226|278:226|175:215,1,189.000000720978,6|2,0:0|0:0,0:0:0:0:
64,96,61930,2,8,B|106:75|106:75|176:80,1,94.5000003604889,8|4,0:0|0:0,0:0:0:0:
227,303,62223,2,0,B|180:300|180:300|122:260,1,94.5000003604889,2|4,0:0|0:0,0:0:0:0:
8,144,62515,1,8,0:0:0:0:
296,264,62662,6,0,L|304:376,1,94.5000003604889,4|2,0:0|0:0,0:0:0:0:
146,172,62954,2,0,L|152:77,1,94.5000003604889,4|8,0:0|0:0,0:0:0:0:
368,264,63247,2,0,L|376:376,1,94.5000003604889,4|2,0:0|0:0,0:0:0:0:
218,172,63539,2,0,L|224:77,1,94.5000003604889,4|8,0:0|0:1,0:0:0:0:
432,304,63832,6,0,P|360:337|296:249,1,189.000000720978,6|4,0:0|0:0,0:0:0:0:
400,48,64271,1,8,0:0:0:0:
368,264,64418,1,4,0:0:0:0:
184,120,64564,1,2,0:0:0:0:
416,176,64710,1,2,0:0:0:0:
240,336,64857,1,8,0:0:0:0:
338,77,65003,6,0,L|370:277,1,189.000000720978,6|2,0:0|0:0,0:0:0:0:
432,304,65369,1,2,0:0:0:0:
432,304,65442,1,8,0:0:0:0:
272,128,65588,1,2,0:0:0:0:
272,128,65662,1,2,0:0:0:0:
272,128,65735,1,8,0:0:0:0:
192,352,65881,1,4,0:0:0:0:
424,328,66028,1,2,0:0:0:0:
184,160,66174,6,0,P|128:144|48:248,1,189.000000720978,6|2,0:0|0:0,0:0:0:0:
280,216,66613,2,0,L|288:96,1,94.5000003604889,8|4,0:0|0:0,0:0:0:0:
135,232,66906,2,0,L|141:326,1,94.5000003604889,2|4,0:0|0:0,0:0:0:0:
328,336,67198,1,8,0:0:0:0:
184,160,67345,2,0,P|136:144|72:168,1,94.5000003604889,4|2,0:0|0:0,0:0:0:0:
312,248,67637,2,0,P|357:256|401:240,1,94.5000003604889,4|8,0:0|0:0,0:0:0:0:
216,88,67930,2,0,L|192:248,1,141.750000540733,4|0,0:0|2:0,0:0:0:0:
192,320,68223,1,4,0:0:0:0:
296,104,68369,1,8,0:0:0:0:
64,112,68515,6,0,B|32:200|32:200|64:320,1,189.000000720978,4|4,0:0|0:0,0:0:0:0:
280,216,68954,2,0,P|224:200|176:216,1,94.5000003604889,8|4,0:0|0:0,0:0:0:0:
6,352,69247,2,0,P|62:368|110:352,1,94.5000003604889,2|4,0:0|0:0,0:0:0:0:
272,296,69540,1,8,0:0:0:0:
189,56,69686,6,0,P|126:72|115:174,1,141.750000540733,6|0,0:0|2:0,0:0:0:0:
263,220,69979,6,0,P|246:157|144:146,1,141.750000540733,6|0,0:0|2:0,0:0:0:0:
102,292,70272,6,0,P|164:275|175:173,1,141.750000540733,6|0,0:0|2:0,0:0:0:0:
29,126,70564,6,0,P|45:188|147:199,1,141.750000540733,6|0,0:0|2:0,0:0:0:0:
115,32,70857,6,0,B|128:95|128:95|104:144|104:144|114:247,1,189.000000720978,6|0,0:0|2:0,0:0:0:0:
336,152,71296,2,0,B|288:144|288:144|224:160,1,94.5000003604889,8|4,0:0|0:0,0:0:0:0:
80,328,71588,1,2,0:0:0:0:
288,216,71735,1,4,1:0:0:0:
88,88,71881,1,8,0:0:0:0:
168,312,72028,6,0,L|272:304,1,94.5000003604889,4|2,0:0|0:0,0:0:0:0:
304,72,72320,2,0,L|200:64,1,94.5000003604889,4|8,0:0|0:0,0:0:0:0:
80,200,72613,1,4,0:0:0:0:
313,160,72759,2,0,P|321:112|297:64,1,94.5000003604889,2|2,0:0|0:0,0:0:0:0:
120,24,73052,1,8,0:0:0:0:
240,304,73198,6,0,L|248:112,1,189.000000720978,6|10,0:0|0:0,0:0:0:0:
392,360,73637,1,10,0:0:0:0:
176,176,73784,1,10,0:0:0:0:
456,184,73930,1,10,0:0:0:0:
224,344,74076,1,10,0:0:0:0:
320,72,74223,1,10,0:0:0:0:
392,360,74369,5,12,0:0:0:0:
392,360,74662,1,0,2:0:0:0:
240,184,74808,1,0,2:0:0:0:
472,136,74954,1,0,2:0:0:0:
256,256,75101,1,2,2:0:0:0:
217,256,75174,1,2,2:0:0:0:
183,236,75247,1,2,2:0:0:0:
164,202,75320,1,2,2:0:0:0:
165,164,75393,1,2,2:0:0:0:
185,130,75466,1,2,2:0:0:0:
220,112,75540,6,0,B|257:100|292:117|292:117|322:107|322:107|352:126|415:120,1,167.999994873047,6|0,0:0|2:0,0:0:0:0:
328,328,75979,2,0,P|277:323|248:288,1,83.9999974365235,8|0,0:0|2:0,0:0:0:0:
432,184,76271,1,2,0:0:0:0:
435,215,76344,1,0,2:0:0:0:
438,246,76417,1,2,0:0:0:0:
441,278,76490,1,0,2:0:0:0:
444,309,76563,1,8,0:0:0:0:
240,184,76710,6,0,P|232:136|336:80,1,167.999994873047,6|0,0:0|2:0,0:0:0:0:
281,282,77149,2,0,P|225:290|185:274,1,83.9999974365235,8|0,0:0|2:0,0:0:0:0:
56,128,77442,1,2,0:0:0:0:
82,111,77515,1,0,2:0:0:0:
113,103,77588,1,2,0:0:0:0:
144,106,77661,1,0,2:0:0:0:
173,118,77734,1,8,0:0:0:0:
122,351,77881,6,0,L|118:171,1,167.999994873047,6|0,0:0|2:0,0:0:0:0:
328,176,78320,2,0,B|288:184|288:184|224:168,1,83.9999974365235,8|0,0:0|2:0,0:0:0:0:
448,112,78613,1,2,0:0:0:0:
456,142,78686,1,0,2:0:0:0:
462,172,78759,1,2,0:0:0:0:
455,203,78832,1,0,2:0:0:0:
447,233,78905,1,8,0:0:0:0:
264,88,79052,6,0,B|328:64|328:64|440:88,1,167.999994873047,6|2,0:0|0:0,0:0:0:0:
504,48,79418,1,2,0:0:0:0:
504,48,79491,1,8,0:0:0:0:
488,256,79637,1,0,2:0:0:0:
312,144,79784,1,2,0:0:0:0:
312,144,79857,1,2,0:0:0:0:
312,144,79930,2,0,L|304:200,1,41.9999987182618,2|2,0:0|0:0,0:0:0:0:
360,280,80076,1,8,0:0:0:0:
176,128,80223,6,0,P|128:112|40:192,1,167.999994873047,6|0,0:0|2:0,0:0:0:0:
256,192,80662,2,0,L|272:96,1,83.9999974365235,8|0,0:0|2:0,0:0:0:0:
128,264,80954,1,2,0:0:0:0:
135,294,81027,1,0,2:0:0:0:
154,319,81100,1,2,0:0:0:0:
182,333,81173,1,0,2:0:0:0:
213,335,81246,1,8,0:0:0:0:
384,184,81393,6,0,L|200:240,1,167.999994873047,6|0,0:0|2:0,0:0:0:0:
432,248,81832,2,0,P|456:208|456:152,1,83.9999974365235,8|0,0:0|2:0,0:0:0:0:
229,107,82125,1,2,0:0:0:0:
227,138,82198,1,0,2:0:0:0:
225,169,82271,1,2,0:0:0:0:
224,201,82344,1,0,2:0:0:0:
222,232,82417,1,8,0:0:0:0:
400,64,82564,6,0,B|352:32|352:32|232:32,1,167.999994873047,6|0,0:0|2:0,0:0:0:0:
176,288,83003,2,0,P|208:304|272:280,1,83.9999974365235,8|0,0:0|2:0,0:0:0:0:
56,224,83296,1,2,0:0:0:0:
26,253,83369,1,8,0:0:0:0:
16,293,83442,1,8,0:0:0:0:
26,333,83515,1,8,0:0:0:0:
55,363,83588,1,8,0:0:0:0:
192,144,83735,6,0,B|144:136|144:136|104:152|104:152|40:144,1,140,6|2,0:0|0:0,0:0:0:0:
328,80,84174,2,0,L|336:176,1,70,12|8,0:0|0:0,0:0:0:0:
224,328,84467,1,2,0:0:0:0:
96,72,84613,1,8,0:0:0:0:
96,72,84686,1,8,0:0:0:0:
96,72,84759,1,8,0:0:0:0:
400,112,84906,5,6,0:0:0:0:
256,192,84979,12,0,86223,2:0:0:0:
