osu file format v14

[General]
AudioFilename: audio.mp3
AudioLeadIn: 0
PreviewTime: 132165
Countdown: 0
SampleSet: Soft
StackLeniency: 0.5
Mode: 0
LetterboxInBreaks: 0
EpilepsyWarning: 1
WidescreenStoryboard: 1

[Editor]
Bookmarks: 1490,268308
DistanceSpacing: 0.8
BeatDivisor: 4
GridSize: 4
TimelineZoom: 2.599999

[Metadata]
Title:Sakurairo Time Capsule
TitleUnicode:桜色タイムカプセル
Artist:Suzumu feat. GUMI
ArtistUnicode:スズム feat. GUMI
Creator:Kyuukai
Version:Present
Source:
Tags:kebyou ningen ケビョウニンゲン Feigning Illness Human SUZUMUSIC Cherry Blossom Colored megpoid Kei Nakamura 中村圭 Youkame Ame ga Yamu Mae ni On eighth day before the rain stops 八日目、雨が止む前に vocaloid rock japanese eimi fukada yaleufeu full version
BeatmapID:2540195
BeatmapSetID:1195834

[Difficulty]
HPDrainRate:5.7
CircleSize:3.4
OverallDifficulty:9
ApproachRate:9.2
SliderMultiplier:1.8
SliderTickRate:1

[Events]
//Background and Video events
0,0,"my dad is big shaq.jpg",0,0
//Break Periods
//Storyboard Layer 0 (Background)
Sprite,Background,Centre,"sb\ring.png",272,360 F,0,62195,63195,0.5,0 S,19,62195,63195,0.1,0.3 P,0,62195,63195,A
Sprite,Background,Centre,"sb\ring.png",376,280 F,0,62372,63372,0.5,0 S,19,62372,63372,0.1,0.3 P,0,62372,63372,A
Sprite,Background,Centre,"sb\ring.png",200,220 F,0,62548,63548,0.5,0 S,19,62548,63548,0.1,0.3 P,0,62548,63548,A
Sprite,Background,Centre,"sb\ring.png",400,288 F,0,62725,63725,0.5,0 S,19,62725,63725,0.1,0.3 P,0,62725,63725,A
Sprite,Background,Centre,"sb\ring.png",252,112 F,0,62901,63901,0.5,0 S,19,62901,63901,0.1,0.3 P,0,62901,63901,A
Sprite,Background,Centre,"sb\ring.png",176,392 F,0,63078,64078,0.5,0 S,19,63078,64078,0.1,0.3 P,0,63078,64078,A
Sprite,Background,Centre,"sb\ring.png",244,80 F,0,63254,64254,0.5,0 S,19,63254,64254,0.1,0.3 P,0,63254,64254,A
Sprite,Background,Centre,"sb\ring.png",367,397 F,0,63431,64431,0.5,0 S,19,63431,64431,0.1,0.3 P,0,63431,64431,A
Sprite,Background,Centre,"sb\ring.png",405,155 F,0,63607,64607,0.5,0 S,19,63607,64607,0.1,0.3 P,0,63607,64607,A
Sprite,Background,Centre,"sb\ring.png",372,56 F,0,74901,75901,0.5,0 S,19,74901,75901,0.1,0.3 P,0,74901,75901,A
Sprite,Background,Centre,"sb\ring.png",372,56 F,0,74989,75989,0.5,0 S,19,74989,75989,0.1,0.3 P,0,74989,75989,A
Sprite,Background,Centre,"sb\ring.png",371,56 F,0,75078,76078,0.5,0 S,19,75078,76078,0.1,0.3 P,0,75078,76078,A
Sprite,Background,Centre,"sb\ring.png",524,248 F,0,75254,76254,0.5,0 S,19,75254,76254,0.1,0.3 P,0,75254,76254,A
Sprite,Background,Centre,"sb\ring.png",204,292 F,0,75431,76431,0.5,0 S,19,75431,76431,0.1,0.3 P,0,75431,76431,A
Sprite,Background,Centre,"sb\ring.png",204,292 F,0,75784,76784,0.5,0 S,19,75784,76784,0.1,0.3 P,0,75784,76784,A
Sprite,Background,Centre,"sb\ring.png",371,56 F,0,75960,76960,0.5,0 S,19,75960,76960,0.1,0.3 P,0,75960,76960,A
Sprite,Background,Centre,"sb\ring.png",144,132 F,0,76137,77137,0.5,0 S,19,76137,77137,0.1,0.3 P,0,76137,77137,A
Sprite,Background,Centre,"sb\ring.png",144,132 F,0,76225,77225,0.5,0 S,19,76225,77225,0.1,0.3 P,0,76225,77225,A
Sprite,Background,Centre,"sb\ring.png",144,132 F,0,76313,77313,0.5,0 S,19,76313,77313,0.1,0.3 P,0,76313,77313,A
Sprite,Background,Centre,"sb\ring.png",184,240 F,0,84078,85078,0.5,0 S,19,84078,85078,0.1,0.3 P,0,84078,85078,A
Sprite,Background,Centre,"sb\ring.png",196,340 F,0,84784,85784,0.5,0 S,19,84784,85784,0.1,0.3 P,0,84784,85784,A
Sprite,Background,Centre,"sb\ring.png",196,340 F,0,85137,86137,0.5,0 S,19,85137,86137,0.1,0.3 P,0,85137,86137,A
Sprite,Background,Centre,"sb\ring.png",296,160 F,0,85313,86313,0.5,0 S,19,85313,86313,0.1,0.3 P,0,85313,86313,A
Sprite,Background,Centre,"sb\ring.png",320,424 F,0,85489,86489,0.5,0 S,19,85489,86489,0.1,0.3 P,0,85489,86489,A
Sprite,Background,Centre,"sb\ring.png",284,142 F,0,85665,86665,0.5,0 S,19,85665,86665,0.1,0.3 P,0,85665,86665,A
Sprite,Background,Centre,"sb\ring.png",512,248 F,0,85842,86842,0.5,0 S,19,85842,86842,0.1,0.3 P,0,85842,86842,A
Sprite,Background,Centre,"sb\ring.png",196,340 F,0,86019,87019,0.5,0 S,19,86019,87019,0.1,0.3 P,0,86019,87019,A
Sprite,Background,Centre,"sb\ring.png",428,80 F,0,86195,87195,0.5,0 S,19,86195,87195,0.1,0.3 P,0,86195,87195,A
Sprite,Background,Centre,"sb\ring.png",472,408 F,0,86372,87372,0.5,0 S,19,86372,87372,0.1,0.3 P,0,86372,87372,A
Sprite,Background,Centre,"sb\ring.png",199,86 F,0,129959,130959,0.5,0 S,19,129959,130959,0.1,0.3 P,0,129959,130959,A
Sprite,Background,Centre,"sb\ring.png",239,218 F,0,130136,131136,0.5,0 S,19,130136,131136,0.1,0.3 P,0,130136,131136,A
Sprite,Background,Centre,"sb\ring.png",355,146 F,0,130312,131312,0.5,0 S,19,130312,131312,0.1,0.3 P,0,130312,131312,A
Sprite,Background,Centre,"sb\ring.png",279,350 F,0,130489,131489,0.5,0 S,19,130489,131489,0.1,0.3 P,0,130489,131489,A
Sprite,Background,Centre,"sb\ring.png",199,86 F,0,130665,131665,0.5,0 S,19,130665,131665,0.1,0.3 P,0,130665,131665,A
Sprite,Background,Centre,"sb\ring.png",483,194 F,0,130842,131842,0.5,0 S,19,130842,131842,0.1,0.3 P,0,130842,131842,A
Sprite,Background,Centre,"sb\ring.png",183,306 F,0,131018,132018,0.5,0 S,19,131018,132018,0.1,0.3 P,0,131018,132018,A
Sprite,Background,Centre,"sb\ring.png",451,86 F,0,131195,132195,0.5,0 S,19,131195,132195,0.1,0.3 P,0,131195,132195,A
Sprite,Background,Centre,"sb\ring.png",375,394 F,0,131371,132371,0.5,0 S,19,131371,132371,0.1,0.3 P,0,131371,132371,A
Sprite,Background,Centre,"sb\ring.png",336,180 F,0,142665,143665,0.5,0 S,19,142665,143665,0.1,0.3 P,0,142665,143665,A
Sprite,Background,Centre,"sb\ring.png",336,180 F,0,142754,143754,0.5,0 S,19,142754,143754,0.1,0.3 P,0,142754,143754,A
Sprite,Background,Centre,"sb\ring.png",336,180 F,0,142842,143842,0.5,0 S,19,142842,143842,0.1,0.3 P,0,142842,143842,A
Sprite,Background,Centre,"sb\ring.png",529,56 F,0,143018,144018,0.5,0 S,19,143018,144018,0.1,0.3 P,0,143018,144018,A
Sprite,Background,Centre,"sb\ring.png",564,380 F,0,143195,144195,0.5,0 S,19,143195,144195,0.1,0.3 P,0,143195,144195,A
Sprite,Background,Centre,"sb\ring.png",564,380 F,0,143548,144548,0.5,0 S,19,143548,144548,0.1,0.3 P,0,143548,144548,A
Sprite,Background,Centre,"sb\ring.png",280,440 F,0,143724,144724,0.5,0 S,19,143724,144724,0.1,0.3 P,0,143724,144724,A
Sprite,Background,Centre,"sb\ring.png",400,189 F,0,143901,144901,0.5,0 S,19,143901,144901,0.1,0.3 P,0,143901,144901,A
Sprite,Background,Centre,"sb\ring.png",400,189 F,0,143989,144989,0.5,0 S,19,143989,144989,0.1,0.3 P,0,143989,144989,A
Sprite,Background,Centre,"sb\ring.png",400,189 F,0,144077,145077,0.5,0 S,19,144077,145077,0.1,0.3 P,0,144077,145077,A
Sprite,Background,Centre,"sb\ring.png",392,360 F,0,151842,152842,0.5,0 S,19,151842,152842,0.1,0.3 P,0,151842,152842,A
Sprite,Background,Centre,"sb\ring.png",288,376 F,0,152548,153548,0.5,0 S,19,152548,153548,0.1,0.3 P,0,152548,153548,A
Sprite,Background,Centre,"sb\ring.png",288,376 F,0,152901,153901,0.5,0 S,19,152901,153901,0.1,0.3 P,0,152901,153901,A
Sprite,Background,Centre,"sb\ring.png",448,236 F,0,153077,154077,0.5,0 S,19,153077,154077,0.1,0.3 P,0,153077,154077,A
Sprite,Background,Centre,"sb\ring.png",320,104 F,0,153254,154254,0.5,0 S,19,153254,154254,0.1,0.3 P,0,153254,154254,A
Sprite,Background,Centre,"sb\ring.png",392,360 F,0,153430,154430,0.5,0 S,19,153430,154430,0.1,0.3 P,0,153430,154430,A
Sprite,Background,Centre,"sb\ring.png",512,104 F,0,153606,154606,0.5,0 S,19,153606,154606,0.1,0.3 P,0,153606,154606,A
Sprite,Background,Centre,"sb\ring.png",232,288 F,0,153783,154783,0.5,0 S,19,153783,154783,0.1,0.3 P,0,153783,154783,A
Sprite,Background,Centre,"sb\ring.png",416,56 F,0,153959,154959,0.5,0 S,19,153959,154959,0.1,0.3 P,0,153959,154959,A
Sprite,Background,Centre,"sb\ring.png",516,412 F,0,154136,155136,0.5,0 S,19,154136,155136,0.1,0.3 P,0,154136,155136,A
Sprite,Background,Centre,"sb\ring.png",96,116 F,0,227370,228370,0.5,0 S,19,227370,228370,0.1,0.3 P,0,227370,228370,A
Sprite,Background,Centre,"sb\ring.png",96,116 F,0,227458,228458,0.5,0 S,19,227458,228458,0.1,0.3 P,0,227458,228458,A
Sprite,Background,Centre,"sb\ring.png",95,115 F,0,227546,228546,0.5,0 S,19,227546,228546,0.1,0.3 P,0,227546,228546,A
Sprite,Background,Centre,"sb\ring.png",285,398 F,0,227723,228723,0.5,0 S,19,227723,228723,0.1,0.3 P,0,227723,228723,A
Sprite,Background,Centre,"sb\ring.png",336,68 F,0,227899,228899,0.5,0 S,19,227899,228899,0.1,0.3 P,0,227899,228899,A
Sprite,Background,Centre,"sb\ring.png",336,68 F,0,228252,229252,0.5,0 S,19,228252,229252,0.1,0.3 P,0,228252,229252,A
Sprite,Background,Centre,"sb\ring.png",285,398 F,0,228429,229429,0.5,0 S,19,228429,229429,0.1,0.3 P,0,228429,229429,A
Sprite,Background,Centre,"sb\ring.png",106,182 F,0,228605,229605,0.5,0 S,19,228605,229605,0.1,0.3 P,0,228605,229605,A
Sprite,Background,Centre,"sb\ring.png",106,182 F,0,228693,229693,0.5,0 S,19,228693,229693,0.1,0.3 P,0,228693,229693,A
Sprite,Background,Centre,"sb\ring.png",106,182 F,0,228781,229781,0.5,0 S,19,228781,229781,0.1,0.3 P,0,228781,229781,A
Sprite,Background,Centre,"sb\ring.png",456,228 F,0,236546,237546,0.5,0 S,19,236546,237546,0.1,0.3 P,0,236546,237546,A
Sprite,Background,Centre,"sb\ring.png",440,112 F,0,237252,238252,0.5,0 S,19,237252,238252,0.1,0.3 P,0,237252,238252,A
Sprite,Background,Centre,"sb\ring.png",440,112 F,0,237605,238605,0.5,0 S,19,237605,238605,0.1,0.3 P,0,237605,238605,A
Sprite,Background,Centre,"sb\ring.png",320,320 F,0,237781,238781,0.5,0 S,19,237781,238781,0.1,0.3 P,0,237781,238781,A
Sprite,Background,Centre,"sb\ring.png",300,136 F,0,237958,238958,0.5,0 S,19,237958,238958,0.1,0.3 P,0,237958,238958,A
Sprite,Background,Centre,"sb\ring.png",412,424 F,0,238134,239134,0.5,0 S,19,238134,239134,0.1,0.3 P,0,238134,239134,A
Sprite,Background,Centre,"sb\ring.png",164,320 F,0,238311,239311,0.5,0 S,19,238311,239311,0.1,0.3 P,0,238311,239311,A
Sprite,Background,Centre,"sb\ring.png",532,212 F,0,238487,239487,0.5,0 S,19,238487,239487,0.1,0.3 P,0,238487,239487,A
Sprite,Background,Centre,"sb\ring.png",164,108 F,0,238664,239664,0.5,0 S,19,238664,239664,0.1,0.3 P,0,238664,239664,A
Sprite,Background,Centre,"sb\ring.png",560,368 F,0,238840,239840,0.5,0 S,19,238840,239840,0.1,0.3 P,0,238840,239840,A
//Storyboard Layer 1 (Fail)
//Storyboard Layer 2 (Pass)
//Storyboard Layer 3 (Foreground)
//Storyboard Layer 4 (Overlay)
//Storyboard Sound Samples

[TimingPoints]
1490,352.941176470588,4,2,1,40,1,0
1490,-166.666666666667,4,2,1,40,0,0
15166,-166.666666666667,4,2,1,5,0,0
15254,-125,4,2,1,40,0,0
15519,-125,4,2,1,5,0,0
15607,-100,4,2,1,60,0,0
26901,-250,4,2,1,40,0,0
29725,-166.666666666667,4,2,1,40,0,0
31137,-125,4,2,1,50,0,0
42431,-111.111111111111,4,2,1,60,0,0
53725,-142.857142857143,4,2,1,50,0,0
59372,-500,4,2,1,40,0,0
59989,-500,4,2,1,5,0,0
60078,-333.333333333333,4,2,1,40,0,0
60695,-333.333333333333,4,2,1,5,0,0
60784,-250,4,2,1,40,0,0
61401,-250,4,2,1,5,0,0
61489,-200,4,2,1,70,0,0
62107,-200,4,2,1,5,0,0
62195,-71.4285714285714,4,2,1,70,0,0
63607,-200,4,2,1,70,0,0
64489,-200,4,2,1,30,0,0
65019,-90.9090909090909,4,2,1,80,0,1
70666,-90.9090909090909,4,2,1,80,0,0
71019,-90.9090909090909,4,2,1,80,0,1
72078,-90.9090909090909,4,2,1,80,0,0
72431,-90.9090909090909,4,2,1,80,0,1
73313,-90.9090909090909,4,2,1,80,0,0
73489,-90.9090909090909,4,2,1,80,0,1
74901,-66.6666666666667,4,2,1,80,0,0
75431,-66.6666666666667,4,2,1,80,0,1
75519,-66.6666666666667,4,2,1,80,0,0
75695,-66.6666666666667,4,2,1,5,0,0
75784,-500,4,2,1,80,0,1
75872,-500,4,2,1,80,0,0
76313,-90.9090909090909,4,2,1,80,0,1
81960,-200,4,2,1,40,0,0
83372,-166.666666666667,4,2,1,60,0,0
84078,-100,4,2,1,80,0,0
84784,-76.9230769230769,4,2,1,80,0,1
86372,-76.9230769230769,4,2,1,80,0,0
86901,-200,4,2,1,80,0,0
87254,-133.333333333333,4,2,1,80,0,0
87607,-100,4,2,1,60,0,0
98901,-200,4,2,1,40,0,0
100313,-166.666666666667,4,2,1,50,0,0
101019,-133.333333333333,4,2,1,50,0,0
101725,-111.111111111111,4,2,1,60,0,0
108784,-100,4,2,1,50,0,0
109489,340.909090909091,4,2,1,40,1,0
109489,-125,4,2,1,40,0,0
110170,353.460972017673,4,2,1,50,1,0
110170,-111.111111111111,4,2,1,50,0,0
110523,357.142857142857,4,2,1,60,1,0
110523,-111.111111111111,4,2,1,60,0,0
111607,352.941176470588,4,2,1,60,1,0
111607,-111.111111111111,4,2,1,60,0,0
121489,-142.857142857143,4,2,1,50,0,0
127136,-500,4,2,1,30,0,0
127754,-500,4,2,1,5,0,0
127842,-333.333333333333,4,2,1,40,0,0
128459,-333.333333333333,4,2,1,5,0,0
128548,-250,4,2,1,50,0,0
129165,-250,4,2,1,5,0,0
129253,-200,4,2,1,60,0,0
129871,-200,4,2,1,5,0,0
129959,-71.4285714285714,4,2,1,70,0,0
131724,-100,4,2,1,70,0,0
132077,-100,4,2,1,70,0,0
132254,-66.6666666666667,4,2,1,70,0,0
132430,-66.6666666666667,4,2,1,70,0,0
132783,-90.9090909090909,4,2,1,80,0,1
138430,-90.9090909090909,4,2,1,80,0,0
138783,-90.9090909090909,4,2,1,80,0,1
139842,-90.9090909090909,4,2,1,80,0,0
140195,-90.9090909090909,4,2,1,80,0,1
141077,-90.9090909090909,4,2,1,80,0,0
141254,-90.9090909090909,4,2,1,80,0,1
142665,-66.6666666666667,4,2,1,80,0,0
143195,-66.6666666666667,4,2,1,80,0,1
143283,-66.6666666666667,4,2,1,80,0,0
143459,-66.6666666666667,4,2,1,5,0,0
143548,-500,4,2,1,80,0,1
143636,-500,4,2,1,80,0,0
144077,-90.9090909090909,4,2,1,80,0,1
149724,-200,4,2,1,40,0,0
151136,-166.666666666667,4,2,1,60,0,0
151842,-100,4,2,1,80,0,0
152548,-76.9230769230769,4,2,1,80,0,1
154136,-76.9230769230769,4,2,1,80,0,0
154312,-333.333333333333,4,2,1,80,0,0
155283,-333.333333333333,4,2,1,5,0,0
155371,-250,4,2,1,40,0,0
166665,-166.666666666667,4,2,1,40,0,0
172312,-333.333333333333,4,2,1,40,0,0
175136,-111.111111111111,4,2,1,60,0,0
176548,-99.9999999999999,4,2,1,65,0,0
177077,-83.3333333333333,4,2,1,65,0,0
177959,-83.3333333333333,4,2,1,70,0,0
179371,344.827586206897,4,2,1,70,1,0
179371,-83.3333333333333,4,2,1,70,0,0
180233,370.37037037037,4,2,1,70,1,0
180233,-83.3333333333333,4,2,1,70,0,0
180418,370.37037037037,4,2,1,70,1,0
180418,-83.3333333333333,4,2,1,70,0,0
180788,348.837209302326,4,2,1,70,1,0
180788,-83.3333333333333,4,2,1,70,0,0
181136,333.333333333333,4,2,1,70,1,0
181136,-83.3333333333333,4,2,1,70,0,0
181469,348.837209302326,4,2,1,70,1,0
181469,-83.3333333333333,4,2,1,70,0,0
181817,375,4,2,1,70,1,0
181817,-83.3333333333333,4,2,1,70,0,0
182192,357.142857142857,4,2,1,70,1,0
182192,-83.3333333333333,4,2,1,70,0,0
182549,344.827586206897,4,2,1,70,1,0
182549,-83.3333333333333,4,2,1,70,0,0
183238,357.142857142857,4,2,1,70,1,0
183238,-83.3333333333333,4,2,1,70,0,0
183595,352.941176470588,4,2,1,70,1,0
183595,-71.4285714285714,4,2,1,80,0,0
183947,-50,4,2,1,70,0,0
184124,340.909090909091,4,2,1,70,1,0
184124,-71.4285714285714,4,2,1,80,0,0
184464,352.941176470588,4,2,1,80,1,0
184464,-71.4285714285714,4,2,1,80,0,0
184993,352.941176470588,4,2,1,80,1,0
184993,-71.4285714285714,4,2,1,80,0,0
185345,-71.4285714285714,4,2,1,70,0,0
185522,-71.4285714285714,4,2,1,80,0,0
185698,361.44578313253,4,2,1,80,1,0
185878,-71.4285714285714,4,2,1,80,0,0
185969,315.789473684211,4,2,1,80,1,0
186127,285.714285714286,4,2,1,80,1,0
186412,344.827586206897,4,2,1,80,1,0
186412,-66.6666666666667,4,2,1,80,0,0
186670,337.078651685393,4,2,1,80,1,0
186922,315.789473684211,4,2,1,80,1,0
187158,322.58064516129,4,2,1,80,1,0
187158,-66.6666666666667,4,2,1,80,0,0
187883,-333.333333333333,4,2,1,70,0,0
189174,-333.333333333333,4,2,1,5,0,0
189254,352.941176470588,4,2,1,40,1,0
189254,-166.666666666667,4,2,1,40,0,0
197724,-333.333333333334,4,2,1,40,0,0
200548,-142.857142857143,4,2,1,50,0,0
206195,368.098159509202,4,2,1,30,1,0
206195,-200,4,2,1,30,0,0
206931,342.857142857143,4,2,1,30,1,0
206931,-333.333333333333,4,2,1,30,0,0
207531,-333.333333333333,4,2,1,5,0,0
207616,361.44578313253,4,2,1,30,1,0
207616,-250.000000000001,4,2,1,30,0,0
208248,-250.000000000001,4,2,1,5,0,0
208338,-200,4,2,1,30,0,0
208971,-200,4,2,1,5,0,0
209061,-333.333333333334,4,2,1,40,0,0
209784,-333.333333333334,4,2,1,5,0,0
210077,352.941176470588,4,2,1,40,1,0
210077,-200,4,2,1,40,0,0
210429,352.941176470588,4,2,1,40,1,0
210429,-166.666666666667,4,2,1,40,0,0
211134,-250,4,2,1,60,0,0
211752,-250,4,2,1,5,0,0
211840,-100,4,2,1,70,0,0
213605,-125,4,2,1,50,0,0
213958,-100,4,2,1,60,0,0
214663,333.333333333333,4,2,1,80,1,0
214663,-66.6666666666667,4,2,1,80,0,0
214996,375,4,2,1,80,1,0
214996,-66.6666666666667,4,2,1,80,0,0
215277,-66.6666666666667,4,2,1,5,0,0
215369,352.941176470588,4,2,1,80,1,0
215369,-50,4,2,1,80,0,0
216074,348.837209302326,4,2,1,80,1,0
216074,-200,4,2,1,80,0,0
216858,-200,4,2,1,5,0,0
216946,-500,4,2,1,30,0,0
217469,370.37037037037,4,2,1,80,1,0
217469,-90.9090909090909,4,2,1,80,0,1
217839,352.941176470588,4,2,1,80,1,1
218015,352.941176470588,4,2,1,80,1,1
218015,-90.9090909090909,4,2,1,80,0,1
218897,352.941176470588,4,2,1,80,1,1
218897,-90.9090909090909,4,2,1,80,0,1
222603,333.333333333333,4,2,1,80,1,1
222603,-90.9090909090909,4,2,1,80,0,1
222769,352.941176470588,4,2,1,80,1,1
222945,375,4,2,1,80,1,1
223132,352.941176470588,4,2,1,80,1,0
223132,-90.9090909090909,4,2,1,80,0,0
223484,-90.9090909090909,4,2,1,80,0,1
224543,-90.9090909090909,4,2,1,80,0,0
224896,-90.9090909090909,4,2,1,80,0,1
225779,-90.9090909090909,4,2,1,80,0,0
225955,-90.9090909090909,4,2,1,80,0,1
227367,-66.6666666666667,4,2,1,80,0,0
227896,-66.6666666666667,4,2,1,80,0,1
227984,-66.6666666666667,4,2,1,80,0,0
228161,-66.6666666666667,4,2,1,5,0,0
228249,-500,4,2,1,80,0,1
228337,-500,4,2,1,80,0,0
228779,-66.6666666666667,4,2,1,80,0,0
229132,-71.4285714285714,4,2,1,80,0,1
234426,-200,4,2,1,60,0,0
235837,-166.666666666667,4,2,1,80,0,0
236543,-100,4,2,1,80,0,0
237249,-71.4285714285714,4,2,1,80,0,1
238837,-71.4285714285714,4,2,1,80,0,0
239367,-1000,4,2,1,20,0,0
241132,-125,4,2,1,40,0,0
241396,-125,4,2,1,40,0,0
241484,-100,4,2,1,60,0,0
252779,-200,4,2,1,60,0,0
254190,-166.666666666667,4,2,1,60,0,0
254896,-100,4,2,1,70,0,0
255602,-71.4285714285714,4,2,1,70,0,0
258073,-500,4,2,1,20,0,0
259661,-500,4,2,1,5,0,0
259837,-666.666666666667,4,2,1,70,0,0
268308,-666.666666666667,4,2,1,5,0,0

[Colours]
Combo1 : 207,207,207
Combo2 : 255,128,192
Combo3 : 255,128,128
Combo4 : 66,160,255

[HitObjects]
148,4,1490,5,2,0:0:0:0:
68,68,1842,1,0,0:0:0:0:
68,68,2019,2,0,L|74:121,1,53.9999983520508,2|0,0:0|0:0,0:0:0:0:
168,164,2372,2,0,L|161:217,1,53.9999983520508,2|0,0:0|0:0,0:0:0:0:
60,300,2725,1,2,0:0:0:0:
60,300,2901,6,0,B|128:292|100:328|188:316,1,107.999996704102,2|2,0:0|0:0,0:0:0:0:
256,364,3431,2,0,P|268:308|236:244,1,107.999996704102,2|2,0:0|0:0,0:0:0:0:
161,217,3960,1,2,0:0:0:0:
161,217,4137,1,2,0:0:0:0:
251,261,4313,6,0,P|307:273|371:241,1,107.999996704102,2|2,0:0|0:0,0:0:0:0:
347,76,5019,2,0,P|310:115|300:168,1,107.999996704102,2|2,0:0|0:0,0:0:0:0:
448,302,5725,6,0,P|454:223|403:163,1,161.999995056153,2|2,0:0|0:0,0:0:0:0:
403,163,6431,1,2,0:0:0:0:
256,64,7137,5,2,0:0:0:0:
44,140,7489,1,0,0:0:0:0:
120,52,7666,1,2,0:0:0:0:
119,51,7842,2,0,P|131:75|139:101,1,53.9999983520508,2|0,0:0|0:0,0:0:0:0:
45,140,8195,1,2,0:0:0:0:
139,101,8372,1,2,0:0:0:0:
24,189,8548,6,0,P|32:164|45:140,1,53.9999983520508,2|0,0:0|0:0,0:0:0:0:
108,243,8901,1,2,0:0:0:0:
108,243,9078,2,0,P|71:282|18:291,1,107.999996704102,2|2,0:0|0:0,0:0:0:0:
18,291,9784,1,2,0:0:0:0:
108,243,9960,6,0,P|160:251|197:290,1,107.999996704102,2|2,0:0|0:0,0:0:0:0:
280,352,10489,1,0,0:0:0:0:
280,352,10666,2,0,P|284:320|304:292,1,53.9999983520508,2|0,0:0|0:0,0:0:0:0:
384,248,11019,2,0,P|380:216|360:188,1,53.9999983520508,2|0,0:0|0:0,0:0:0:0:
312,112,11372,6,0,L|320:52,2,53.9999983520508,2|0|2,0:0|0:0|0:0,0:0:0:0:
232,176,11901,1,0,0:0:0:0:
232,176,12078,2,0,L|239:229,2,53.9999983520508,2|0|2,0:0|0:0|0:0,0:0:0:0:
216,76,12607,1,0,0:0:0:0:
216,76,12784,5,2,0:0:0:0:
216,76,13137,5,2,0:0:0:0:
232,176,13313,1,0,0:0:0:0:
312,112,13489,1,2,0:0:0:0:
136,140,13666,5,2,0:0:0:0:
328,212,13842,1,2,0:0:0:0:
296,8,14019,1,2,0:0:0:0:
232,176,14195,5,2,0:0:0:0:
452,140,14372,1,2,0:0:0:0:
296,8,14548,1,2,0:0:0:0:
336,256,14725,1,2,0:0:0:0:
439,59,14901,6,0,L|452:140,1,80.9999975280763,2|0,0:0|0:0,0:0:0:0:
511,215,15254,6,0,P|466:241|415:230,1,108,4|0,0:3|0:0,0:0:0:0:
356,152,15607,6,0,B|248:136|284:212|160:184,1,180,4|8,0:0|0:0,0:0:0:0:
36,160,16137,1,0,0:0:0:0:
109,26,16313,2,0,B|133:62|133:62|124:108,1,90,8|8,0:1|0:1,0:0:0:0:
199,270,16666,2,0,B|175:234|175:234|185:189,1,90,8|0,0:0|0:0,0:0:0:0:
320,38,17019,6,0,L|284:216,1,180,10|8,0:1|0:0,0:0:0:0:
252,356,17548,1,0,0:0:0:0:
424,299,17725,2,0,B|384:283|384:283|340:300,1,90,8|8,0:1|0:1,0:0:0:0:
115,270,18078,2,0,B|155:286|155:286|199:269,1,90,8|0,0:0|0:0,0:0:0:0:
284,215,18342,1,0,0:0:0:0:
284,215,18431,6,0,L|248:38,1,180,10|8,0:1|0:0,0:0:0:0:
140,88,18960,1,0,0:0:0:0:
388,164,19137,1,8,0:1:0:0:
364,0,19313,1,8,0:1:0:0:
264,127,19489,1,8,0:0:0:0:
468,84,19666,1,0,0:0:0:0:
468,84,19754,1,0,0:0:0:0:
468,84,19842,6,0,B|488:180|488:180|460:228,1,135,10|0,0:1|0:0,0:0:0:0:
380,276,20195,2,0,L|362:187,1,90,8|8,0:0|0:1,0:0:0:0:
348,92,20460,1,8,0:1:0:0:
348,92,20548,1,8,0:0:0:0:
469,211,20725,1,8,0:1:0:0:
291,344,20901,2,0,L|264:212,1,135,8|0,0:0|0:0,0:0:0:0:
116,88,21254,6,0,B|128:147|128:147|108:192|108:192|119:261,1,180,4|8,0:0|0:0,0:0:0:0:
136,364,21784,1,0,0:0:0:0:
4,192,21960,1,8,0:1:0:0:
216,112,22137,1,8,0:1:0:0:
20,316,22313,1,8,0:0:0:0:
16,64,22489,1,0,0:0:0:0:
204,216,22666,6,0,B|320:232|264:160|380:172,1,180,10|8,0:1|0:0,0:0:0:0:
488,192,23195,1,0,0:0:0:0:
392,32,23372,1,8,0:1:0:0:
488,192,23548,1,8,0:1:0:0:
358,261,23725,2,0,L|370:171,1,90,8|0,0:0|0:0,0:0:0:0:
160,372,24078,6,0,L|133:193,1,180,4|8,0:0|0:0,0:0:0:0:
108,44,24607,1,0,0:0:0:0:
28,108,24784,2,0,L|15:197,1,90,8|8,0:1|0:1,0:0:0:0:
264,277,25137,2,0,L|252:188,1,90,8|0,0:0|0:0,0:0:0:0:
224,4,25489,5,8,0:1:0:0:
133,193,25666,1,8,0:0:0:0:
256,0,25842,1,8,0:0:0:0:
28,108,26019,1,8,0:1:0:0:
252,188,26195,2,0,B|296:200|296:200|338:187,1,90,8|8,0:0|0:0,0:0:0:0:
420,160,26460,1,8,0:0:0:0:
420,160,26548,2,0,L|412:108,1,45,8|8,0:0|0:3,0:0:0:0:
502,47,26725,2,0,L|496:92,1,45,8|8,0:3|0:3,0:0:0:0:
472,272,26901,5,4,0:0:0:0:
472,272,27431,1,0,0:0:0:0:
408,352,27607,2,0,L|300:336,1,108,2|0,0:0|0:0,0:0:0:0:
129,271,28313,2,0,L|236:256,1,108,2|0,0:0|0:0,0:0:0:0:
325,168,29019,2,0,L|336:240,1,72,2|0,0:0|0:0,0:0:0:0:
336,240,29725,6,0,L|390:232,1,53.9999983520508,2|0,0:0|0:0,0:0:0:0:
444,101,30078,2,0,L|424:152,1,53.9999983520508,2|0,0:0|0:0,0:0:0:0:
507,263,30431,2,0,L|474:221,1,53.9999983520508,2|0,0:0|0:0,0:0:0:0:
323,159,30784,2,0,L|335:239,1,80.9999975280763,4|8,0:3|0:3,0:0:0:0:
284,308,31137,6,0,P|204:328|148:276,1,144,4|10,0:0|0:1,0:0:0:0:
20,208,31666,1,0,0:0:0:0:
119,144,31842,2,0,L|112:216,1,72,10|0,0:1|0:0,0:0:0:0:
12,279,32195,2,0,L|19:207,1,72,10|0,0:1|0:0,0:0:0:0:
216,116,32548,5,10,0:1:0:0:
126,72,32725,2,0,L|118:143,1,72,0|10,0:0|0:1,0:0:0:0:
208,224,33078,2,0,B|300:224|260:264|344:264,1,144,0|0,0:0|0:0,0:0:0:0:
424,328,33607,1,10,0:1:0:0:
424,328,33784,1,0,0:0:0:0:
436,224,33960,6,0,L|452:76,1,144,10|10,0:1|0:1,0:0:0:0:
320,0,34489,1,0,0:0:0:0:
256,80,34666,2,0,L|263:151,1,72,10|0,0:1|0:0,0:0:0:0:
352,188,35019,2,0,L|359:116,1,72,10|0,0:1|0:0,0:0:0:0:
276,256,35372,5,10,0:1:0:0:
276,256,35548,2,0,P|232:264|192:244,1,72,2|10,0:0|0:1,0:0:0:0:
60,184,35901,1,2,0:0:0:0:
125,107,36078,2,0,P|150:132|159:167,1,72,10|0,0:1|0:0,0:0:0:0:
96,296,36431,1,10,0:1:0:0:
60,184,36607,1,2,0:0:0:0:
207,255,36784,6,0,P|248:212|352:208,1,144,10|10,0:1|0:1,0:0:0:0:
447,292,37313,2,0,B|355:280|395:324|307:316,1,144,0|0,0:0|0:0,0:0:0:0:
207,255,37842,1,10,0:1:0:0:
308,316,38019,1,0,0:0:0:0:
188,244,38195,6,0,L|204:88,1,144,10|10,0:1|0:1,0:0:0:0:
356,24,38725,1,0,0:0:0:0:
376,123,38901,2,0,P|340:125|306:112,1,72,10|0,0:1|0:0,0:0:0:0:
184,0,39254,2,0,P|219:-1|253:11,1,72,10|0,0:1|0:0,0:0:0:0:
84,168,39607,6,0,L|69:24,1,144,10|10,0:1|0:1,0:0:0:0:
202,100,40137,1,0,0:0:0:0:
202,100,40313,2,0,L|187:243,1,144,10|10,0:1|0:1,0:0:0:0:
187,243,41019,5,10,0:1:0:0:
84,168,41195,1,2,0:0:0:0:
120,296,41372,5,10,0:1:0:0:
256,192,41548,1,2,0:0:0:0:
180,116,41725,1,10,0:0:0:0:
276,292,41901,5,8,0:0:0:0:
312,288,41989,1,8,0:0:0:0:
348,284,42078,1,8,0:0:0:0:
384,280,42166,1,4,0:3:0:0:
420,276,42254,2,0,L|424:228,1,36,4|4,0:3|0:3,0:0:0:0:
504,123,42431,6,0,P|431:152|364:112,1,161.999995056153,4|8,0:0|0:0,0:0:0:0:
208,164,42960,1,0,0:0:0:0:
268,79,43137,2,0,P|267:40|243:8,1,80.9999975280763,8|8,0:1|0:1,0:0:0:0:
84,88,43489,2,0,L|163:70,1,80.9999975280763,8|0,0:0|0:0,0:0:0:0:
4,256,43842,5,10,0:1:0:0:
84,192,44019,2,0,L|202:217,1,121.499996292114,0|0,0:0|0:0,0:0:0:0:
255,288,44372,2,0,P|223:311|184:306,1,80.9999975280763,10|0,0:1|0:0,0:0:0:0:
304,196,44725,1,0,0:0:0:0:
236,120,44901,1,8,0:0:0:0:
236,120,45078,1,0,0:0:0:0:
360,284,45254,6,0,P|440:300|492:224,1,161.999995056153,10|8,0:1|0:0,0:0:0:0:
326,55,45784,1,0,0:0:0:0:
426,27,45960,2,0,B|434:131|390:87|402:203,1,161.999995056153,8|8,0:1|0:0,0:0:0:0:
499,163,46489,1,0,0:0:0:0:
326,55,46666,5,8,0:1:0:0:
499,163,46842,2,0,P|503:202|486:239,1,80.9999975280763,2|8,0:0|0:0,0:0:0:0:
416,336,47195,1,2,0:0:0:0:
300,204,47372,1,8,0:1:0:0:
400,184,47548,1,8,0:1:0:0:
296,324,47725,2,0,B|224:328|248:292|152:304,1,121.499996292114,8|0,0:0|0:0,0:0:0:0:
104,364,48078,6,0,B|80:316|80:316|100:208,1,161.999995056153,10|8,0:1|0:0,0:0:0:0:
20,100,48607,2,0,B|124:108|80:64|196:76,1,161.999995056153,0|8,0:0|0:1,0:0:0:0:
272,148,49137,1,8,0:0:0:0:
177,74,49313,1,0,0:0:0:0:
20,200,49489,6,0,B|124:192|80:236|196:224,1,161.999995056153,10|8,0:1|0:0,0:0:0:0:
272,148,50019,1,0,0:0:0:0:
236,328,50195,1,8,0:1:0:0:
177,225,50372,1,8,0:1:0:0:
356,328,50548,1,8,0:0:0:0:
132,384,50725,1,0,0:0:0:0:
284,252,50901,6,0,P|376:228|452:284,1,161.999995056153,10|8,0:1|0:0,0:0:0:0:
232,340,51431,1,0,0:0:0:0:
180,251,51607,2,0,P|187:212|212:180,1,80.9999975280763,8|0,0:1|0:0,0:0:0:0:
279,80,51960,2,0,P|304:112|312:152,1,80.9999975280763,8|0,0:0|0:0,0:0:0:0:
160,72,52313,5,10,0:1:0:0:
212,180,52489,1,0,0:0:0:0:
328,4,52666,1,8,0:0:0:0:
336,252,52842,5,8,0:1:0:0:
336,252,52931,1,8,0:1:0:0:
336,252,53019,1,8,0:0:0:0:
160,72,53195,1,8,0:3:0:0:
412,124,53372,1,4,0:3:0:0:
212,180,53548,1,4,0:3:0:0:
304,24,53725,6,0,L|448:48,1,125.999996154785,4|0,0:0|0:0,0:0:0:0:
512,112,54254,1,8,0:1:0:0:
512,112,54431,2,0,P|464:76|448:176,1,188.999994232178,8|8,0:0|0:1,0:0:0:0:
500,239,55137,1,0,0:0:0:0:
383,258,55313,2,0,P|444:267|499:239,1,125.999996154785,8|8,0:0|0:1,0:0:0:0:
429,165,55842,5,10,0:0:0:0:
456,336,56019,1,2,0:0:0:0:
356,228,56195,1,2,0:0:0:0:
332,328,56372,1,2,0:0:0:0:
220,228,56548,6,0,B|160:208|160:208|100:226,1,125.999996154785,8|0,0:1|0:0,0:0:0:0:
40,332,57078,1,8,0:1:0:0:
40,332,57166,1,8,0:1:0:0:
40,332,57254,2,0,B|100:352|100:352|159:333,1,125.999996154785,8|0,0:0|0:0,0:0:0:0:
100,226,57784,1,8,0:1:0:0:
159,333,57960,1,8,0:1:0:0:
100,226,58137,2,0,L|112:84,1,125.999996154785,8|4,0:0|0:3,0:0:0:0:
245,2,58666,6,0,L|256:112,1,83.9999974365235,8|8,0:0|0:3,0:0:0:0:
332,132,59019,2,0,L|325:189,2,41.9999987182618,8|4|4,0:3|0:3|0:3,0:0:0:0:
400,72,59372,5,2,0:0:0:0:
404,84,60078,5,2,0:0:0:0:
488,176,60784,5,2,0:0:0:0:
452,308,61489,6,0,B|360:292|400:352|292:340,1,157.5,4|0,0:0|0:0,0:0:0:0:
208,304,62195,5,4,0:0:0:0:
312,224,62372,1,0,0:0:0:0:
136,164,62548,5,8,0:0:0:0:
336,232,62725,1,8,0:0:0:0:
188,56,62901,5,8,0:0:0:0:
112,336,63078,1,8,0:0:0:0:
180,24,63254,5,8,0:0:0:0:
303,341,63431,1,8,0:0:0:0:
341,99,63607,6,0,B|209:87|269:175|133:163,1,225,4|2,0:0|0:0,0:0:0:0:
136,164,64842,1,2,0:0:0:0:
44,88,65019,6,0,B|12:136|12:136|36:276,1,198.000006042481,4|8,0:0|0:0,0:0:0:0:
200,352,65548,2,0,L|216:254,1,99.0000030212403,0|10,0:0|0:1,0:0:0:0:
363,106,65901,2,0,L|380:204,1,99.0000030212403,8|8,0:1|0:0,0:0:0:0:
360,344,66254,1,0,0:0:0:0:
484,136,66431,5,10,0:1:0:0:
244,76,66607,1,0,0:0:0:0:
324,264,66784,1,8,0:0:0:0:
384,24,66960,1,0,0:0:0:0:
220,196,67137,2,0,B|108:176|140:264|36:244,1,198.000006042481,2|8,0:1|0:0,0:0:0:0:
192,296,67666,1,0,0:0:0:0:
83,58,67842,6,0,P|52:95|56:144,1,99.0000030212403,10|0,0:1|0:0,0:0:0:0:
20,344,68195,1,8,0:0:0:0:
192,296,68372,2,0,B|288:324|288:324|382:296,1,198.000006042481,0|0,0:0|0:0,0:0:0:0:
496,328,68901,1,8,0:0:0:0:
284,200,69078,1,0,0:0:0:0:
381,106,69254,6,0,B|409:202|409:202|381:296,1,198.000006042481,10|8,0:1|0:0,0:0:0:0:
101,248,69784,2,0,B|213:268|181:180|285:200,1,198.000006042481,8|2,0:1|0:0,0:0:0:0:
496,328,70313,1,10,0:0:0:0:
256,384,70489,5,8,0:0:0:0:
256,384,70578,1,8,0:0:0:0:
256,384,70666,2,0,L|248:328,1,49.5000015106202,8|0,0:1|0:0,0:0:0:0:
381,295,70842,2,0,L|388:245,1,49.5000015106202,8|0,0:1|0:0,0:0:0:0:
256,48,71019,1,4,0:0:0:0:
476,92,71195,2,0,B|433:116|433:116|385:104,1,99.0000030212403,2|8,0:0|0:1,0:0:0:0:
185,196,71548,2,0,B|227:171|227:171|276:184,1,99.0000030212403,2|8,0:0|0:0,0:0:0:0:
492,300,71901,5,8,0:0:0:0:
492,300,71989,1,8,0:0:0:0:
492,300,72078,2,0,L|485:250,1,49.5000015106202,8|0,0:1|0:0,0:0:0:0:
385,104,72254,2,0,L|378:154,1,49.5000015106202,8|0,0:1|0:0,0:0:0:0:
344,380,72431,1,4,0:0:0:0:
189,276,72607,2,0,L|288:264,1,99.0000030212403,2|8,0:0|0:1,0:0:0:0:
476,165,72960,2,0,L|377:152,1,99.0000030212403,2|8,0:0|0:0,0:0:0:0:
144,44,73313,1,2,0:0:0:0:
229,188,73489,6,0,B|257:144|257:144|240:0,1,198.000006042481,4|8,0:0|0:0,0:0:0:0:
52,88,74019,2,0,L|63:186,1,99.0000030212403,2|8,0:0|0:1,0:0:0:0:
218,286,74372,2,0,L|229:187,1,99.0000030212403,2|8,0:0|0:0,0:0:0:0:
460,88,74725,1,8,0:1:0:0:
308,0,74901,5,8,0:0:0:0:
308,0,74989,1,8,0:0:0:0:
307,0,75078,2,0,L|315:67,1,67.5000025749208,8|8,0:0|0:0,0:0:0:0:
460,192,75254,2,0,B|428:176|428:176|396:180,1,67.5000025749208,8|0,0:0|0:0,0:0:0:0:
140,236,75431,5,4,0:0:0:0:
140,236,75784,5,4,0:0:0:0:
307,0,75960,1,8,0:0:0:0:
80,76,76137,1,8,0:0:0:0:
80,76,76225,1,8,0:0:0:0:
80,76,76313,6,0,B|92:196|24:144|40:280,1,198.000006042481,4|8,0:0|0:0,0:0:0:0:
231,221,76842,2,0,B|184:211|184:211|140:235,1,99.0000030212403,0|10,0:0|0:1,0:0:0:0:
256,356,77195,2,0,B|354:377|354:377|442:336,1,198.000006042481,8|0,0:1|0:0,0:0:0:0:
512,192,77725,5,10,0:1:0:0:
256,104,77901,1,0,0:0:0:0:
460,20,78078,1,8,0:0:0:0:
340,276,78254,1,0,0:0:0:0:
256,104,78431,2,0,P|200:64|64:64,1,198.000006042481,10|8,0:1|0:0,0:0:0:0:
192,224,78960,1,0,0:0:0:0:
10,268,79137,6,0,P|94:218|191:223,1,198.000006042481,4|8,0:0|0:0,0:0:0:0:
428,334,79666,2,0,P|347:361|339:275,1,198.000006042481,0|8,0:0|0:1,0:0:0:0:
512,192,80195,1,8,0:0:0:0:
320,104,80372,1,0,0:0:0:0:
472,28,80548,5,8,0:0:0:0:
472,28,80637,1,8,0:0:0:0:
472,28,80725,1,8,0:0:0:0:
339,275,80901,1,12,0:0:0:0:
236,64,81078,1,0,0:0:0:0:
512,192,81254,1,4,0:0:0:0:
256,328,81431,5,4,0:3:0:0:
256,328,81519,1,4,0:3:0:0:
256,328,81607,2,0,L|248:256,1,49.5000015106202,8|8,0:0|0:0,0:0:0:0:
80,64,81784,2,0,L|74:113,1,49.5000015106202,8|8,0:0|0:0,0:0:0:0:
56,264,81960,5,2,0:0:0:0:
56,264,82666,2,0,L|47:338,2,67.5,0|0|0,0:0|0:0|0:0,0:0:0:0:
120,184,83372,5,2,0:0:0:0:
120,184,83901,1,8,0:1:0:0:
120,184,83989,1,8,0:1:0:0:
120,184,84078,2,0,L|105:49,2,135,4|0|0,0:0|0:0|0:0,0:0:0:0:
132,284,84784,5,4,0:0:0:0:
132,284,85137,5,8,0:1:0:0:
232,104,85313,1,8,0:1:0:0:
256,368,85489,5,8,0:0:0:0:
220,86,85666,1,8,0:0:0:0:
448,192,85842,5,8,0:0:0:0:
132,284,86019,1,8,0:0:0:0:
364,24,86195,5,4,0:0:0:0:
408,352,86372,1,4,0:0:0:0:
408,352,86901,6,0,P|380:324|324:324,1,90,0|8,0:0|0:0,0:0:0:0:
296,316,87342,1,8,0:0:0:0:
264,312,87431,1,8,0:0:0:0:
232,308,87519,1,8,0:0:0:0:
196,304,87607,6,0,B|168:248|168:248|195:133,1,180,4|8,0:0|0:0,0:0:0:0:
316,4,88137,1,0,0:0:0:0:
376,88,88313,2,0,B|340:112|340:112|294:103,1,90,8|8,0:1|0:1,0:0:0:0:
112,148,88666,2,0,B|148:124|148:124|194:133,1,90,8|0,0:0|0:0,0:0:0:0:
344,280,89019,6,0,L|168:241,1,180,10|8,0:1|0:0,0:0:0:0:
0,158,89548,1,0,0:0:0:0:
25,351,89725,2,0,P|47:312|47:268,1,90,8|8,0:1|0:1,0:0:0:0:
190,158,90078,2,0,P|168:196|167:241,1,90,8|0,0:0|0:0,0:0:0:0:
148,336,90342,1,0,0:0:0:0:
148,336,90431,6,0,B|200:364|200:364|317:334,1,180,10|8,0:1|0:0,0:0:0:0:
416,308,90960,1,0,0:0:0:0:
190,158,91137,1,8,0:1:0:0:
332,72,91313,1,8,0:1:0:0:
304,232,91489,1,8,0:0:0:0:
216,40,91666,1,0,0:0:0:0:
216,40,91754,1,0,0:0:0:0:
216,40,91842,6,0,P|140:32|104:80,1,135,10|0,0:1|0:0,0:0:0:0:
8,44,92195,2,0,L|22:132,1,90,8|8,0:0|0:1,0:0:0:0:
40,228,92460,1,8,0:1:0:0:
40,228,92548,1,8,0:0:0:0:
106,72,92725,1,8,0:1:0:0:
129,317,92901,2,0,L|152:184,1,135,8|0,0:0|0:0,0:0:0:0:
304,56,93254,6,0,B|292:115|292:115|312:160|312:160|301:229,1,180,4|8,0:0|0:0,0:0:0:0:
284,355,93784,1,0,0:0:0:0:
152,183,93960,1,8,0:1:0:0:
384,104,94137,1,8,0:1:0:0:
184,316,94313,1,8,0:0:0:0:
180,64,94489,1,0,0:0:0:0:
300,229,94666,6,0,P|373:269|464:241,1,180,10|8,0:1|0:0,0:0:0:0:
512,152,95195,1,0,0:0:0:0:
304,76,95372,1,8,0:1:0:0:
512,152,95548,1,8,0:1:0:0:
388,56,95725,2,0,P|343:56|303:75,1,90,8|0,0:0|0:0,0:0:0:0:
196,204,96078,6,0,P|194:118|115:86,1,180,4|8,0:0|0:0,0:0:0:0:
7,279,96607,1,0,0:0:0:0:
7,279,96695,1,8,0:0:0:0:
7,279,96784,2,0,L|97:269,1,90,8|8,0:1|0:1,0:0:0:0:
205,96,97137,2,0,L|115:85,1,90,8|0,0:0|0:0,0:0:0:0:
24,192,97489,5,8,0:1:0:0:
24,192,97578,1,8,0:0:0:0:
24,192,97666,2,0,L|68:187,1,45,8|8,0:0|0:0,0:0:0:0:
200,51,97842,2,0,L|204:95,1,45,8|8,0:0|0:3,0:0:0:0:
188,256,98019,2,0,L|184:212,1,45,8|0,0:1|0:0,0:0:0:0:
296,16,98195,6,0,L|305:105,1,90,4|8,0:3|0:0,0:0:0:0:
312,140,98460,1,8,0:0:0:0:
338,160,98548,1,8,0:0:0:0:
374,173,98637,1,8,0:3:0:0:
410,161,98725,1,8,0:3:0:0:
438,141,98813,1,0,0:0:0:0:
447,105,98901,5,4,0:0:0:0:
447,105,99431,2,0,L|436:156,1,45,2|2,0:0|0:0,0:0:0:0:
369,259,99784,2,0,L|360:216,1,45,2|2,0:0|0:0,0:0:0:0:
336,100,100137,1,2,0:0:0:0:
236,232,100313,1,2,0:0:0:0:
236,232,100489,2,0,L|247:179,1,53.9999983520508,2|0,0:0|0:0,0:0:0:0:
280,16,100842,1,2,0:0:0:0:
188,84,101019,6,0,P|136:80|104:104,1,90.0000034332277,8|8,0:3|0:3,0:0:0:0:
20,136,101372,2,0,L|12:88,2,45.0000017166138,4|4|4,0:3|0:3|0:3,0:0:0:0:
92,192,101725,6,0,L|60:384,1,161.999995056153,4|8,0:0|0:0,0:0:0:0:
284,256,102254,1,0,0:0:0:0:
196,204,102431,2,0,L|183:285,1,80.9999975280763,8|0,0:1|0:0,0:0:0:0:
352,384,102784,2,0,L|364:304,1,80.9999975280763,8|0,0:0|0:0,0:0:0:0:
392,96,103137,5,8,0:1:0:0:
509,225,103313,2,0,B|475:202|475:202|436:208,1,80.9999975280763,2|8,0:0|0:0,0:0:0:0:
240,228,103666,1,2,0:0:0:0:
392,96,103842,1,10,0:1:0:0:
364,303,104019,1,0,0:0:0:0:
252,108,104195,2,0,B|212:102|212:102|178:125,1,80.9999975280763,8|0,0:0|0:0,0:0:0:0:
8,276,104548,6,0,B|33:238|33:238|150:231,1,161.999995056153,10|8,0:1|0:0,0:0:0:0:
257,374,105078,2,0,L|177:366,1,80.9999975280763,0|8,0:0|0:1,0:0:0:0:
336,224,105431,1,8,0:1:0:0:
400,304,105607,2,0,L|480:296,1,80.9999975280763,8|0,0:0|0:0,0:0:0:0:
312,136,105960,6,0,P|252:180|260:280,1,161.999995056153,10|8,0:1|0:0,0:0:0:0:
300,368,106489,1,0,0:0:0:0:
336,224,106666,1,8,0:1:0:0:
200,384,106842,1,8,0:1:0:0:
144,176,107019,1,8,0:0:0:0:
249,262,107195,1,0,0:0:0:0:
56,312,107372,6,0,B|72:220|4:252|28:132,1,161.999995056153,10|8,0:1|0:0,0:0:0:0:
200,64,107901,1,0,0:0:0:0:
110,13,108078,2,0,P|95:51|100:91,1,80.9999975280763,8|0,0:1|0:0,0:0:0:0:
277,196,108431,2,0,L|288:116,1,80.9999975280763,8|0,0:0|0:0,0:0:0:0:
460,8,108784,6,0,L|479:186,1,180,4|8,0:0|0:0,0:0:0:0:
476,204,109225,1,8,0:0:0:0:
472,220,109313,1,4,0:3:0:0:
468,236,109401,1,8,0:0:0:0:
464,252,109489,6,0,P|416:240|384:276,1,96,4|8,0:3|0:0,0:0:0:0:
424,352,109829,2,0,L|472:344,2,48,8|8|8,0:0|0:0|0:0,0:0:0:0:
340,340,110170,6,0,L|179:363,1,161.999995056153,4|8,0:0|0:0,0:0:0:0:
36,236,110701,1,0,0:0:0:0:
136,264,110880,2,0,L|216:252,1,80.9999975280763,8|8,0:1|0:1,0:0:0:0:
352,139,111237,2,0,L|272:128,1,80.9999975280763,8|0,0:0|0:0,0:0:0:0:
464,16,111607,5,10,0:1:0:0:
452,116,111783,2,0,L|436:276,1,121.499996292114,0|0,0:0|0:0,0:0:0:0:
464,320,112136,2,0,P|424:325|389:306,1,80.9999975280763,2|8,0:1|0:1,0:0:0:0:
256,216,112489,1,8,0:1:0:0:
352,139,112665,1,8,0:0:0:0:
352,139,112842,1,0,0:0:0:0:
288,312,113018,6,0,P|214:340|140:312,1,161.999995056153,10|8,0:1|0:0,0:0:0:0:
36,132,113548,1,0,0:0:0:0:
4,236,113724,2,0,B|108:244|64:200|180:212,1,161.999995056153,8|8,0:1|0:0,0:0:0:0:
288,312,114254,1,0,0:0:0:0:
212,120,114430,5,8,0:1:0:0:
288,312,114607,2,0,P|295:272|289:232,1,80.9999975280763,2|8,0:0|0:0,0:0:0:0:
164,48,114959,1,2,0:0:0:0:
352,108,115136,1,8,0:1:0:0:
161,210,115312,1,8,0:1:0:0:
372,100,115489,2,0,P|440:92|472:140,1,121.499996292114,4|0,0:0|0:0,0:0:0:0:
504,220,115842,6,0,B|456:240|456:240|348:220,1,161.999995056153,4|8,0:0|0:0,0:0:0:0:
252,80,116371,2,0,B|260:184|216:140|228:256,1,161.999995056153,0|8,0:0|0:1,0:0:0:0:
132,108,116901,1,8,0:0:0:0:
347,219,117077,1,0,0:0:0:0:
188,332,117254,6,0,P|114:360|40:332,1,161.999995056153,10|8,0:1|0:0,0:0:0:0:
188,232,117783,1,0,0:0:0:0:
40,148,117959,1,8,0:1:0:0:
188,48,118136,1,8,0:1:0:0:
84,240,118312,1,8,0:0:0:0:
0,16,118489,1,0,0:0:0:0:
156,140,118665,6,0,B|260:148|216:104|332:116,1,161.999995056153,10|8,0:1|0:0,0:0:0:0:
480,232,119195,1,0,0:0:0:0:
477,61,119371,2,0,P|446:86|432:124,1,80.9999975280763,8|0,0:1|0:0,0:0:0:0:
389,310,119724,2,0,P|375:272|344:248,1,80.9999975280763,8|0,0:0|0:0,0:0:0:0:
156,140,120077,5,10,0:1:0:0:
256,0,120254,1,8,0:0:0:0:
224,240,120430,1,8,0:0:0:0:
292,140,120607,1,8,0:1:0:0:
60,288,120783,5,8,0:0:0:0:
292,336,120959,1,8,0:3:0:0:
156,140,121136,1,4,0:3:0:0:
176,316,121312,1,4,0:3:0:0:
292,140,121489,6,0,P|352:128|396:172,1,125.999996154785,4|0,0:0|0:0,0:0:0:0:
440,260,122018,1,8,0:1:0:0:
440,260,122195,2,0,L|232:288,1,188.999994232178,8|8,0:0|0:1,0:0:0:0:
168,228,122901,1,0,0:0:0:0:
170,346,123077,2,0,P|151:287|168:227,1,125.999996154785,8|0,0:0|0:0,0:0:0:0:
252,285,123607,5,10,0:0:0:0:
84,168,123783,1,2,0:0:0:0:
232,132,123959,1,2,0:0:0:0:
168,227,124136,1,2,0:0:0:0:
136,64,124312,6,0,P|200:16|268:20,1,125.999996154785,10|0,0:1|0:0,0:0:0:0:
339,182,124842,1,8,0:1:0:0:
339,182,124930,1,8,0:1:0:0:
339,182,125018,2,0,P|277:172|231:131,1,125.999996154785,8|0,0:0|0:0,0:0:0:0:
332,64,125548,1,8,0:1:0:0:
231,131,125724,1,10,0:1:0:0:
352,56,125901,6,0,B|416:36|416:36|471:54,1,125.999996154785,8|4,0:0|0:3,0:0:0:0:
496,180,126430,2,0,L|416:156,1,83.9999974365235,8|8,0:0|0:3,0:0:0:0:
341,96,126783,2,0,L|353:48,2,41.9999987182618,8|4|4,0:3|0:3|0:3,0:0:0:0:
320,184,127136,5,2,0:0:0:0:
324,196,127842,5,2,0:0:0:0:
256,316,128548,5,2,0:0:0:0:
40,252,129254,6,0,L|52:80,1,157.5,4|0,0:0|0:0,0:0:0:0:
135,30,129959,5,4,0:0:0:0:
175,162,130136,1,0,0:0:0:0:
291,90,130312,5,8,0:0:0:0:
215,294,130489,1,8,0:0:0:0:
135,30,130665,5,8,0:0:0:0:
419,138,130842,1,8,0:0:0:0:
119,250,131018,5,8,0:0:0:0:
387,30,131195,1,8,0:0:0:0:
311,338,131371,5,8,0:1:0:0:
256,192,131548,1,8,0:1:0:0:
476,340,131724,5,4,0:0:0:0:
476,340,132077,5,4,0:0:0:0:
476,340,132165,1,8,0:1:0:0:
475,339,132254,2,0,P|445:322|412:321,1,67.5000025749208,8|8,0:1|0:1,0:0:0:0:
263,383,132430,2,0,P|292:365|311:337,1,67.5000025749208,8|8,0:0|0:0,0:0:0:0:
347,239,132607,2,0,P|331:209|331:176,1,67.5000025749208,8|8,0:0|0:0,0:0:0:0:
496,96,132783,6,0,B|380:108|424:44|304:60,1,198.000006042481,4|8,0:0|0:0,0:0:0:0:
120,2,133312,2,0,P|151:39|152:88,1,99.0000030212403,0|10,0:0|0:1,0:0:0:0:
13,226,133665,2,0,P|30:180|71:156,1,99.0000030212403,8|8,0:1|0:0,0:0:0:0:
168,192,134018,1,0,0:0:0:0:
16,332,134195,5,10,0:1:0:0:
256,384,134371,1,0,0:0:0:0:
180,144,134548,1,8,0:0:0:0:
128,384,134724,1,0,0:0:0:0:
276,244,134901,2,0,B|392:256|348:192|468:208,1,198.000006042481,10|8,0:1|0:0,0:0:0:0:
432,308,135430,1,0,0:0:0:0:
308,140,135607,6,0,B|264:120|264:120|217:139,1,99.0000030212403,10|0,0:1|0:0,0:0:0:0:
8,188,135959,1,8,0:0:0:0:
96,292,136136,2,0,B|115:161|115:161|79:105,1,198.000006042481,0|0,0:0|0:0,0:0:0:0:
8,188,136665,1,8,0:0:0:0:
200,292,136842,1,0,0:0:0:0:
296,196,137018,6,0,P|388:196|436:296,1,198.000006042481,10|8,0:1|0:0,0:0:0:0:
200,292,137548,2,0,B|169:200|169:200|201:104,1,198.000006042481,8|2,0:1|0:0,0:0:0:0:
444,52,138077,1,10,0:0:0:0:
304,0,138254,5,8,0:0:0:0:
304,0,138342,1,8,0:0:0:0:
303,0,138430,2,0,L|316:48,1,49.5000015106202,8|0,0:1|0:0,0:0:0:0:
416,152,138606,2,0,L|403:200,1,49.5000015106202,8|0,0:1|0:0,0:0:0:0:
200,292,138783,1,4,0:0:0:0:
276,151,138959,2,0,L|300:248,1,99.0000030212403,2|8,0:0|0:1,0:0:0:0:
76,344,139312,2,0,L|99:247,1,99.0000030212403,2|8,0:0|0:0,0:0:0:0:
148,64,139665,5,8,0:0:0:0:
148,64,139754,1,8,0:0:0:0:
148,64,139842,2,0,L|220:72,1,49.5000015106202,8|0,0:1|0:0,0:0:0:0:
332,0,140018,2,0,L|326:49,1,49.5000015106202,8|0,0:1|0:0,0:0:0:0:
299,247,140195,1,4,0:0:0:0:
486,171,140371,2,0,P|440:155|391:160,1,99.0000030212403,2|8,0:0|0:1,0:0:0:0:
287,341,140724,2,0,P|304:295|299:247,1,99.0000030212403,2|8,0:0|0:0,0:0:0:0:
108,12,141077,2,0,P|115:35|112:59,1,49.5000015106202,2|8,0:0|0:0,0:0:0:0:
83,161,141254,6,0,B|199:173|155:109|275:125,1,198.000006042481,4|8,0:0|0:0,0:0:0:0:
385,274,141783,2,0,P|347:244|298:245,1,99.0000030212403,2|8,0:0|0:1,0:0:0:0:
111,336,142136,2,0,P|156:318|180:276,1,99.0000030212403,2|8,0:0|0:0,0:0:0:0:
112,59,142489,1,8,0:1:0:0:
272,124,142665,5,8,0:0:0:0:
272,124,142754,1,8,0:0:0:0:
272,124,142842,2,0,B|303:137|303:137|335:133,1,67.5000025749208,8|8,0:0|0:0,0:0:0:0:
465,0,143018,2,0,B|451:31|451:31|456:64,1,67.5000025749208,8|0,0:0|0:0,0:0:0:0:
500,324,143195,5,4,0:0:0:0:
500,324,143548,5,4,0:0:0:0:
216,384,143724,1,8,0:0:0:0:
336,133,143901,1,8,0:0:0:0:
336,133,143989,1,8,0:0:0:0:
336,133,144077,6,0,B|324:253|392:201|376:337,1,198.000006042481,4|8,0:0|0:0,0:0:0:0:
185,282,144606,2,0,B|229:306|229:306|276:296,1,99.0000030212403,0|10,0:0|0:1,0:0:0:0:
440,168,144959,2,0,P|428:76|328:24,1,198.000006042481,8|0,0:1|0:0,0:0:0:0:
88,24,145489,5,2,0:1:0:0:
336,133,145665,1,0,0:0:0:0:
88,260,145842,1,8,0:0:0:0:
216,24,146018,1,0,0:0:0:0:
48,160,146195,2,0,B|172:140|128:212|240:196,1,198.000006042481,10|8,0:1|0:0,0:0:0:0:
444,140,146724,1,0,0:0:0:0:
375,59,146901,6,0,B|335:103|335:103|351:241,1,198.000006042481,4|8,0:0|0:0,0:0:0:0:
211,378,147430,2,0,B|251:334|251:334|235:196,1,198.000006042481,0|8,0:0|0:1,0:0:0:0:
164,12,147959,1,8,0:0:0:0:
104,200,148136,1,0,0:0:0:0:
324,60,148312,5,4,0:0:0:0:
28,24,148489,1,8,0:1:0:0:
235,196,148665,1,8,0:0:0:0:
0,280,148842,1,8,0:1:0:0:
176,40,149018,1,8,0:0:0:0:
113,248,149195,5,4,0:3:0:0:
113,248,149283,1,4,0:3:0:0:
113,248,149371,2,0,L|101:184,1,49.5000015106202,8|8,0:0|0:0,0:0:0:0:
297,39,149548,2,0,L|288:88,1,49.5000015106202,8|0,0:0|0:0,0:0:0:0:
256,228,149724,5,2,0:0:0:0:
256,228,150430,2,0,L|176:216,2,67.5,0|0|0,0:0|0:0|0:0,0:0:0:0:
328,304,151136,1,2,0:0:0:0:
328,304,151665,1,8,0:1:0:0:
328,304,151754,1,8,0:1:0:0:
328,304,151842,2,0,L|461:285,2,135,4|0|0,0:0|0:0|0:0,0:0:0:0:
224,320,152548,5,4,0:0:0:0:
224,320,152901,5,8,0:1:0:0:
384,180,153077,1,8,0:1:0:0:
256,48,153254,5,8,0:0:0:0:
328,304,153430,1,8,0:0:0:0:
448,48,153606,5,8,0:0:0:0:
168,232,153783,1,8,0:0:0:0:
352,0,153959,5,4,0:0:0:0:
452,356,154136,1,4,0:0:0:0:
328,304,154312,6,0,B|236:292|272:344|180:332,1,148.49999546814,0|0,0:0|0:0,0:0:0:0:
104,312,155371,5,2,0:0:0:0:
104,312,156430,1,2,0:0:0:0:
36,232,156783,6,0,B|68:124|4:152|36:52|36:52|56:88,1,216,2|2,0:0|0:0,0:0:0:0:
144,128,158195,2,0,B|236:124|200:164|284:156,1,144,2|0,0:0|0:0,0:0:0:0:
264,72,159254,1,2,0:0:0:0:
264,72,159430,1,2,0:0:0:0:
364,96,159606,6,0,P|384:156|284:260,1,216,2|2,0:0|0:0,0:0:0:0:
292,259,161018,2,0,P|353:271|405:333,1,144,2|2,0:0|0:0,0:0:0:0:
304,364,162077,1,2,0:0:0:0:
232,172,162430,6,0,B|188:216|188:216|195:297,1,144,2|2,0:0|0:0,0:0:0:0:
72,356,163842,2,0,L|53:131,1,216,2|2,0:0|0:0,0:0:0:0:
44,52,165077,1,2,0:0:0:0:
128,88,165254,2,0,L|212:76,1,72,2|2,0:0|0:0,0:0:0:0:
264,16,165783,2,0,L|370:30,1,108,2|2,0:0|0:0,0:0:0:0:
493,100,166665,6,0,L|440:108,1,53.9999983520508,2|0,0:0|0:0,0:0:0:0:
318,180,167018,2,0,L|372:188,1,53.9999983520508,2|0,0:0|0:0,0:0:0:0:
492,260,167371,2,0,L|438:267,1,53.9999983520508,2|2,0:0|0:0,0:0:0:0:
318,339,167724,2,0,L|371:346,1,53.9999983520508,2|0,0:0|0:0,0:0:0:0:
438,267,168077,5,2,0:0:0:0:
372,188,168430,1,0,0:0:0:0:
439,108,168783,1,2,0:0:0:0:
492,100,169136,2,0,L|439:108,1,53.9999983520508,2|0,0:0|0:0,0:0:0:0:
372,188,169489,6,0,L|318:180,1,53.9999983520508,2|0,0:0|0:0,0:0:0:0:
232,124,169842,2,0,L|224:70,1,53.9999983520508,2|0,0:0|0:0,0:0:0:0:
136,16,170195,2,0,L|128:69,1,53.9999983520508,2|2,0:0|0:0,0:0:0:0:
72,156,170548,2,0,L|18:163,1,53.9999983520508,2|2,0:0|0:0,0:0:0:0:
0,268,170901,6,0,L|221:232,1,215.999993408203,2|2,0:0|0:0,0:0:0:0:
236,336,171959,1,2,0:0:0:0:
213,233,172136,1,2,0:0:0:0:
312,264,172312,6,0,B|416:252|380:296|480:288,1,161.999995056153,2|0,0:0|0:0,0:0:0:0:
512,212,173548,1,0,0:0:0:0:
468,136,173724,2,0,L|476:100,2,26.9999991760254,0|0|0,0:0|0:0|0:0,0:0:0:0:
392,180,174254,1,0,0:0:0:0:
392,180,174606,2,0,P|352:176|340:200,1,67.4999979400635,0|0,0:0|0:0,0:0:0:0:
320,280,175136,6,0,B|264:296|264:296|199:265,1,121.499996292114,4|0,0:0|0:0,0:0:0:0:
104,272,175489,2,0,L|111:232,1,40.4999987640381,8|0,0:0|0:0,0:0:0:0:
4,128,175665,6,0,B|98:84|98:84|154:100,1,161.999995056153,4|8,0:0|0:1,0:0:0:0:
260,28,176195,1,8,0:0:0:0:
260,28,176283,1,8,0:0:0:0:
259,27,176371,2,0,L|252:67,1,40.4999987640381,4|4,0:3|0:3,0:0:0:0:
228,204,176548,6,0,L|392:188,1,135,4|8,0:0|0:0,0:0:0:0:
460,156,176901,2,0,L|463:200,1,45,8|0,0:0|0:0,0:0:0:0:
364,384,177077,5,4,0:0:0:0:
512,312,177254,1,8,0:0:0:0:
364,288,177430,1,8,0:3:0:0:
364,288,177518,1,8,0:0:0:0:
364,288,177606,2,0,L|300:304,1,53.9999983520508,8|8,0:0|0:0,0:0:0:0:
202,207,177783,2,0,L|216:260,1,53.9999983520508,8|8,0:0|0:0,0:0:0:0:
144,376,177959,5,4,0:0:0:0:
80,144,178136,1,2,0:0:0:0:
160,360,178312,1,8,0:0:0:0:
228,104,178489,1,2,0:0:0:0:
48,280,178665,5,8,0:1:0:0:
324,192,178842,1,2,0:0:0:0:
48,104,179018,1,8,0:0:0:0:
340,176,179195,1,2,0:0:0:0:
68,268,179371,6,0,B|204:252|136:324|280:320,1,215.999993408203,10|8,0:1|0:0,0:0:0:0:
340,176,179888,2,0,P|288:170|251:207,1,107.999996704102,2|8,0:0|0:1,0:0:0:0:
456,332,180233,2,0,L|468:224,1,107.999996704102,2|8,0:0|0:0,0:0:0:0:
344,16,180603,1,2,0:0:0:0:
484,104,180788,6,0,B|336:144|336:144|248:104,1,215.999993408203,10|8,0:1|0:0,0:0:0:0:
92,20,181302,1,2,0:0:0:0:
92,20,181386,1,2,0:0:0:0:
92,18,181469,2,0,P|161:54|169:132,1,161.999995056153,2|2,0:0|0:0,0:0:0:0:
62,222,181817,2,0,B|44:172|44:172|60:120,1,107.999996704102,10|2,0:0|0:0,0:0:0:0:
228,308,182192,6,0,B|104:288|144:372|-12:332,1,215.999993408203,2|8,0:1|0:0,0:0:0:0:
60,119,182721,1,2,0:0:0:0:
60,119,182807,1,0,0:0:0:0:
60,120,182893,2,0,B|44:172|44:172|62:222,1,107.999996704102,4|0,0:0|0:0,0:0:0:0:
168,276,183152,1,8,0:0:0:0:
168,276,183238,2,0,L|176:222,1,53.9999983520508,8|4,0:0|0:3,0:0:0:0:
284,192,183416,2,0,L|275:138,1,53.9999983520508,4|4,0:3|0:3,0:0:0:0:
176,44,183595,6,0,L|362:16,1,188.999994232178,4|8,0:0|0:0,0:0:0:0:
464,0,183947,1,8,0:0:0:0:
487,164,184124,6,0,P|448:121|396:148,1,125.999996154785,4|0,0:0|0:0,0:0:0:0:
295,253,184379,1,8,0:0:0:0:
295,253,184464,2,0,L|283:191,1,62.9999980773926,8|8,0:0|0:0,0:0:0:0:
252,32,184640,5,8,0:0:0:0:
220,80,184728,1,4,0:3:0:0:
168,96,184816,1,4,0:3:0:0:
120,68,184905,1,4,0:3:0:0:
104,16,184993,6,0,B|64:1|64:1|90:145,1,188.999994232178,4|8,0:0|0:0,0:0:0:0:
108,248,185345,1,8,0:0:0:0:
256,172,185522,2,0,B|312:144|312:144|369:170,1,125.999996154785,4|8,0:0|0:0,0:0:0:0:
460,213,185788,1,8,0:0:0:0:
460,213,185878,2,0,L|472:152,1,62.9999980773926,8|8,0:0|0:0,0:0:0:0:
496,32,186047,1,4,0:3:0:0:
240,12,186269,5,4,0:3:0:0:
240,12,186341,1,4,0:3:0:0:
240,12,186412,2,0,B|132:56|132:56|40:16,1,202.500007724762,4|4,0:0|0:0,0:0:0:0:
148,192,186922,1,4,0:0:0:0:
324,120,187158,2,0,B|432:76|432:76|524:116,2,202.500007724762,4|4|4,0:0|0:0|0:0,0:0:0:0:
256,232,187883,6,0,B|128:220|176:296|56:288,1,215.999993408203,4|0,0:0|0:0,0:0:0:0:
55,287,189254,5,2,0:0:0:0:
0,204,189606,1,0,0:0:0:0:
0,204,189783,2,0,L|52:190,1,53.9999983520508,2|2,0:0|0:0,0:0:0:0:
104,100,190136,2,0,L|156:113,1,53.9999983520508,2|2,0:0|0:0,0:0:0:0:
256,192,190489,1,2,0:0:0:0:
256,192,190665,6,0,B|274:151|274:151|254:91,1,107.999996704102,2|2,0:0|0:0,0:0:0:0:
155,13,191195,2,0,B|136:53|136:53|156:113,1,107.999996704102,2|2,0:0|0:0,0:0:0:0:
254,91,191724,1,2,0:0:0:0:
254,91,191901,1,2,0:0:0:0:
308,176,192077,6,0,P|360:188|412:176,1,107.999996704102,2|2,0:0|0:0,0:0:0:0:
256,268,192783,2,0,P|203:255|151:267,1,107.999996704102,2|2,0:0|0:0,0:0:0:0:
308,360,193489,2,0,P|360:372|460:324,1,161.999995056153,2|2,0:0|0:0,0:0:0:0:
455,329,194195,1,2,0:0:0:0:
308,176,194901,5,2,0:0:0:0:
228,316,195254,1,0,0:0:0:0:
144,256,195430,1,2,0:0:0:0:
144,256,195606,2,0,L|152:184,1,53.9999983520508,2|0,0:0|0:0,0:0:0:0:
159,94,195959,1,2,0:0:0:0:
149,202,196136,1,2,0:0:0:0:
48,136,196312,6,0,L|60:8,1,107.999996704102,2|2,0:0|0:0,0:0:0:0:
159,94,196842,2,0,L|149:202,1,107.999996704102,2|0,0:0|0:0,0:0:0:0:
149,202,197371,1,2,0:0:0:0:
280,160,197724,6,0,B|380:184|340:128|448:164|448:164|420:164|404:176,1,215.999993408203,2|2,0:0|0:0,0:0:0:0:
452,268,199842,1,2,0:0:0:0:
256,348,200548,6,0,L|112:332,1,125.999996154785,10|0,0:1|0:0,0:0:0:0:
44,224,201077,1,8,0:1:0:0:
157,169,201254,2,0,L|147:231,1,62.9999980773926,8|0,0:0|0:0,0:0:0:0:
64,120,201606,2,0,L|54:57,1,62.9999980773926,0|0,0:0|0:0,0:0:0:0:
139,0,201959,6,0,P|200:-2|232:48,1,125.999996154785,10|0,0:1|0:0,0:0:0:0:
356,135,202489,2,0,P|296:132|264:184,1,125.999996154785,8|0,0:1|0:0,0:0:0:0:
280,340,203018,1,0,0:0:0:0:
204,268,203195,1,0,0:0:0:0:
280,340,203371,6,0,B|340:360|340:360|399:340,1,125.999996154785,10|0,0:1|0:0,0:0:0:0:
504,300,203901,1,8,0:1:0:0:
416,220,204077,2,0,B|396:160|396:160|415:100,1,125.999996154785,8|0,0:0|0:0,0:0:0:0:
456,4,204606,1,0,0:0:0:0:
316,67,204783,6,0,P|257:88|199:67,1,125.999996154785,10|0,0:1|0:0,0:0:0:0:
44,32,205312,1,8,0:1:0:0:
97,186,205489,2,0,L|112:104,1,83.9999974365235,4|4,0:3|0:3,0:0:0:0:
199,67,205842,2,0,L|188:8,2,41.9999987182618,4|4|4,0:3|0:3|0:3,0:0:0:0:
216,156,206195,5,2,0:0:0:0:
216,156,206931,6,0,P|256:132|304:140,1,94.4999971160889,0|0,0:0|0:0,0:0:0:0:
376,76,207616,6,0,B|404:108|404:108|388:192,1,126,2|0,0:0|0:0,0:0:0:0:
434,284,208338,6,0,P|358:296|300:248,1,157.5
301,138,209061,6,0,P|252:116|196:120,1,107.999996704102,2|0,0:0|0:0,0:0:0:0:
198,119,210077,5,0,0:0:0:0:
244,32,210253,1,0,0:0:0:0:
100,84,210429,2,0,L|116:204,1,107.999996704102,2|0,0:0|0:0,0:0:0:0:
40,348,210958,1,0,0:0:0:0:
128,292,211134,2,0,P|186:282|215:333,1,126,4|0,0:0|0:0,0:0:0:0:
140,380,211840,5,4,0:0:0:0:
140,380,212193,5,8,0:0:0:0:
332,264,212370,1,8,0:0:0:0:
114,191,212546,5,8,0:0:0:0:
368,380,212723,1,8,0:0:0:0:
272,52,212899,5,8,0:0:0:0:
140,380,213076,1,8,0:0:0:0:
436,204,213252,5,8,0:0:0:0:
52,296,213429,1,8,0:1:0:0:
368,380,213605,1,4,0:0:0:0:
368,380,213958,5,8,0:0:0:0:
388,328,214046,1,8,0:0:0:0:
368,280,214134,1,8,0:0:0:0:
320,256,214223,1,8,0:0:0:0:
300,204,214311,1,4,0:3:0:0:
320,156,214399,1,4,0:3:0:0:
368,132,214487,1,4,0:3:0:0:
420,148,214576,1,4,0:3:0:0:
436,204,214663,6,0,P|460:164|368:132,1,180.000006866455,8|4,0:1|0:3,0:0:0:0:
367,132,214996,6,0,P|276:168|184:132,1,202.500007724762,4|0,0:0|0:0,0:0:0:0:
120,48,215369,6,0,P|76:40|32:64,1,90,8|0,0:0|0:0,0:0:0:0:
48,231,215545,2,0,P|92:239|132:220,1,90,8|8,0:0|0:0,0:0:0:0:
376,52,215721,5,8,0:0:0:0:
367,132,215810,1,8,0:3:0:0:
358,212,215898,1,4,0:3:0:0:
349,292,215986,1,4,0:3:0:0:
340,372,216074,6,0,B|216:384|268:304|148:316,1,202.5,4|0,0:0|0:0,0:0:0:0:
154,315,216946,1,2,0:0:0:0:
68,198,217294,1,2,0:0:0:0:
56,384,217469,6,0,B|29:331|29:331|70:192,1,198.000006042481,4|8,0:0|0:0,0:0:0:0:
32,10,218015,2,0,P|61:50|108:64,1,99.0000030212403,0|10,0:0|0:1,0:0:0:0:
275,217,218367,2,0,P|246:177|200:164,1,99.0000030212403,8|8,0:1|0:0,0:0:0:0:
68,198,218720,1,0,0:0:0:0:
256,0,218897,5,10,0:1:0:0:
168,264,219073,1,0,0:0:0:0:
336,112,219250,1,8,0:0:0:0:
68,198,219426,1,0,0:0:0:0:
268,332,219603,2,0,B|384:344|340:280|460:296,1,198.000006042481,10|8,0:1|0:0,0:0:0:0:
300,228,220132,1,0,0:0:0:0:
424,64,220309,6,0,B|439:109|439:109|423:157,1,99.0000030212403,10|0,0:1|0:0,0:0:0:0:
208,280,220662,1,8,0:0:0:0:
336,112,220838,2,0,B|240:84|240:84|145:111,1,198.000006042481,0|0,0:0|0:0,0:0:0:0:
0,280,221367,1,8,0:0:0:0:
240,192,221544,1,0,0:0:0:0:
19,82,221720,6,0,L|0:279,1,198.000006042481,10|8,0:1|0:0,0:0:0:0:
240,192,222250,1,8,0:1:0:0:
132,136,222426,1,10,0:1:0:0:
216,344,222603,2,0,L|224:296,1,49.5000015106202,2|8,0:0|0:0,0:0:0:0:
348,136,222769,1,10,0:0:0:0:
124,87,222945,5,8,0:0:0:0:
124,87,223038,1,8,0:0:0:0:
124,87,223132,2,0,L|131:135,1,49.5000015106202,8|0,0:1|0:0,0:0:0:0:
348,248,223308,2,0,L|340:296,1,49.5000015106202,8|0,0:1|0:0,0:0:0:0:
120,384,223484,1,4,0:0:0:0:
224,94,223661,2,0,L|240:192,1,99.0000030212403,2|8,0:0|0:1,0:0:0:0:
424,384,224014,2,0,L|439:286,1,99.0000030212403,2|8,0:0|0:0,0:0:0:0:
476,72,224367,5,8,0:0:0:0:
476,72,224455,1,8,0:0:0:0:
476,72,224543,2,0,P|448:60|412:60,1,49.5000015106202,8|0,0:1|0:0,0:0:0:0:
286,177,224720,2,0,P|263:187|239:190,1,49.5000015106202,8|0,0:1|0:0,0:0:0:0:
32,56,224896,1,4,0:0:0:0:
52,259,225073,6,0,P|84:222|100:176,1,99.0000030212403,2|8,0:0|0:1,0:0:0:0:
184,4,225426,2,0,P|216:41|232:88,1,99.0000030212403,2|8,0:0|0:0,0:0:0:0:
112,360,225779,2,0,L|164:352,1,49.5000015106202,0|8,0:0|0:0,0:0:0:0:
232,276,225955,6,0,L|427:305,1,198.000006042481,4|8,0:0|0:0,0:0:0:0:
406,100,226484,2,0,P|364:126|348:172,1,99.0000030212403,2|8,0:0|0:1,0:0:0:0:
232,276,226837,2,0,P|215:230|173:204,1,99.0000030212403,2|8,0:0|0:0,0:0:0:0:
0,276,227190,1,8,0:1:0:0:
32,60,227367,5,8,0:0:0:0:
32,60,227455,1,8,0:0:0:0:
31,59,227543,2,0,L|42:126,1,67.5000025749208,8|8,0:0|0:0,0:0:0:0:
221,342,227720,2,0,L|232:276,1,67.5000025749208,8|0,0:0|0:0,0:0:0:0:
272,12,227896,5,4,0:0:0:0:
272,12,228249,1,4,0:0:0:0:
221,342,228426,1,8,0:0:0:0:
42,126,228602,1,8,0:0:0:0:
42,126,228690,1,8,0:0:0:0:
42,126,228779,6,0,B|72:112|72:112|120:120,1,67.5000025749208,4|0,0:3|0:0,0:0:0:0:
221,342,228955,2,0,B|207:312|207:312|215:264,1,67.5000025749208,8|8,0:1|0:1,0:0:0:0:
256,0,229132,5,4,0:0:0:0:
316,300,229308,1,8,0:1:0:0:
384,36,229484,5,8,0:0:0:0:
324,336,229661,1,8,0:1:0:0:
376,0,229837,5,8,0:0:0:0:
436,300,230014,1,8,0:1:0:0:
184,136,230190,5,8,0:0:0:0:
504,48,230367,1,8,0:1:0:0:
148,124,230543,5,8,0:0:0:0:
460,212,230720,1,8,0:1:0:0:
208,20,230896,5,8,0:0:0:0:
287,334,231073,1,8,0:1:0:0:
356,36,231249,5,8,0:0:0:0:
128,288,231426,1,8,0:1:0:0:
460,212,231602,5,4,0:0:0:0:
112,112,231779,1,8,0:1:0:0:
408,124,231955,5,8,0:0:0:0:
68,204,232132,1,8,0:1:0:0:
256,384,232308,5,8,0:0:0:0:
156,20,232484,1,8,0:1:0:0:
112,344,232661,5,8,0:0:0:0:
320,20,232837,1,8,0:1:0:0:
112,112,233014,5,8,0:0:0:0:
132,172,233102,1,8,0:0:0:0:
188,200,233190,1,8,0:0:0:0:
248,188,233279,1,8,0:0:0:0:
292,144,233367,1,8,0:1:0:0:
354,147,233455,1,8,0:1:0:0:
399,187,233543,2,0,L|396:252,1,62.9999980773926,8|0,0:0|0:0,0:0:0:0:
204,384,233720,2,0,L|200:321,1,62.9999980773926,8|0,0:1|0:0,0:0:0:0:
216,52,233896,6,0,B|368:28|308:128|464:108,1,251.999992309571,4|4,0:0|0:3,0:0:0:0:
460,104,234337,1,4,0:3:0:0:
468,100,234426,5,2,0:0:0:0:
468,100,235132,2,0,L|480:20,2,67.5,0|0|0,0:0|0:0|0:0,0:0:0:0:
392,172,235837,1,2,0:0:0:0:
392,172,236367,1,8,0:1:0:0:
392,172,236455,1,8,0:1:0:0:
392,172,236543,2,0,L|411:305,2,135,4|0|0,0:0|0:0|0:0,0:0:0:0:
376,56,237249,5,4,0:0:0:0:
376,56,237602,5,8,0:1:0:0:
256,264,237779,1,8,0:1:0:0:
228,80,237955,5,8,0:0:0:0:
348,368,238132,1,8,0:0:0:0:
68,264,238308,5,8,0:0:0:0:
468,156,238484,1,8,0:0:0:0:
68,52,238661,5,4,0:0:0:0:
496,312,238837,1,4,0:0:0:0:
496,312,239367,6,0,P|480:288|428:288,1,85.5,2|0,0:0|0:0,0:0:0:0:
340,344,241132,6,0,L|324:228,1,108,2|2,0:0|0:0,0:0:0:0:
352,132,241484,6,0,B|244:116|280:192|156:164,1,180,4|8,0:0|0:0,0:0:0:0:
4,60,242014,1,0,0:0:0:0:
123,1,242190,2,0,P|107:43|108:87,1,90,8|8,0:1|0:1,0:0:0:0:
248,225,242543,2,0,P|219:190|180:168,1,90,8|0,0:0|0:0,0:0:0:0:
80,348,242896,6,0,P|164:376|248:348,1,180,10|8,0:1|0:0,0:0:0:0:
344,140,243426,1,0,0:0:0:0:
432,380,243602,2,0,B|448:336|448:336|432:296,1,90,8|8,0:1|0:1,0:0:0:0:
344,140,243955,2,0,B|328:184|328:184|352:244,1,90,8|0,0:0|0:0,0:0:0:0:
448,184,244220,1,0,0:0:0:0:
448,184,244308,6,0,B|464:136|464:136|408:8,1,180,4|8,0:0|0:0,0:0:0:0:
252,0,244837,1,0,0:0:0:0:
344,224,245014,1,8,0:1:0:0:
412,17,245190,1,8,0:1:0:0:
152,128,245367,1,8,0:0:0:0:
344,224,245543,5,0,0:0:0:0:
344,224,245632,1,0,0:0:0:0:
344,224,245720,2,0,P|360:176|336:128,1,90,10|0,0:1|0:0,0:0:0:0:
145,38,246073,2,0,L|152:137,1,90,8|8,0:0|0:1,0:0:0:0:
204,216,246337,1,8,0:1:0:0:
204,216,246426,2,0,P|162:231|118:224,1,90,8|0,0:0|0:1,0:0:0:0:
48,148,246690,1,8,0:1:0:0:
47,148,246779,2,0,P|21:183|15:227,1,90,8|0,0:0|0:1,0:0:0:0:
68,316,247043,1,8,0:1:0:0:
68,316,247132,6,0,P|152:336|252:304,1,180,4|8,0:0|0:0,0:0:0:0:
364,248,247661,1,0,0:0:0:0:
151,127,247837,1,8,0:1:0:0:
280,384,248014,1,8,0:1:0:0:
368,92,248190,1,8,0:0:0:0:
240,311,248367,1,0,0:0:0:0:
240,311,248455,1,0,0:0:0:0:
240,311,248543,6,0,P|310:361|390:329,1,180,10|8,0:1|0:0,0:0:0:0:
512,152,249073,1,0,0:0:0:0:
390,329,249249,1,8,0:1:0:0:
512,152,249426,1,8,0:1:0:0:
390,329,249602,2,0,L|381:239,1,90,8|0,0:0|0:0,0:0:0:0:
364,40,249955,5,8,0:1:0:0:
256,300,250131,1,8,0:0:0:0:
148,40,250308,5,8,0:0:0:0:
381,239,250484,1,8,0:1:0:0:
116,192,250661,5,8,0:0:0:0:
452,136,250837,1,8,0:1:0:0:
240,40,251014,5,8,0:0:0:0:
300,384,251190,2,0,L|312:312,1,45,0|8,0:0|0:0,0:0:0:0:
344,136,251367,5,8,0:1:0:0:
116,332,251543,1,8,0:0:0:0:
57,81,251720,6,0,L|100:96,1,45,8|8,0:0|0:0,0:0:0:0:
255,151,251896,1,4,0:3:0:0:
344,136,252073,6,0,L|235:155,1,90,4|8,0:0|0:3,0:0:0:0:
252,164,252337,1,8,0:3:0:0:
248,176,252426,1,8,0:0:0:0:
204,160,252514,1,8,0:0:0:0:
164,180,252602,1,4,0:3:0:0:
148,224,252690,1,4,0:3:0:0:
172,264,252779,5,2,0:0:0:0:
172,264,253484,2,0,L|180:336,2,67.5,0|0|0,0:0|0:0|0:0,0:0:0:0:
92,196,254190,1,2,0:0:0:0:
92,196,254720,1,8,0:1:0:0:
92,196,254808,1,8,0:1:0:0:
92,196,254896,2,0,L|106:61,2,135,4|0|0,0:0|0:0|0:0,0:0:0:0:
8,256,255602,5,4,0:0:0:0:
8,256,255955,5,8,0:1:0:0:
228,172,256131,1,8,0:1:0:0:
68,80,256308,5,8,0:0:0:0:
384,172,256484,1,8,0:0:0:0:
172,376,256661,5,8,0:0:0:0:
284,28,256837,1,8,0:0:0:0:
384,376,257014,5,4,0:0:0:0:
164,4,257190,1,4,0:0:0:0:
164,4,258073,6,0,P|235:36|307:4,1,162
307,3,259837,6,0,B|280:59|280:107|307:124|307:124|344:139|364:107|368:87|348:59|312:55|236:79|220:99|216:139|216:139|244:219|348:239|412:195|428:135,1,647.99998022461,4|0,0:0|0:0,0:0:0:0:
