osu file format v14

[General]
AudioFilename: audio.mp3
AudioLeadIn: 0
PreviewTime: 132165
Countdown: 0
SampleSet: Soft
StackLeniency: 0.5
Mode: 0
LetterboxInBreaks: 0
EpilepsyWarning: 1
WidescreenStoryboard: 1

[Editor]
Bookmarks: 1490,268308
DistanceSpacing: 0.3
BeatDivisor: 4
GridSize: 4
TimelineZoom: 2.499999

[Metadata]
Title:Sakurairo Time Capsule
TitleUnicode:桜色タイムカプセル
Artist:Suzumu feat. GUMI
ArtistUnicode:スズム feat. GUMI
Creator:Kyuukai
Version:Future
Source:
Tags:kebyou ningen ケビョウニンゲン Feigning Illness Human SUZUMUSIC Cherry Blossom Colored megpoid Kei Nakamura 中村圭 Youkame Ame ga Yamu Mae ni On eighth day before the rain stops 八日目、雨が止む前に vocaloid rock japanese eimi fukada yaleufeu full version
BeatmapID:2506213
BeatmapSetID:1195834

[Difficulty]
HPDrainRate:5.8
CircleSize:4.5
OverallDifficulty:9
ApproachRate:9.4
SliderMultiplier:1.8
SliderTickRate:1

[Events]
//Background and Video events
0,0,"my dad is big shaq.jpg",0,0
//Break Periods
//Storyboard Layer 0 (Background)
Sprite,Background,Centre,"sb\ring.png",377,381 F,0,62195,63195,0.5,0 S,19,62195,63195,0.1,0.3 P,0,62195,63195,A
Sprite,Background,Centre,"sb\ring.png",300,304 F,0,62372,63372,0.5,0 S,19,62372,63372,0.1,0.3 P,0,62372,63372,A
Sprite,Background,Centre,"sb\ring.png",328,198 F,0,62548,63548,0.5,0 S,19,62548,63548,0.1,0.3 P,0,62548,63548,A
Sprite,Background,Centre,"sb\ring.png",433,169 F,0,62725,63725,0.5,0 S,19,62725,63725,0.1,0.3 P,0,62725,63725,A
Sprite,Background,Centre,"sb\ring.png",510,245 F,0,62901,63901,0.5,0 S,19,62901,63901,0.1,0.3 P,0,62901,63901,A
Sprite,Background,Centre,"sb\ring.png",300,304 F,0,63078,64078,0.5,0 S,19,63078,64078,0.1,0.3 P,0,63078,64078,A
Sprite,Background,Centre,"sb\ring.png",141,152 F,0,63254,64254,0.5,0 S,19,63254,64254,0.1,0.3 P,0,63254,64254,A
Sprite,Background,Centre,"sb\ring.png",353,92 F,0,63431,64431,0.5,0 S,19,63431,64431,0.1,0.3 P,0,63431,64431,A
Sprite,Background,Centre,"sb\ring.png",420,355 F,0,63607,64607,0.5,0 S,19,63607,64607,0.1,0.3 P,0,63607,64607,A
Sprite,Background,Centre,"sb\ring.png",304,255 F,0,74901,75901,0.5,0 S,19,74901,75901,0.1,0.3 P,0,74901,75901,A
Sprite,Background,Centre,"sb\ring.png",168,248 F,0,75078,76078,0.5,0 S,19,75078,76078,0.1,0.3 P,0,75078,76078,A
Sprite,Background,Centre,"sb\ring.png",88,356 F,0,75254,76254,0.5,0 S,19,75254,76254,0.1,0.3 P,0,75254,76254,A
Sprite,Background,Centre,"sb\ring.png",236,432 F,0,75431,76431,0.5,0 S,19,75431,76431,0.1,0.3 P,0,75431,76431,A
Sprite,Background,Centre,"sb\ring.png",356,332 F,0,75784,76784,0.5,0 S,19,75784,76784,0.1,0.3 P,0,75784,76784,A
Sprite,Background,Centre,"sb\ring.png",118,388 F,0,75960,76960,0.5,0 S,19,75960,76960,0.1,0.3 P,0,75960,76960,A
Sprite,Background,Centre,"sb\ring.png",356,332 F,0,76137,77137,0.5,0 S,19,76137,77137,0.1,0.3 P,0,76137,77137,A
Sprite,Background,Centre,"sb\ring.png",360,344 F,0,76225,77225,0.5,0 S,19,76225,77225,0.1,0.3 P,0,76225,77225,A
Sprite,Background,Centre,"sb\ring.png",364,356 F,0,76313,77313,0.5,0 S,19,76313,77313,0.1,0.3 P,0,76313,77313,A
Sprite,Background,Centre,"sb\ring.png",276,392 F,0,84078,85078,0.5,0 S,19,84078,85078,0.1,0.3 P,0,84078,85078,A
Sprite,Background,Centre,"sb\ring.png",128,252 F,0,84784,85784,0.5,0 S,19,84784,85784,0.1,0.3 P,0,84784,85784,A
Sprite,Background,Centre,"sb\ring.png",128,252 F,0,85137,86137,0.5,0 S,19,85137,86137,0.1,0.3 P,0,85137,86137,A
Sprite,Background,Centre,"sb\ring.png",235,188 F,0,85313,86313,0.5,0 S,19,85313,86313,0.1,0.3 P,0,85313,86313,A
Sprite,Background,Centre,"sb\ring.png",356,216 F,0,85489,86489,0.5,0 S,19,85489,86489,0.1,0.3 P,0,85489,86489,A
Sprite,Background,Centre,"sb\ring.png",80,166 F,0,85666,86666,0.5,0 S,19,85666,86666,0.1,0.3 P,0,85666,86666,A
Sprite,Background,Centre,"sb\ring.png",244,112 F,0,85842,86842,0.5,0 S,19,85842,86842,0.1,0.3 P,0,85842,86842,A
Sprite,Background,Centre,"sb\ring.png",379,224 F,0,86018,87018,0.5,0 S,19,86018,87018,0.1,0.3 P,0,86018,87018,A
Sprite,Background,Centre,"sb\ring.png",420,408 F,0,86195,87195,0.5,0 S,19,86195,87195,0.1,0.3 P,0,86195,87195,A
Sprite,Background,Centre,"sb\ring.png",219,315 F,0,86372,87372,0.5,0 S,19,86372,87372,0.1,0.3 P,0,86372,87372,A
Sprite,Background,Centre,"sb\ring.png",245,244 F,0,129959,130959,0.5,0 S,19,129959,130959,0.1,0.3 P,0,129959,130959,A
Sprite,Background,Centre,"sb\ring.png",349,271 F,0,130136,131136,0.5,0 S,19,130136,131136,0.1,0.3 P,0,130136,131136,A
Sprite,Background,Centre,"sb\ring.png",426,193 F,0,130312,131312,0.5,0 S,19,130312,131312,0.1,0.3 P,0,130312,131312,A
Sprite,Background,Centre,"sb\ring.png",397,87 F,0,130489,131489,0.5,0 S,19,130489,131489,0.1,0.3 P,0,130489,131489,A
Sprite,Background,Centre,"sb\ring.png",292,59 F,0,130665,131665,0.5,0 S,19,130665,131665,0.1,0.3 P,0,130665,131665,A
Sprite,Background,Centre,"sb\ring.png",349,271 F,0,130842,131842,0.5,0 S,19,130842,131842,0.1,0.3 P,0,130842,131842,A
Sprite,Background,Centre,"sb\ring.png",560,328 F,0,131018,132018,0.5,0 S,19,131018,132018,0.1,0.3 P,0,131018,132018,A
Sprite,Background,Centre,"sb\ring.png",503,116 F,0,131194,132194,0.5,0 S,19,131194,132194,0.1,0.3 P,0,131194,132194,A
Sprite,Background,Centre,"sb\ring.png",349,271 F,0,131371,132371,0.5,0 S,19,131371,132371,0.1,0.3 P,0,131371,132371,A
Sprite,Background,Centre,"sb\ring.png",384,414 F,0,142665,143665,0.5,0 S,19,142665,143665,0.1,0.3 P,0,142665,143665,A
Sprite,Background,Centre,"sb\ring.png",318,314 F,0,142842,143842,0.5,0 S,19,142842,143842,0.1,0.3 P,0,142842,143842,A
Sprite,Background,Centre,"sb\ring.png",210,260 F,0,143018,144018,0.5,0 S,19,143018,144018,0.1,0.3 P,0,143018,144018,A
Sprite,Background,Centre,"sb\ring.png",120,428 F,0,143195,144195,0.5,0 S,19,143195,144195,0.1,0.3 P,0,143195,144195,A
Sprite,Background,Centre,"sb\ring.png",340,403 F,0,143548,144548,0.5,0 S,19,143548,144548,0.1,0.3 P,0,143548,144548,A
Sprite,Background,Centre,"sb\ring.png",120,428 F,0,143724,144724,0.5,0 S,19,143724,144724,0.1,0.3 P,0,143724,144724,A
Sprite,Background,Centre,"sb\ring.png",332,320 F,0,143901,144901,0.5,0 S,19,143901,144901,0.1,0.3 P,0,143901,144901,A
Sprite,Background,Centre,"sb\ring.png",344,325 F,0,143989,144989,0.5,0 S,19,143989,144989,0.1,0.3 P,0,143989,144989,A
Sprite,Background,Centre,"sb\ring.png",356,330 F,0,144077,145077,0.5,0 S,19,144077,145077,0.1,0.3 P,0,144077,145077,A
Sprite,Background,Centre,"sb\ring.png",212,224 F,0,151842,152842,0.5,0 S,19,151842,152842,0.1,0.3 P,0,151842,152842,A
Sprite,Background,Centre,"sb\ring.png",376,96 F,0,152548,153548,0.5,0 S,19,152548,153548,0.1,0.3 P,0,152548,153548,A
Sprite,Background,Centre,"sb\ring.png",376,96 F,0,152901,153901,0.5,0 S,19,152901,153901,0.1,0.3 P,0,152901,153901,A
Sprite,Background,Centre,"sb\ring.png",388,219 F,0,153077,154077,0.5,0 S,19,153077,154077,0.1,0.3 P,0,153077,154077,A
Sprite,Background,Centre,"sb\ring.png",311,317 F,0,153253,154253,0.5,0 S,19,153253,154253,0.1,0.3 P,0,153253,154253,A
Sprite,Background,Centre,"sb\ring.png",480,96 F,0,153430,154430,0.5,0 S,19,153430,154430,0.1,0.3 P,0,153430,154430,A
Sprite,Background,Centre,"sb\ring.png",459,267 F,0,153606,154606,0.5,0 S,19,153606,154606,0.1,0.3 P,0,153606,154606,A
Sprite,Background,Centre,"sb\ring.png",300,342 F,0,153782,154782,0.5,0 S,19,153782,154782,0.1,0.3 P,0,153782,154782,A
Sprite,Background,Centre,"sb\ring.png",116,316 F,0,153959,154959,0.5,0 S,19,153959,154959,0.1,0.3 P,0,153959,154959,A
Sprite,Background,Centre,"sb\ring.png",64,168 F,0,154136,155136,0.5,0 S,19,154136,155136,0.1,0.3 P,0,154136,155136,A
Sprite,Background,Centre,"sb\ring.png",351,130 F,0,227370,228370,0.5,0 S,19,227370,228370,0.1,0.3 P,0,227370,228370,A
Sprite,Background,Centre,"sb\ring.png",240,221 F,0,227546,228546,0.5,0 S,19,227546,228546,0.1,0.3 P,0,227546,228546,A
Sprite,Background,Centre,"sb\ring.png",148,116 F,0,227723,228723,0.5,0 S,19,227723,228723,0.1,0.3 P,0,227723,228723,A
Sprite,Background,Centre,"sb\ring.png",112,376 F,0,227899,228899,0.5,0 S,19,227899,228899,0.1,0.3 P,0,227899,228899,A
Sprite,Background,Centre,"sb\ring.png",376,316 F,0,228252,229252,0.5,0 S,19,228252,229252,0.1,0.3 P,0,228252,229252,A
Sprite,Background,Centre,"sb\ring.png",112,376 F,0,228429,229429,0.5,0 S,19,228429,229429,0.1,0.3 P,0,228429,229429,A
Sprite,Background,Centre,"sb\ring.png",66,275 F,0,228605,229605,0.5,0 S,19,228605,229605,0.1,0.3 P,0,228605,229605,A
Sprite,Background,Centre,"sb\ring.png",112,376 F,0,228781,229781,0.5,0 S,19,228781,229781,0.1,0.3 P,0,228781,229781,A
Sprite,Background,Centre,"sb\ring.png",368,248 F,0,236546,237546,0.5,0 S,19,236546,237546,0.1,0.3 P,0,236546,237546,A
Sprite,Background,Centre,"sb\ring.png",424,380 F,0,237252,238252,0.5,0 S,19,237252,238252,0.1,0.3 P,0,237252,238252,A
Sprite,Background,Centre,"sb\ring.png",424,380 F,0,237605,238605,0.5,0 S,19,237605,238605,0.1,0.3 P,0,237605,238605,A
Sprite,Background,Centre,"sb\ring.png",252,304 F,0,237781,238781,0.5,0 S,19,237781,238781,0.1,0.3 P,0,237781,238781,A
Sprite,Background,Centre,"sb\ring.png",232,117 F,0,237958,238958,0.5,0 S,19,237958,238958,0.1,0.3 P,0,237958,238958,A
Sprite,Background,Centre,"sb\ring.png",416,416 F,0,238134,239134,0.5,0 S,19,238134,239134,0.1,0.3 P,0,238134,239134,A
Sprite,Background,Centre,"sb\ring.png",232,308 F,0,238310,239310,0.5,0 S,19,238310,239310,0.1,0.3 P,0,238310,239310,A
Sprite,Background,Centre,"sb\ring.png",264,96 F,0,238487,239487,0.5,0 S,19,238487,239487,0.1,0.3 P,0,238487,239487,A
Sprite,Background,Centre,"sb\ring.png",441,196 F,0,238664,239664,0.5,0 S,19,238664,239664,0.1,0.3 P,0,238664,239664,A
Sprite,Background,Centre,"sb\ring.png",232,308 F,0,238840,239840,0.5,0 S,19,238840,239840,0.1,0.3 P,0,238840,239840,A
//Storyboard Layer 1 (Fail)
//Storyboard Layer 2 (Pass)
//Storyboard Layer 3 (Foreground)
//Storyboard Layer 4 (Overlay)
//Storyboard Sound Samples

[TimingPoints]
1490,352.941176470588,4,2,1,40,1,0
1490,-200,4,2,1,40,0,0
9960,-142.857142857143,4,2,1,40,0,0
15166,-166.666666666667,4,2,1,5,0,0
15254,-125,4,2,1,40,0,0
15519,-125,4,2,1,5,0,0
15607,-100,4,2,1,60,0,0
26548,-80,4,2,1,60,0,0
26901,-250,4,2,1,40,0,0
29725,-166.666666666667,4,2,1,40,0,0
31137,-125,4,2,1,50,0,0
42431,-111.111111111111,4,2,1,60,0,0
53725,-142.857142857143,4,2,1,50,0,0
59372,-500,4,2,1,40,0,0
59989,-500,4,2,1,5,0,0
60078,-333.333333333333,4,2,1,40,0,0
60695,-333.333333333333,4,2,1,5,0,0
60784,-250,4,2,1,40,0,0
61401,-250,4,2,1,5,0,0
61489,-200,4,2,1,70,0,0
62107,-200,4,2,1,5,0,0
62195,-71.4285714285714,4,2,1,70,0,0
63607,-200,4,2,1,70,0,0
64489,-200,4,2,1,30,0,0
65019,-83.3333333333333,4,2,1,80,0,1
70666,-83.3333333333333,4,2,1,80,0,0
71019,-83.3333333333333,4,2,1,80,0,1
72078,-83.3333333333333,4,2,1,80,0,0
72431,-83.3333333333333,4,2,1,80,0,1
73313,-83.3333333333333,4,2,1,80,0,0
73489,-83.3333333333333,4,2,1,80,0,1
74901,-100,4,2,1,80,0,0
75431,-66.6666666666667,4,2,1,80,0,1
75519,-66.6666666666667,4,2,1,80,0,0
75695,-66.6666666666667,4,2,1,5,0,0
75784,-500,4,2,1,80,0,1
75872,-500,4,2,1,80,0,0
76313,-83.3333333333333,4,2,1,80,0,1
81960,-200,4,2,1,40,0,0
83372,-166.666666666667,4,2,1,60,0,0
84078,-100,4,2,1,80,0,0
84784,-76.9230769230769,4,2,1,80,0,1
86372,-76.9230769230769,4,2,1,80,0,0
86901,-200,4,2,1,80,0,0
87254,-133.333333333333,4,2,1,80,0,0
87607,-100,4,2,1,60,0,0
98901,-250,4,2,1,40,0,0
100313,-166.666666666667,4,2,1,50,0,0
101019,-133.333333333333,4,2,1,50,0,0
101725,-111.111111111111,4,2,1,60,0,0
108784,-100,4,2,1,50,0,0
109489,340.909090909091,4,2,1,40,1,0
109489,-125,4,2,1,40,0,0
110170,353.460972017673,4,2,1,50,1,0
110170,-111.111111111111,4,2,1,50,0,0
110523,357.142857142857,4,2,1,60,1,0
110523,-111.111111111111,4,2,1,60,0,0
111607,352.941176470588,4,2,1,60,1,0
111607,-111.111111111111,4,2,1,60,0,0
121489,-142.857142857143,4,2,1,50,0,0
127136,-500,4,2,1,30,0,0
127754,-500,4,2,1,5,0,0
127842,-333.333333333333,4,2,1,40,0,0
128459,-333.333333333333,4,2,1,5,0,0
128548,-250,4,2,1,50,0,0
129165,-250,4,2,1,5,0,0
129253,-200,4,2,1,60,0,0
129871,-200,4,2,1,5,0,0
129959,-71.4285714285714,4,2,1,70,0,0
131724,-333.333333333333,4,2,1,70,0,0
132077,-100,4,2,1,70,0,0
132254,-80,4,2,1,70,0,0
132430,-66.6666666666667,4,2,1,70,0,0
132783,-83.3333333333333,4,2,1,80,0,1
138430,-83.3333333333333,4,2,1,80,0,0
138783,-83.3333333333333,4,2,1,80,0,1
139842,-83.3333333333333,4,2,1,80,0,0
140195,-83.3333333333333,4,2,1,80,0,1
141077,-83.3333333333333,4,2,1,80,0,0
141254,-83.3333333333333,4,2,1,80,0,1
142665,-100,4,2,1,80,0,0
143195,-66.6666666666667,4,2,1,80,0,1
143283,-66.6666666666667,4,2,1,80,0,0
143459,-66.6666666666667,4,2,1,5,0,0
143548,-500,4,2,1,80,0,1
143636,-500,4,2,1,80,0,0
144077,-83.3333333333333,4,2,1,80,0,1
149724,-200,4,2,1,40,0,0
151136,-166.666666666667,4,2,1,60,0,0
151842,-100,4,2,1,80,0,0
152548,-76.9230769230769,4,2,1,80,0,1
154136,-76.9230769230769,4,2,1,80,0,0
154312,-333.333333333333,4,2,1,80,0,0
155283,-333.333333333333,4,2,1,5,0,0
155371,-250,4,2,1,40,0,0
166665,-166.666666666667,4,2,1,40,0,0
172312,-333.333333333333,4,2,1,40,0,0
175136,-111.111111111111,4,2,1,60,0,0
176548,-99.9999999999999,4,2,1,65,0,0
177077,-83.3333333333333,4,2,1,65,0,0
177959,-76.9230769230769,4,2,1,70,0,0
179371,344.827586206897,4,2,1,70,1,0
179371,-76.9230769230769,4,2,1,70,0,0
180233,370.37037037037,4,2,1,70,1,0
180418,370.37037037037,4,2,1,70,1,0
180788,348.837209302326,4,2,1,70,1,0
180788,-76.9230769230769,4,2,1,70,0,0
181136,333.333333333333,4,2,1,70,1,0
181469,348.837209302326,4,2,1,70,1,0
181469,-76.9230769230769,4,2,1,70,0,0
181817,375,4,2,1,70,1,0
181817,-76.9230769230769,4,2,1,70,0,0
182192,357.142857142857,4,2,1,70,1,0
182192,-76.9230769230769,4,2,1,70,0,0
182549,344.827586206897,4,2,1,70,1,0
182893,-76.9230769230769,4,2,1,70,0,0
183238,357.142857142857,4,2,1,70,1,0
183595,352.941176470588,4,2,1,70,1,0
183595,-71.4285714285714,4,2,1,80,0,0
183947,-50,4,2,1,70,0,0
184124,340.909090909091,4,2,1,70,1,0
184124,-71.4285714285714,4,2,1,80,0,0
184464,352.941176470588,4,2,1,80,1,0
184464,-71.4285714285714,4,2,1,80,0,0
184993,352.941176470588,4,2,1,80,1,0
184993,-71.4285714285714,4,2,1,80,0,0
185345,-50,4,2,1,70,0,0
185522,-71.4285714285714,4,2,1,80,0,0
185698,361.44578313253,4,2,1,80,1,0
185969,315.789473684211,4,2,1,80,1,0
186127,285.714285714286,4,2,1,80,1,0
186412,344.827586206897,4,2,1,80,1,0
186412,-66.6666666666667,4,2,1,80,0,0
186670,337.078651685393,4,2,1,80,1,0
186670,-66.6666666666667,4,2,1,80,0,0
186922,315.789473684211,4,2,1,80,1,0
186922,-66.6666666666667,4,2,1,80,0,0
187158,322.58064516129,4,2,1,80,1,0
187158,-66.6666666666667,4,2,1,80,0,0
187883,-500,4,2,1,70,0,0
189174,-333.333333333333,4,2,1,5,0,0
189254,352.941176470588,4,2,1,40,1,0
189254,-166.666666666667,4,2,1,40,0,0
197724,-333.333333333334,4,2,1,40,0,0
200548,-142.857142857143,4,2,1,50,0,0
206195,368.098159509202,4,2,1,30,1,0
206195,-200,4,2,1,30,0,0
206931,342.857142857143,4,2,1,30,1,0
206931,-333.333333333333,4,2,1,30,0,0
207531,-333.333333333333,4,2,1,5,0,0
207616,361.44578313253,4,2,1,30,1,0
207616,-250.000000000001,4,2,1,30,0,0
208248,-250.000000000001,4,2,1,5,0,0
208338,-200,4,2,1,30,0,0
208971,-200,4,2,1,5,0,0
209061,-333.333333333334,4,2,1,40,0,0
209784,-333.333333333334,4,2,1,5,0,0
210077,352.941176470588,4,2,1,40,1,0
210077,-200,4,2,1,40,0,0
210429,352.941176470588,4,2,1,40,1,0
210429,-166.666666666667,4,2,1,40,0,0
211134,-250,4,2,1,60,0,0
211752,-250,4,2,1,5,0,0
211840,-100,4,2,1,70,0,0
213605,-125,4,2,1,50,0,0
213958,-100,4,2,1,60,0,0
214663,333.333333333333,4,2,1,80,1,0
214663,-200,4,2,1,80,0,0
214996,375,4,2,1,80,1,0
214996,-66.6666666666667,4,2,1,80,0,0
215277,-66.6666666666667,4,2,1,5,0,0
215369,352.941176470588,4,2,1,80,1,0
215369,-50,4,2,1,80,0,0
216074,348.837209302326,4,2,1,80,1,0
216074,-200,4,2,1,80,0,0
216858,-200,4,2,1,5,0,0
216946,-500,4,2,1,30,0,0
217469,370.37037037037,4,2,1,80,1,0
217469,-83.3333333333333,4,2,1,80,0,1
217839,352.941176470588,4,2,1,80,1,1
218015,352.941176470588,4,2,1,80,1,1
218015,-83.3333333333333,4,2,1,80,0,1
218897,352.941176470588,4,2,1,80,1,1
218897,-83.3333333333333,4,2,1,80,0,1
222603,333.333333333333,4,2,1,80,1,1
222603,-83.3333333333333,4,2,1,80,0,1
222769,352.941176470588,4,2,1,80,1,1
222945,375,4,2,1,80,1,1
222945,-83.3333333333333,4,2,1,80,0,1
223132,352.941176470588,4,2,1,80,1,0
223132,-83.3333333333333,4,2,1,80,0,0
223484,-83.3333333333333,4,2,1,80,0,1
224543,-83.3333333333333,4,2,1,80,0,0
224896,-83.3333333333333,4,2,1,80,0,1
225779,-83.3333333333333,4,2,1,80,0,0
225955,-83.3333333333333,4,2,1,80,0,1
227367,-76.9230769230769,4,2,1,80,0,0
227896,-66.6666666666667,4,2,1,80,0,1
227984,-66.6666666666667,4,2,1,80,0,0
228161,-66.6666666666667,4,2,1,5,0,0
228249,-500,4,2,1,80,0,1
228337,-500,4,2,1,80,0,0
228779,-66.6666666666667,4,2,1,80,0,0
229132,-71.4285714285714,4,2,1,80,0,1
234426,-200,4,2,1,60,0,0
235837,-166.666666666667,4,2,1,80,0,0
236543,-100,4,2,1,80,0,0
237249,-71.4285714285714,4,2,1,80,0,1
238837,-71.4285714285714,4,2,1,80,0,0
239367,-1000,4,2,1,20,0,0
241131,-125,4,2,1,40,0,0
241484,-90.9090909090909,4,2,1,60,0,0
252778,-200,4,2,1,60,0,0
254190,-166.666666666667,4,2,1,60,0,0
254896,-100,4,2,1,70,0,0
255602,-71.4285714285714,4,2,1,70,0,0
258073,-500,4,2,1,20,0,0
259661,-500,4,2,1,5,0,0
259837,-1000,4,2,1,70,0,0
268308,-1000,4,2,1,5,0,0

[Colours]
Combo1 : 207,207,207
Combo2 : 255,128,192
Combo3 : 255,128,128
Combo4 : 66,160,255

[HitObjects]
437,193,1490,6,0,P|437:154|402:173,1,90,2|0,0:0|0:0,0:0:0:0:
365,254,2019,2,0,L|320:261,1,45,2|0,0:0|0:0,0:0:0:0:
356,269,2372,2,0,L|311:276,1,45,2|0,0:0|0:0,0:0:0:0:
420,346,2725,1,2,0:0:0:0:
347,285,2901,6,0,L|302:292,1,45,2|0,0:0|0:0,0:0:0:0:
414,363,3254,1,2,0:0:0:0:
492,275,3431,2,0,L|485:230,1,45,2|0,0:0|0:0,0:0:0:0:
366,87,3784,1,2,0:0:0:0:
344,158,3960,1,2,0:0:0:0:
416,146,4137,1,2,0:0:0:0:
257,90,4313,6,0,P|212:111|163:98,1,90,2|2,0:0|0:0,0:0:0:0:
29,14,5019,2,0,P|66:38|82:79,1,90,2|2,0:0|0:0,0:0:0:0:
86,293,5725,2,0,B|75:203|75:203|106:171,1,135,2|2,0:0|0:0,0:0:0:0:
159,232,6431,1,2,0:0:0:0:
96,369,7137,5,2,0:0:0:0:
248,331,7489,1,0,0:0:0:0:
196,272,7666,1,2,0:0:0:0:
196,272,7842,2,0,L|199:227,1,45,2|0,0:0|0:0,0:0:0:0:
316,272,8195,1,2,0:0:0:0:
306,148,8372,1,2,0:0:0:0:
316,272,8548,6,0,L|312:227,1,45,2|0,0:0|0:0,0:0:0:0:
298,70,8901,1,2,0:0:0:0:
234,117,9078,1,2,0:0:0:0:
421,98,9431,1,2,0:0:0:0:
361,23,9784,1,2,0:0:0:0:
435,112,9960,6,0,B|451:175|451:175|430:240,1,125.999996154785,2|2,0:0|0:0,0:0:0:0:
381,347,10489,1,0,0:0:0:0:
318,299,10666,2,0,P|289:284|258:282,1,62.9999980773926,2|0,0:0|0:0,0:0:0:0:
181,280,11019,2,0,P|148:281|120:295,1,62.9999980773926,2|0,0:0|0:0,0:0:0:0:
55,336,11372,6,0,P|27:353|10:379,2,62.9999980773926,2|0|2,0:0|0:0|0:0,0:0:0:0:
121,294,11901,1,0,0:0:0:0:
51,258,12078,2,0,P|33:230|7:213,2,62.9999980773926,2|0|2,0:0|0:0|0:0,0:0:0:0:
55,336,12607,1,0,0:0:0:0:
131,184,12784,5,2,0:0:0:0:
206,161,13137,5,2,0:0:0:0:
188,238,13313,1,0,0:0:0:0:
131,184,13489,1,2,0:0:0:0:
264,214,13666,5,2,0:0:0:0:
170,315,13842,1,2,0:0:0:0:
131,184,14019,1,2,0:0:0:0:
264,68,14195,5,2,0:0:0:0:
452,100,14372,1,2,0:0:0:0:
496,284,14548,5,2,0:0:0:0:
256,364,14725,1,2,0:0:0:0:
198,310,14901,6,0,B|195:256|226:268|223:208,1,94.499997116089,2|0,0:0|0:0,0:0:0:0:
136,133,15254,6,0,B|168:163|168:163|142:189|145:221,1,108,4|0,0:3|0:0,0:0:0:0:
60,264,15607,6,0,L|38:85,1,180,4|8,0:0|0:0,0:0:0:0:
276,40,16137,1,0,0:0:0:0:
220,115,16313,2,0,L|116:103,1,90,8|8,0:1|0:1,0:0:0:0:
376,36,16666,2,0,L|286:25,1,90,8|0,0:0|0:0,0:0:0:0:
115,212,17019,6,0,B|91:181|91:181|230:198,1,180,10|8,0:1|0:0,0:0:0:0:
386,311,17548,1,0,0:0:0:0:
430,228,17725,2,0,P|472:272|478:314,1,90,8|8,0:1|0:1,0:0:0:0:
341,144,18078,2,0,P|385:102|427:96,1,90,8|0,0:0|0:0,0:0:0:0:
420,108,18342,1,0,0:0:0:0:
428,120,18431,6,0,L|230:96,1,180,10|8,0:1|0:0,0:0:0:0:
56,152,18960,1,0,0:0:0:0:
62,27,19137,1,8,0:1:0:0:
168,92,19313,1,8,0:1:0:0:
62,27,19489,1,8,0:0:0:0:
56,152,19666,5,0,0:0:0:0:
63,159,19754,1,0,0:0:0:0:
71,166,19842,2,0,L|64:267,1,90,10|0,0:1|0:0,0:0:0:0:
256,376,20195,2,0,L|262:286,1,90,8|8,0:0|0:1,0:0:0:0:
268,293,20460,1,8,0:1:0:0:
273,301,20548,1,8,0:0:0:0:
216,88,20725,1,8,0:1:0:0:
312,112,20901,2,0,L|222:105,1,90,8|0,0:0|0:0,0:0:0:0:
433,5,21254,6,0,B|428:66|428:66|457:114|457:114|450:178,1,180,4|8,0:0|0:0,0:0:0:0:
273,301,21784,1,0,0:0:0:0:
208,260,21960,1,8,0:1:0:0:
412,300,22137,1,8,0:1:0:0:
452,96,22313,1,8,0:0:0:0:
248,56,22489,1,0,0:0:0:0:
308,184,22666,6,0,B|205:163|205:163|176:172|176:172|104:160,1,180,10|8,0:1|0:0,0:0:0:0:
35,301,23195,1,0,0:0:0:0:
208,260,23372,1,8,0:1:0:0:
40,312,23548,1,8,0:1:0:0:
213,271,23725,1,8,0:0:0:0:
338,383,23901,1,0,0:0:0:0:
343,372,23989,1,0,0:0:0:0:
348,361,24078,6,0,B|448:360|398:268|523:286,1,180,4|8,0:0|0:0,0:0:0:0:
497,377,24607,1,0,0:0:0:0:
428,144,24784,1,8,0:1:0:0:
509,99,24960,1,8,0:1:0:0:
500,283,25137,1,8,0:0:0:0:
426,237,25313,1,0,0:0:0:0:
348,94,25489,5,8,0:1:0:0:
512,4,25666,1,8,0:0:0:0:
320,72,25842,1,8,0:0:0:0:
512,4,26019,1,8,0:1:0:0:
426,237,26195,1,8,0:0:0:0:
380,8,26372,5,8,0:0:0:0:
388,4,26460,1,8,0:0:0:0:
396,0,26548,2,0,P|418:28|408:37,1,56.25,8|8,0:0|0:3,0:0:0:0:
391,128,26725,2,0,P|369:141|352:122,1,56.25,8|8,0:3|0:3,0:0:0:0:
272,24,26901,6,0,L|165:38,1,108,4|0,0:0|0:0,0:0:0:0:
100,128,27607,2,0,P|47:119|2:147,1,108,2|0,0:0|0:0,0:0:0:0:
165,252,28313,6,0,P|120:224|68:232,1,108,2|0,0:0|0:0,0:0:0:0:
216,348,29019,2,0,L|323:334,1,108,2|0,0:0|0:0,0:0:0:0:
332,324,29725,5,2,0:0:0:0:
440,300,30078,1,2,0:0:0:0:
416,192,30431,1,2,0:0:0:0:
308,216,30784,1,4,0:3:0:0:
416,192,30960,5,4,0:3:0:0:
412,184,31048,1,8,0:3:0:0:
408,176,31137,2,0,B|436:84|436:84|412:32,1,144,4|10,0:0|0:1,0:0:0:0:
332,92,31666,1,0,0:0:0:0:
328,80,31842,1,10,0:1:0:0:
248,140,32019,1,0,0:0:0:0:
244,128,32195,1,10,0:1:0:0:
160,172,32372,1,0,0:0:0:0:
0,48,32548,5,10,0:1:0:0:
113,4,32725,2,0,L|104:76,1,72,0|10,0:0|0:1,0:0:0:0:
160,172,33078,2,0,L|141:314,1,144,0|0,0:0|0:0,0:0:0:0:
12,368,33607,1,10,0:1:0:0:
67,291,33784,1,0,0:0:0:0:
256,256,33960,6,0,L|398:274,1,144,10|10,0:1|0:1,0:0:0:0:
392,136,34489,1,0,0:0:0:0:
280,35,34666,2,0,L|262:178,1,144,10|10,0:1|0:1,0:0:0:0:
368,0,35195,1,0,0:0:0:0:
368,0,35372,1,10,0:1:0:0:
510,92,35548,6,0,L|500:164,1,72,2|10,0:0|0:1,0:0:0:0:
484,288,35901,1,2,0:0:0:0:
395,163,36078,2,0,L|406:235,2,72,10|0|10,0:1|0:0|0:1,0:0:0:0:
309,240,36607,1,2,0:0:0:0:
424,364,36784,6,0,L|248:354,1,144,10|10,0:1|0:1,0:0:0:0:
80,257,37313,2,0,P|146:279|204:240,1,144,0|0,0:0|0:0,0:0:0:0:
248,156,37842,1,10,0:1:0:0:
204,72,38019,1,0,0:0:0:0:
360,28,38195,6,0,P|426:6|483:45,1,144,10|10,0:1|0:1,0:0:0:0:
390,197,38725,1,0,0:0:0:0:
376,112,38901,1,10,0:1:0:0:
400,204,39078,1,0,0:0:0:0:
386,119,39254,1,10,0:1:0:0:
408,212,39431,1,0,0:0:0:0:
328,308,39607,6,0,B|240:288|272:356|176:336,1,144,10|10,0:1|0:1,0:0:0:0:
84,196,40137,1,0,0:0:0:0:
84,196,40313,2,0,B|116:176|116:176|102:282,1,144,10|10,0:1|0:1,0:0:0:0:
8,252,41019,5,10,0:1:0:0:
60,88,41195,1,2,0:0:0:0:
148,24,41372,5,10,0:1:0:0:
208,216,41548,1,2,0:0:0:0:
61,353,41725,1,10,0:0:0:0:
176,224,41901,5,8,0:0:0:0:
208,216,41989,1,8,0:0:0:0:
240,208,42078,1,8,0:0:0:0:
260,204,42166,1,4,0:3:0:0:
276,200,42254,1,4,0:3:0:0:
288,196,42342,1,4,0:3:0:0:
364,172,42431,6,0,B|372:204|372:204|356:232|356:232|380:344,1,161.999995056153,4|8,0:0|0:0,0:0:0:0:
300,380,42960,1,0,0:0:0:0:
212,344,43137,1,8,0:1:0:0:
200,252,43313,1,8,0:1:0:0:
276,198,43489,1,8,0:0:0:0:
364,234,43666,1,0,0:0:0:0:
212,344,43842,5,10,0:1:0:0:
124,308,44019,2,0,L|114:227,1,80.9999975280763,0|8,0:0|0:0,0:0:0:0:
180,91,44372,2,0,L|199:251,1,161.999995056153,10|0,0:1|0:0,0:0:0:0:
312,308,44901,1,8,0:0:0:0:
424,248,45078,1,0,0:0:0:0:
424,124,45254,6,0,B|376:108|376:108|324:152|244:108,1,161.999995056153,10|8,0:1|0:0,0:0:0:0:
160,208,45784,1,0,0:0:0:0:
271,120,45960,2,0,B|223:136|223:136|171:92|91:136,1,161.999995056153,8|8,0:1|0:0,0:0:0:0:
12,144,46489,1,0,0:0:0:0:
160,208,46666,5,8,0:1:0:0:
168,304,46842,2,0,L|172:220,1,80.9999975280763,2|8,0:0|0:0,0:0:0:0:
118,123,47195,1,2,0:0:0:0:
176,24,47372,1,8,0:1:0:0:
288,48,47548,1,8,0:1:0:0:
118,123,47725,2,0,L|198:119,1,80.9999975280763,8|0,0:0|0:0,0:0:0:0:
449,56,48078,6,0,L|287:47,1,161.999995056153,10|8,0:1|0:0,0:0:0:0:
194,199,48607,2,0,L|198:119,2,80.9999975280763,0|8|8,0:0|0:1|0:1,0:0:0:0:
188,292,49137,1,8,0:0:0:0:
108,240,49313,1,0,0:0:0:0:
198,118,49489,6,0,L|359:126,1,161.999995056153,10|8,0:1|0:0,0:0:0:0:
450,142,50019,1,0,0:0:0:0:
482,229,50196,1,8,0:1:0:0:
422,300,50372,1,8,0:1:0:0:
300,197,50549,1,8,0:0:0:0:
160,260,50725,1,0,0:0:0:0:
212,379,50901,6,0,B|188:347|188:347|66:361,1,161.999995056153,10|8,0:1|0:0,0:0:0:0:
240,248,51431,1,0,0:0:0:0:
300,197,51607,2,0,B|276:165|276:165|144:181,1,161.999995056153,8|8,0:1|0:0,0:0:0:0:
212,52,52137,1,0,0:0:0:0:
51,71,52313,6,0,L|211:52,1,161.999995056153,10|8,0:1|0:0,0:0:0:0:
464,24,52842,1,8,0:1:0:0:
468,28,52931,1,8,0:1:0:0:
472,32,53019,1,8,0:0:0:0:
412,280,53195,1,8,0:3:0:0:
408,100,53372,1,4,0:3:0:0:
444,188,53548,1,4,0:3:0:0:
296,384,53725,6,0,P|220:372|184:328,1,125.999996154785,4|0,0:0|0:0,0:0:0:0:
152,252,54254,1,8,0:1:0:0:
265,159,54431,2,0,P|292:215|280:276,1,125.999996154785,8|0,0:0|0:0,0:0:0:0:
189,241,54960,1,8,0:1:0:0:
280,276,55137,1,0,0:0:0:0:
96,312,55313,6,0,P|130:260|189:241,1,125.999996154785,8|8,0:0|0:1,0:0:0:0:
280,276,55842,1,10,0:0:0:0:
368,236,56019,1,2,0:0:0:0:
378,140,56195,1,2,0:0:0:0:
300,84,56372,1,2,0:0:0:0:
368,236,56548,6,0,P|428:220|469:168,1,125.999996154785,8|0,0:1|0:0,0:0:0:0:
380,8,57078,1,8,0:1:0:0:
376,16,57166,1,8,0:1:0:0:
372,22,57254,2,0,P|355:81|380:143,1,125.999996154785,8|0,0:0|0:0,0:0:0:0:
467,172,57784,1,8,0:1:0:0:
452,76,57960,1,8,0:1:0:0:
320,80,58137,2,0,P|260:63|198:88,1,125.999996154785,8|4,0:0|0:3,0:0:0:0:
84,192,58666,6,0,L|96:84,1,83.9999974365235,8|8,0:0|0:3,0:0:0:0:
136,48,59019,5,8,0:3:0:0:
202,85,59137,5,4,0:3:0:0:
212,160,59254,5,4,0:3:0:0:
156,208,59372,6,0,L|148:276,1,63,2|0,0:0|0:0,0:0:0:0:
224,300,60078,6,0,L|235:206,1,94.4999971160889,2|0,0:0|0:0,0:0:0:0:
328,200,60784,6,0,L|313:325,1,126,2|0,0:0|0:0,0:0:0:0:
408,380,61489,6,0,P|469:358|420:315,1,157.5,4|0,0:0|0:0,0:0:0:0:
313,325,62195,1,4,0:0:0:0:
236,248,62372,1,0,0:0:0:0:
264,142,62548,1,8,0:0:0:0:
369,113,62725,1,8,0:0:0:0:
446,189,62901,5,8,0:0:0:0:
236,248,63078,1,8,0:0:0:0:
77,96,63254,1,8,0:0:0:0:
289,36,63431,1,8,0:0:0:0:
356,299,63607,6,0,P|300:362|154:346,1,225,4|2,0:0|0:0,0:0:0:0:
167,356,64842,1,2,0:0:0:0:
77,384,65019,6,0,B|60:339|60:339|133:240|133:240|109:188,1,215.999993408203,4|8,0:0|0:0,0:0:0:0:
16,77,65548,2,0,P|59:107|112:104,1,107.999996704102,0|10,0:0|0:1,0:0:0:0:
271,2,65901,2,0,P|223:24|200:72,2,107.999996704102,8|8|0,0:1|0:0|0:0,0:0:0:0:
512,136,66431,5,10,0:1:0:0:
340,228,66607,1,0,0:0:0:0:
340,228,66784,1,8,0:0:0:0:
484,332,66960,1,0,0:0:0:0:
428,120,67137,2,0,L|288:92,1,107.999996704102,2|0,0:1|0:0,0:0:0:0:
484,332,67489,5,8,0:0:0:0:
452,228,67666,1,0,0:0:0:0:
296,340,67842,2,0,L|156:312,1,107.999996704102,10|0,0:1|0:0,0:0:0:0:
28,192,68195,1,8,0:0:0:0:
309,245,68372,2,0,L|204:224,1,107.999996704102,0|10,0:0|0:1,0:0:0:0:
52,348,68725,1,0,0:0:0:0:
184,152,68901,1,8,0:0:0:0:
156,31,69078,1,0,0:0:0:0:
28,192,69254,6,0,P|68:228|73:280,1,107.999996704102,10|0,0:1|0:0,0:0:0:0:
280,376,69607,1,8,0:0:0:0:
187,383,69784,2,0,P|192:331|232:295,1,107.999996704102,8|10,0:1|0:1,0:0:0:0:
428,360,70137,1,2,0:0:0:0:
168,216,70313,1,10,0:0:0:0:
344,288,70489,1,8,0:0:0:0:
356,284,70578,1,8,0:0:0:0:
368,280,70666,5,8,0:1:0:0:
432,344,70842,1,8,0:1:0:0:
512,0,71019,1,4,0:0:0:0:
283,125,71195,2,0,B|311:122|327:109|327:109|388:116,1,107.999996704102,2|8,0:0|0:1,0:0:0:0:
167,41,71548,2,0,B|228:48|228:48|244:35|272:32,1,107.999996704102,2|8,0:0|0:0,0:0:0:0:
48,32,71901,1,8,0:0:0:0:
52,44,71990,1,8,0:0:0:0:
56,56,72078,5,8,0:1:0:0:
16,136,72254,1,8,0:1:0:0:
387,115,72431,1,4,0:0:0:0:
184,192,72607,2,0,B|156:195|140:208|140:208|79:201,1,107.999996704102,2|8,0:0|0:1,0:0:0:0:
195,285,72960,2,0,B|223:282|239:269|239:269|300:276,1,107.999996704102,2|8,0:0|0:0,0:0:0:0:
44,312,73313,1,2,0:0:0:0:
300,276,73489,6,0,L|407:263,1,107.999996704102,4|0,0:0|0:0,0:0:0:0:
282,100,73842,1,8,0:0:0:0:
282,100,74019,2,0,L|240:200,1,107.999996704102,2|8,0:0|0:1,0:0:0:0:
440,174,74372,2,0,L|376:88,1,107.999996704102,2|8,0:0|0:0,0:0:0:0:
407,263,74725,1,8,0:1:0:0:
240,199,74901,6,0,L|184:212,1,45,8|8,0:0|0:0,0:0:0:0:
104,192,75078,2,0,L|87:246,1,45,8|8,0:0|0:0,0:0:0:0:
24,300,75254,2,0,L|63:341,1,45,8|0,0:0|0:0,0:0:0:0:
172,376,75431,1,4,0:0:0:0:
292,276,75784,5,4,0:0:0:0:
54,332,75960,1,8,0:0:0:0:
292,276,76137,1,8,0:0:0:0:
296,288,76225,1,8,0:0:0:0:
300,300,76313,6,0,P|355:364|476:336,1,215.999993408203,4|8,0:0|0:0,0:0:0:0:
360,192,76842,2,0,L|252:184,1,107.999996704102,0|10,0:0|0:1,0:0:0:0:
380,100,77195,2,0,L|487:92,2,107.999996704102,8|8|0,0:1|0:0|0:0,0:0:0:0:
84,148,77725,1,10,0:1:0:0:
0,104,77901,5,0,0:0:0:0:
216,32,78078,1,8,0:0:0:0:
288,248,78254,1,0,0:0:0:0:
72,320,78431,2,0,L|28:192,1,107.999996704102,10|0,0:1|0:0,0:0:0:0:
196,332,78784,1,8,0:0:0:0:
196,332,78960,1,0,0:0:0:0:
252,145,79137,6,0,L|288:248,1,107.999996704102,4|0,0:0|0:0,0:0:0:0:
440,116,79489,1,8,0:0:0:0:
360,334,79666,2,0,L|396:232,1,107.999996704102,0|10,0:0|0:1,0:0:0:0:
464,316,80019,1,8,0:1:0:0:
440,116,80195,1,8,0:0:0:0:
464,316,80372,1,0,0:0:0:0:
440,116,80548,5,8,0:0:0:0:
436,96,80637,1,8,0:0:0:0:
432,76,80725,1,8,0:0:0:0:
338,218,80901,2,0,B|358:182|358:182|336:64,1,161.999995056153,12|0,0:0|0:0,0:0:0:0:
252,112,81254,2,0,B|216:132|216:132|150:117,1,107.999996704102,4|4,0:0|0:3,0:0:0:0:
56,100,81519,5,4,0:3:0:0:
60,148,81607,1,8,0:0:0:0:
64,196,81695,1,8,0:0:0:0:
69,244,81784,1,8,0:0:0:0:
73,292,81872,1,8,0:0:0:0:
73,292,81960,5,2,0:0:0:0:
73,292,82666,2,0,L|160:280,2,67.5
36,380,83372,6,0,L|196:357,1,161.999995056153,2|8,0:0|0:1,0:0:0:0:
204,348,83989,1,8,0:1:0:0:
212,336,84078,2,0,L|364:356,2,135,4|0|0,0:0|0:0|0:0,0:0:0:0:
64,196,84784,1,4,0:0:0:0:
64,196,85137,5,8,0:1:0:0:
171,132,85313,1,8,0:1:0:0:
292,160,85489,1,8,0:0:0:0:
16,110,85666,5,8,0:0:0:0:
180,56,85842,1,8,0:0:0:0:
315,168,86018,1,8,0:0:0:0:
356,352,86195,2,0,L|436:344,1,58.4999973220826,4|0,0:0|0:0,0:0:0:0:
155,259,86372,6,0,L|272:272,1,116.999994644165,4|0,0:0|0:0,0:0:0:0:
271,271,86901,6,0,P|279:304|268:335,1,67.5,0|0,0:0|0:0,0:0:0:0:
192,384,87254,1,8,0:0:0:0:
160,376,87342,1,8,0:0:0:0:
128,368,87431,1,8,0:0:0:0:
96,360,87519,1,8,0:0:0:0:
63,351,87607,6,0,P|31:270|63:188,1,180,4|8,0:0|0:0,0:0:0:0:
256,84,88137,1,0,0:0:0:0:
192,20,88313,2,0,L|102:26,1,90,8|8,0:1|0:1,0:0:0:0:
352,108,88666,2,0,L|262:101,1,90,8|0,0:0|0:0,0:0:0:0:
63,187,89019,6,0,B|44:224|44:224|200:204,1,180,10|8,0:1|0:0,0:0:0:0:
352,108,89548,1,0,0:0:0:0:
400,188,89725,2,0,P|431:160|444:92,1,90,8|8,0:1|0:1,0:0:0:0:
336,336,90078,2,0,P|306:303|296:260,1,90,8|0,0:0|0:0,0:0:0:0:
304,248,90342,1,0,0:0:0:0:
312,236,90431,6,0,B|300:192|256:180|256:180|204:208|144:168,1,180,10|8,0:1|0:0,0:0:0:0:
0,256,90960,1,0,0:0:0:0:
20,380,91136,1,8,0:1:0:0:
116,300,91313,1,8,0:1:0:0:
20,380,91489,1,8,0:0:0:0:
0,256,91666,5,0,0:0:0:0:
7,249,91754,1,0,0:0:0:0:
15,242,91842,2,0,L|8:141,1,90,10|0,0:1|0:0,0:0:0:0:
256,68,92195,2,0,B|220:44|220:44|180:68,1,90,8|8,0:0|0:1,0:0:0:0:
184,80,92460,1,8,0:1:0:0:
188,92,92548,1,8,0:0:0:0:
116,300,92725,1,8,0:1:0:0:
120,196,92901,2,0,L|126:285,1,90,8|0,0:0|0:0,0:0:0:0:
200,348,93166,1,0,0:0:0:0:
200,348,93254,6,0,L|400:340,1,180,4|8,0:0|0:0,0:0:0:0:
512,192,93784,1,0,0:0:0:0:
432,140,93960,1,8,0:1:0:0:
379,340,94137,1,8,0:1:0:0:
176,384,94313,1,8,0:0:0:0:
123,184,94490,1,0,0:0:0:0:
256,272,94666,6,0,B|248:216|248:216|284:160|284:160|272:72,1,180,10|8,0:1|0:0,0:0:0:0:
44,136,95195,1,0,0:0:0:0:
192,20,95372,1,8,0:1:0:0:
48,152,95548,1,8,0:1:0:0:
196,36,95725,1,8,0:0:0:0:
368,124,95901,1,0,0:0:0:0:
372,136,95989,1,0,0:0:0:0:
376,148,96078,6,0,L|356:352,1,180,4|8,0:0|0:0,0:0:0:0:
184,380,96607,2,0,L|176:336,1,45,0|8,0:0|0:0,0:0:0:0:
104,276,96784,2,0,P|60:282|22:259,1,90,8|8,0:1|0:1,0:0:0:0:
144,129,97137,2,0,P|172:163|172:208,1,90,8|0,0:0|0:0,0:0:0:0:
20,136,97489,5,8,0:1:0:0:
16,128,97578,1,8,0:0:0:0:
12,120,97666,1,8,0:0:0:0:
152,0,97842,1,8,0:0:0:0:
148,8,97930,1,8,0:3:0:0:
144,16,98019,1,8,0:1:0:0:
256,196,98195,2,0,L|300:189,1,45,4|0,0:3|0:0,0:0:0:0:
356,112,98372,2,0,L|400:105,1,45,8|8,0:0|0:0,0:0:0:0:
508,96,98548,5,8,0:0:0:0:
502,140,98636,1,8,0:3:0:0:
497,185,98724,1,8,0:3:0:0:
492,230,98812,1,0,0:0:0:0:
486,274,98900,1,4,0:0:0:0:
486,274,99431,5,2,0:0:0:0:
486,274,99608,1,2,0:0:0:0:
400,312,99784,1,2,0:0:0:0:
400,312,99961,1,2,0:0:0:0:
312,344,100137,1,2,0:0:0:0:
152,252,100313,5,2,0:0:0:0:
216,240,100489,2,0,L|144:236,1,53.9999983520508,2|0,0:0|0:0,0:0:0:0:
42,32,100842,5,2,0:0:0:0:
42,32,101019,2,0,L|47:122,1,90.0000034332277,8|8,0:3|0:3,0:0:0:0:
108,176,101372,5,4,0:3:0:0:
184,160,101489,5,4,0:3:0:0:
260,144,101607,5,4,0:3:0:0:
320,197,101725,6,0,L|480:164,1,161.999995056153,4|8,0:0|0:0,0:0:0:0:
392,340,102254,1,0,0:0:0:0:
233,307,102431,2,0,L|391:339,1,161.999995056153,8|8,0:1|0:0,0:0:0:0:
508,288,102960,1,0,0:0:0:0:
478,164,103137,5,8,0:1:0:0:
356,128,103313,2,0,L|368:208,1,80.9999975280763,2|8,0:0|0:0,0:0:0:0:
448,40,103666,1,2,0:0:0:0:
288,196,103842,2,0,L|368:208,1,80.9999975280763,10|0,0:1|0:0,0:0:0:0:
448,40,104195,2,0,L|368:28,1,80.9999975280763,8|0,0:0|0:0,0:0:0:0:
160,0,104548,6,0,B|132:40|132:40|148:160,1,161.999995056153,10|8,0:1|0:0,0:0:0:0:
80,220,105078,1,0,0:0:0:0:
105,311,105254,1,8,0:1:0:0:
197,335,105431,1,8,0:1:0:0:
240,177,105607,1,8,0:0:0:0:
146,152,105784,1,0,0:0:0:0:
264,268,105960,6,0,B|308:304|308:304|406:268,1,161.999995056153,10|8,0:1|0:0,0:0:0:0:
496,228,106489,1,0,0:0:0:0:
512,132,106666,1,8,0:1:0:0:
422,92,106842,1,8,0:1:0:0:
406,268,107019,1,8,0:0:0:0:
316,308,107195,1,0,0:0:0:0:
212,192,107372,6,0,P|148:164|152:232,1,161.999995056153,10|8,0:1|0:0,0:0:0:0:
149,230,107901,1,0,0:0:0:0:
104,76,108078,1,8,0:1:0:0:
224,40,108254,1,0,0:0:0:0:
316,124,108431,2,0,L|452:124,1,121.499996292114,8|0,0:0|0:0,0:0:0:0:
492,188,108784,6,0,L|480:300,1,90,4|8,0:0|0:3,0:0:0:0:
468,360,109048,1,8,0:0:0:0:
456,348,109137,2,0,L|408:336,1,45,8|8,0:0|0:0,0:0:0:0:
332,384,109313,2,0,L|318:336,1,45,4|8,0:3|0:0,0:0:0:0:
364,256,109489,1,4,0:3:0:0:
364,256,109716,5,8,0:0:0:0:
300,216,109829,5,8,0:0:0:0:
224,224,109943,5,8,0:0:0:0:
184,288,110057,5,8,0:0:0:0:
112,312,110170,5,4,0:0:0:0:
0,156,110523,1,8,0:0:0:0:
22,63,110701,2,0,L|15:143,1,80.9999975280763,0|8,0:0|0:1,0:0:0:0:
112,312,111058,1,8,0:1:0:0:
112,312,111236,2,0,L|118:231,1,80.9999975280763,8|0,0:0|0:0,0:0:0:0:
256,80,111607,5,10,0:1:0:0:
328,140,111783,2,0,L|480:132,1,121.499996292114,0|0,0:0|0:0,0:0:0:0:
424,56,112136,2,0,L|343:60,1,80.9999975280763,2|8,0:1|0:1,0:0:0:0:
256,80,112489,1,8,0:1:0:0:
72,60,112665,1,8,0:0:0:0:
160,104,112842,1,0,0:0:0:0:
300,168,113018,6,0,L|292:320,1,121.499996292114,10|0,0:1|0:0,0:0:0:0:
293,289,113371,1,8,0:0:0:0:
64,356,113548,1,0,0:0:0:0:
64,356,113724,2,0,L|68:276,1,80.9999975280763,8|0,0:1|0:0,0:0:0:0:
188,156,114077,2,0,L|184:236,1,80.9999975280763,8|0,0:0|0:0,0:0:0:0:
84,40,114430,5,8,0:1:0:0:
268,160,114607,2,0,L|188:156,1,80.9999975280763,2|8,0:0|0:0,0:0:0:0:
256,340,114959,1,2,0:0:0:0:
348,360,115136,2,0,L|268:356,1,80.9999975280763,8|8,0:1|0:1,0:0:0:0:
420,232,115489,2,0,L|500:236,1,80.9999975280763,4|0,0:0|0:0,0:0:0:0:
421,57,115842,6,0,B|376:31|376:31|268:48,1,161.999995056153,4|8,0:0|0:0,0:0:0:0:
116,156,116371,2,0,B|88:168|88:168|38:155,2,80.9999975280763,0|8|8,0:0|0:1|0:1,0:0:0:0:
80,80,116901,1,8,0:0:0:0:
192,104,117077,1,0,0:0:0:0:
0,232,117254,6,0,B|96:256|96:256|153:230,1,161.999995056153,10|8,0:1|0:0,0:0:0:0:
236,184,117783,1,0,0:0:0:0:
320,228,117959,1,8,0:1:0:0:
340,320,118136,1,8,0:1:0:0:
476,228,118312,1,8,0:0:0:0:
439,61,118489,1,0,0:0:0:0:
300,136,118665,6,0,B|276:104|276:104|152:112,1,161.999995056153,10|8,0:1|0:0,0:0:0:0:
160,284,119195,1,0,0:0:0:0:
207,347,119371,2,0,B|239:323|239:323|232:202,1,161.999995056153,8|8,0:1|0:0,0:0:0:0:
154,111,119901,1,0,0:0:0:0:
12,200,120077,5,10,0:1:0:0:
264,112,120254,1,8,0:0:0:0:
122,201,120430,5,8,0:0:0:0:
154,111,120607,1,8,0:1:0:0:
372,164,120783,5,8,0:0:0:0:
231,201,120959,1,8,0:3:0:0:
154,111,121136,1,4,0:3:0:0:
196,24,121312,1,4,0:3:0:0:
336,40,121489,6,0,P|402:16|472:40,1,125.999996154785,4|0,0:0|0:0,0:0:0:0:
512,96,122018,1,8,0:1:0:0:
307,189,122195,2,0,P|345:140|404:120,1,125.999996154785,8|8,0:0|0:1,0:0:0:0:
476,169,122724,1,8,0:1:0:0:
404,120,122901,5,0,0:0:0:0:
512,248,123077,2,0,P|473:297|415:317,1,125.999996154785,8|0,0:0|0:0,0:0:0:0:
359,239,123607,1,10,0:0:0:0:
263,249,123783,1,2,0:0:0:0:
223,337,123960,1,2,0:0:0:0:
127,347,124136,1,2,0:0:0:0:
263,249,124312,6,0,L|240:108,1,125.999996154785,10|0,0:1|0:0,0:0:0:0:
444,48,124842,1,8,0:1:0:0:
436,56,124930,1,8,0:1:0:0:
429,62,125018,2,0,L|305:42,1,125.999996154785,8|0,0:0|0:0,0:0:0:0:
208,28,125548,1,8,0:1:0:0:
148,104,125724,1,10,0:1:0:0:
288,180,125901,2,0,L|412:159,1,125.999996154785,8|4,0:0|0:3,0:0:0:0:
508,260,126430,6,0,L|416:277,1,83.9999974365235,8|8,0:0|0:3,0:0:0:0:
352,256,126783,5,8,0:3:0:0:
296,308,126901,5,4,0:3:0:0:
316,380,127018,5,4,0:3:0:0:
304,384,127136,6,0,L|240:372,1,63,2|0,0:0|0:0,0:0:0:0:
176,276,127842,6,0,L|268:293,1,94.4999971160889,2|0,0:0|0:0,0:0:0:0:
304,212,128548,6,0,L|180:187,1,126,2|0,0:0|0:0,0:0:0:0:
164,76,129254,6,0,P|114:36|112:99,1,157.5,4|0,0:0|0:0,0:0:0:0:
181,188,129959,1,4,0:0:0:0:
285,215,130136,1,0,0:0:0:0:
362,137,130312,1,8,0:0:0:0:
333,31,130489,1,8,0:0:0:0:
228,3,130665,5,8,0:0:0:0:
285,215,130842,1,8,0:0:0:0:
496,272,131018,1,8,0:0:0:0:
439,60,131194,1,8,0:0:0:0:
285,215,131371,5,8,0:1:0:0:
496,272,131548,1,8,0:1:0:0:
333,31,131724,6,0,L|340:68,1,35.9999989013672,4|8,0:0|0:0,0:0:0:0:
357,152,132077,5,4,0:0:0:0:
308,144,132165,1,8,0:1:0:0:
259,136,132254,1,8,0:1:0:0:
210,128,132342,1,8,0:1:0:0:
161,120,132431,5,8,0:0:0:0:
172,188,132518,1,8,0:0:0:0:
184,256,132607,1,8,0:0:0:0:
195,324,132695,1,8,0:0:0:0:
120,372,132783,6,0,L|81:140,1,215.999993408203,4|8,0:0|0:0,0:0:0:0:
194,21,133312,2,0,B|214:73|186:77|210:129,1,107.999996704102,0|10,0:0|0:1,0:0:0:0:
344,264,133665,2,0,B|324:316|352:320|328:372,2,107.999996704102,8|8|0,0:1|0:0|0:0,0:0:0:0:
376,12,134195,5,10,0:1:0:0:
209,127,134371,1,0,0:0:0:0:
209,127,134548,1,8,0:0:0:0:
448,112,134724,1,0,0:0:0:0:
246,29,134901,2,0,L|140:48,1,107.999996704102,10|0,0:1|0:0,0:0:0:0:
348,72,135254,5,8,0:0:0:0:
448,112,135430,1,0,0:0:0:0:
246,226,135607,2,0,L|140:208,1,107.999996704102,10|0,0:1|0:0,0:0:0:0:
328,368,135959,1,8,0:0:0:0:
375,87,136136,2,0,L|356:193,1,107.999996704102,0|10,0:0|0:1,0:0:0:0:
512,320,136489,1,0,0:0:0:0:
292,376,136665,1,8,0:0:0:0:
184,320,136842,1,0,0:0:0:0:
356,193,137018,6,0,P|305:175|251:175,1,107.999996704102,10|0,0:1|0:0,0:0:0:0:
79,337,137371,1,8,0:0:0:0:
184,320,137548,2,0,P|133:337|79:337,1,107.999996704102,8|10,0:1|0:1,0:0:0:0:
64,232,137901,1,2,0:0:0:0:
356,193,138077,1,10,0:0:0:0:
220,48,138254,1,8,0:0:0:0:
224,64,138342,1,8,0:0:0:0:
228,76,138430,5,8,0:1:0:0:
164,140,138606,1,8,0:1:0:0:
512,324,138783,1,4,0:0:0:0:
348,104,138959,2,0,B|320:107|304:120|304:120|243:113,1,107.999996704102,2|8,0:0|0:1,0:0:0:0:
356,193,139312,2,0,B|384:190|400:177|400:177|461:184,1,107.999996704102,2|8,0:0|0:0,0:0:0:0:
300,8,139666,1,8,0:0:0:0:
296,20,139754,1,8,0:0:0:0:
292,32,139842,5,8,0:1:0:0:
348,104,140018,1,8,0:1:0:0:
8,280,140195,1,4,0:0:0:0:
77,39,140371,2,0,B|84:100|84:100|71:116|68:144,1,107.999996704102,2|8,0:0|0:1,0:0:0:0:
148,257,140724,2,0,B|141:196|141:196|154:180|157:152,1,107.999996704102,2|8,0:0|0:0,0:0:0:0:
81,381,141077,2,0,L|88:328,1,53.9999983520508,2|8,0:0|0:0,0:0:0:0:
156,152,141254,6,0,B|196:128|196:128|228:140|228:140|280:128,1,107.999996704102,4|0,0:0|0:0,0:0:0:0:
276,348,141606,1,8,0:0:0:0:
276,348,141783,2,0,B|236:325|236:325|230:291|230:291|212:272,1,107.999996704102,2|8,0:0|0:1,0:0:0:0:
388,136,142136,2,0,B|388:182|388:182|362:204|362:204|354:230,1,107.999996704102,2|8,0:0|0:0,0:0:0:0:
452,268,142489,1,8,0:1:0:0:
320,358,142665,6,0,L|263:345,1,45,8|8,0:0|0:0,0:0:0:0:
254,258,142842,2,0,L|211:271,1,45,8|8,0:0|0:0,0:0:0:0:
146,204,143018,2,0,L|115:236,1,45,8|0,0:0|0:0,0:0:0:0:
56,372,143195,1,4,0:0:0:0:
276,347,143548,5,4,0:0:0:0:
56,372,143724,1,8,0:0:0:0:
268,264,143901,1,8,0:0:0:0:
280,269,143989,1,8,0:0:0:0:
292,274,144077,6,0,P|400:268|400:384,1,215.999993408203,4|8,0:0|0:0,0:0:0:0:
176,256,144606,2,0,L|196:140,1,107.999996704102,0|10,0:0|0:1,0:0:0:0:
37,253,144959,2,0,L|56:360,2,107.999996704102,8|8|0,0:1|0:0|0:0,0:0:0:0:
220,12,145489,1,2,0:1:0:0:
284,96,145665,5,0,0:0:0:0:
68,28,145842,1,8,0:0:0:0:
0,244,146018,1,0,0:0:0:0:
216,312,146195,2,0,L|344:304,1,107.999996704102,10|0,0:1|0:0,0:0:0:0:
80,368,146548,1,8,0:0:0:0:
80,368,146724,1,0,0:0:0:0:
264,200,146901,6,0,P|224:168|160:169,1,107.999996704102,4|0,0:0|0:0,0:0:0:0:
0,244,147254,1,8,0:0:0:0:
169,166,147430,2,0,P|201:126|199:62,1,107.999996704102,0|10,0:0|0:1,0:0:0:0:
112,20,147783,1,8,0:1:0:0:
336,56,147959,1,8,0:0:0:0:
112,20,148136,1,0,0:0:0:0:
356,60,148312,6,0,L|488:44,1,107.999996704102,4|8,0:0|0:1,0:0:0:0:
328,176,148665,1,8,0:0:0:0:
512,292,148842,1,8,0:1:0:0:
460,364,149018,2,0,L|352:351,1,107.999996704102,8|4,0:0|0:3,0:0:0:0:
288,272,149283,5,4,0:3:0:0:
239,277,149371,1,8,0:0:0:0:
191,283,149459,1,8,0:0:0:0:
143,289,149547,1,8,0:0:0:0:
95,295,149635,1,0,0:0:0:0:
95,295,149724,5,2,0:0:0:0:
95,295,150430,2,0,P|96:248|76:216,2,67.5,0|0|0,0:0|0:0|0:0,0:0:0:0:
172,339,151136,6,0,P|187:261|164:184,1,161.999995056153,2|8,0:0|0:1,0:0:0:0:
156,176,151754,1,8,0:1:0:0:
148,168,151842,2,0,P|69:183|-4:164,2,135,4|0|0,0:0|0:0|0:0,0:0:0:0:
312,40,152548,5,4,0:0:0:0:
312,40,152901,5,8,0:1:0:0:
324,163,153077,1,8,0:1:0:0:
247,261,153253,1,8,0:0:0:0:
416,40,153430,5,8,0:0:0:0:
395,211,153606,1,8,0:0:0:0:
236,286,153782,1,8,0:0:0:0:
52,260,153959,2,0,L|48:176,1,58.4999973220826,4|0,0:0|0:0,0:0:0:0:
0,112,154136,2,0,L|2:53,1,58.4999973220826,4|0,0:0|0:0,0:0:0:0:
116,0,154312,5,0,0:0:0:0:
176,44,154489,1,0,0:0:0:0:
324,80,154665,5,0,0:0:0:0:
264,124,154842,1,0,0:0:0:0:
116,160,155018,5,0,0:0:0:0:
176,204,155195,1,0,0:0:0:0:
252,200,155371,5,2,0:0:0:0:
252,200,156430,1,2,0:0:0:0:
445,218,156783,6,0,B|377:226|377:226|313:175|313:175|245:202,1,216,2|2,0:0|0:0,0:0:0:0:
71,107,158195,6,0,P|147:35|251:47,1,216,2|2,0:0|0:0,0:0:0:0:
251,47,159430,1,2,0:0:0:0:
399,24,159606,6,0,B|384:88|384:88|428:152|428:152|408:224,1,216,2|2,0:0|0:0,0:0:0:0:
271,344,161018,6,0,B|279:255|243:291|255:203,1,144,2|2,0:0|0:0,0:0:0:0:
255,204,162077,1,2,0:0:0:0:
172,316,162430,6,0,L|12:304,1,144,2|2,0:0|0:0,0:0:0:0:
458,160,163842,6,0,B|316:142|380:226|244:202,1,216,2|2,0:0|0:0,0:0:0:0:
289,123,165077,1,2,0:0:0:0:
283,51,165254,6,0,L|289:123,1,72,2|2,0:0|0:0,0:0:0:0:
254,203,165783,2,0,L|146:211,1,108,2|2,0:0|0:0,0:0:0:0:
146,210,166665,6,0,L|92:205,1,53.9999983520508,2|0,0:0|0:0,0:0:0:0:
100,104,167018,2,0,L|46:99,1,53.9999983520508,2|0,0:0|0:0,0:0:0:0:
200,124,167371,2,0,L|253:119,1,53.9999983520508,2|2,0:0|0:0,0:0:0:0:
246,17,167724,2,0,L|299:12,1,53.9999983520508,2|0,0:0|0:0,0:0:0:0:
388,104,168077,5,2,0:0:0:0:
392,112,168430,1,0,0:0:0:0:
396,120,168783,2,0,L|400:173,1,53.9999983520508,2|0,0:0|0:0,0:0:0:0:
348,308,169136,1,2,0:0:0:0:
488,360,169489,6,0,L|434:364,1,53.9999983520508,2|0,0:0|0:0,0:0:0:0:
400,294,169842,2,0,L|347:307,1,53.9999983520508,2|0,0:0|0:0,0:0:0:0:
301,244,170195,2,0,L|251:266,1,53.9999983520508,2|2,0:0|0:0,0:0:0:0:
194,211,170548,2,0,L|149:241,1,53.9999983520508,2|2,0:0|0:0,0:0:0:0:
44,296,170901,6,0,B|32:216|32:216|72:160|72:160|84:76,1,215.999993408203,2|2,0:0|0:0,0:0:0:0:
81,94,171959,1,2,0:0:0:0:
136,44,172136,1,2,0:0:0:0:
256,32,172312,6,0,B|360:24|326:104|401:105,1,161.999995056153,2|0,0:0|0:0,0:0:0:0:
464,76,173548,1,0,0:0:0:0:
492,224,173724,5,0,0:0:0:0:
436,280,173901,1,0,0:0:0:0:
416,204,174077,1,0,0:0:0:0:
268,268,174254,5,0,0:0:0:0:
315,121,174606,2,0,B|328:152|328:152|316:184,1,67.4999979400635,0|0,0:0|0:0,0:0:0:0:
256,248,175136,6,0,B|176:232|176:232|124:248,1,121.499996292114,4|0,0:0|0:0,0:0:0:0:
71,286,175489,2,0,L|60:248,1,40.4999987640381,8|0,0:0|0:0,0:0:0:0:
137,47,175665,6,0,B|121:127|121:127|137:179,1,121.499996292114,4|0,0:0|0:0,0:0:0:0:
137,243,176018,2,0,L|175:231,1,40.4999987640381,8|0,0:1|0:0,0:0:0:0:
220,120,176195,1,8,0:0:0:0:
224,112,176283,1,8,0:0:0:0:
228,105,176371,2,0,L|239:143,1,40.4999987640381,4|4,0:3|0:3,0:0:0:0:
304,324,176548,6,0,L|339:209,1,90,4|0,0:0|0:0,0:0:0:0:
416,212,176812,1,8,0:0:0:0:
420,200,176901,2,0,L|432:157,1,45,8|0,0:0|0:0,0:0:0:0:
279,1,177077,2,0,L|228:16,1,53.9999983520508,4|0,0:0|0:0,0:0:0:0:
80,156,177254,2,0,L|109:259,1,107.999996704102,8|8,0:0|0:3,0:0:0:0:
116,252,177518,5,8,0:0:0:0:
128,236,177606,1,8,0:0:0:0:
144,256,177695,1,8,0:0:0:0:
168,292,177783,1,8,0:0:0:0:
192,332,177871,1,8,0:0:0:0:
256,284,177959,6,0,P|300:284|320:364,1,116.999994644165,4|2,0:0|0:0,0:0:0:0:
164,192,178312,2,0,P|164:236|84:256,1,116.999994644165,8|2,0:0|0:0,0:0:0:0:
256,100,178665,2,0,P|212:100|192:20,1,116.999994644165,8|2,0:1|0:0,0:0:0:0:
348,192,179018,2,0,P|348:148|428:128,1,116.999994644165,8|2,0:0|0:0,0:0:0:0:
508,344,179371,6,0,B|396:360|452:288|336:300,1,175.499991966248,10|0,0:1|0:0,0:0:0:0:
484,256,179715,1,8,0:0:0:0:
363,383,179888,2,0,L|247:376,1,116.999994644165,2|8,0:0|0:1,0:0:0:0:
484,256,180233,2,0,L|491:139,1,90,2|8,0:0|0:0,0:0:0:0:
484,256,180603,1,2,0:0:0:0:
363,383,180788,2,0,L|103:367,1,233.999989288331,10|8,0:1|0:0,0:0:0:0:
80,204,181302,5,2,0:0:0:0:
76,228,181386,1,2,0:0:0:0:
72,252,181469,2,0,L|212:220,1,116.999994644165,2|0,0:0|0:1,0:0:0:0:
196,132,181730,2,0,L|132:144,1,58.4999973220826,2|10,0:0|0:0,0:0:0:0:
4,204,182004,5,2,0:0:0:0:
200,296,182192,2,0,B|340:272|292:360|452:328,1,233.999989288331,2|8,0:1|0:0,0:0:0:0:
448,80,182721,5,2,0:0:0:0:
500,136,182807,1,0,0:0:0:0:
448,192,182893,2,0,B|308:216|356:128|196:160,1,233.999989288331,4|8,0:0|0:0,0:0:0:0:
144,200,183327,1,4,0:3:0:0:
64,156,183416,1,4,0:3:0:0:
81,66,183505,1,4,0:3:0:0:
171,54,183595,6,0,P|204:28|304:28,1,125.999996154785,4|0,0:0|0:0,0:0:0:0:
444,72,183859,1,8,0:0:0:0:
448,80,183947,2,0,P|400:64|416:40,1,90,8|0,0:0|0:0,0:0:0:0:
512,192,184124,2,0,B|404:176|448:292|320:268,1,188.999994232178,4|8,0:0|0:0,0:0:0:0:
256,204,184464,2,0,P|264:172|252:140,1,62.9999980773926,8|8,0:0|0:0,0:0:0:0:
81,66,184640,5,8,0:0:0:0:
144,104,184728,1,4,0:3:0:0:
164,176,184816,1,4,0:3:0:0:
144,248,184905,1,4,0:3:0:0:
80,288,184993,6,0,P|52:256|52:152,1,125.999996154785,4|0,0:0|0:0,0:0:0:0:
172,69,185257,1,8,0:0:0:0:
180,65,185345,2,0,P|164:113|140:97,1,90,8|0,0:0|0:0,0:0:0:0:
300,0,185522,2,0,B|368:0|352:36|444:36,1,125.999996154785,4|8,0:0|0:0,0:0:0:0:
428,32,185788,1,8,0:0:0:0:
436,28,185878,1,8,0:0:0:0:
488,76,185969,1,8,0:0:0:0:
468,144,186047,1,4,0:3:0:0:
389,117,186126,5,4,0:3:0:0:
392,132,186198,1,4,0:3:0:0:
395,147,186269,1,4,0:3:0:0:
398,162,186341,1,4,0:3:0:0:
412,236,186412,6,0,L|272:212,1,135.000005149842,4|0,0:0|0:0,0:0:0:0:
288,136,186670,6,0,L|154:113,1,135.000005149842,4|0,0:0|0:0,0:0:0:0:
168,36,186922,6,0,L|28:12,1,135.000005149842,4|0,0:0|0:0,0:0:0:0:
34,13,187158,6,0,L|168:36,1,135.000005149842,4|0,0:0|0:0,0:0:0:0:
154,113,187399,6,0,L|288:136,1,135.000005149842,4|0,0:0|0:0,0:0:0:0:
278,213,187641,6,0,L|412:236,1,135.000005149842,4|0,0:0|0:0,0:0:0:0:
411,235,187883,6,0,L|387:383,1,144,4|0,0:0|0:0,0:0:0:0:
387,377,189254,5,2,0:0:0:0:
256,376,189606,1,0,0:0:0:0:
200,308,189783,2,0,L|208:248,2,53.9999983520508,2|2|2,0:0|0:0|0:0,0:0:0:0:
256,376,190312,1,2,0:0:0:0:
256,376,190489,1,2,0:0:0:0:
207,254,190665,6,0,L|99:267,1,107.999996704102,2|2,0:0|0:0,0:0:0:0:
12,280,191195,1,2,0:0:0:0:
12,280,191548,1,2,0:0:0:0:
44,196,191724,1,2,0:0:0:0:
12,112,191901,1,2,0:0:0:0:
44,196,192077,6,0,L|151:182,1,107.999996704102,2|2,0:0|0:0,0:0:0:0:
239,9,192783,2,0,P|223:59|244:108,1,107.999996704102,2|2,0:0|0:0,0:0:0:0:
492,192,193489,2,0,B|424:152|424:152|343:169,1,161.999995056153,2|2,0:0|0:0,0:0:0:0:
256,192,194195,1,2,0:0:0:0:
492,300,194901,5,2,0:0:0:0:
416,372,195254,1,0,0:0:0:0:
340,324,195430,1,2,0:0:0:0:
340,324,195606,2,0,L|276:336,1,53.9999983520508,2|0,0:0|0:0,0:0:0:0:
352,236,195959,1,2,0:0:0:0:
245,254,196136,1,2,0:0:0:0:
352,236,196312,6,0,L|240:256,1,107.999996704102,2|2,0:0|0:0,0:0:0:0:
286,333,196842,2,0,L|174:353,1,107.999996704102,2|0,0:0|0:0,0:0:0:0:
179,351,197371,1,2,0:0:0:0:
88,236,197724,6,0,B|112:104|8:156|40:28,1,215.999993408203,2|2,0:0|0:0,0:0:0:0:
37,37,199842,1,2,0:0:0:0:
116,72,200371,1,0,0:0:0:0:
120,68,200459,1,0,0:0:0:0:
124,64,200548,6,0,P|168:32|256:32,1,125.999996154785,10|0,0:1|0:0,0:0:0:0:
316,72,201077,1,8,0:1:0:0:
377,58,201254,2,0,L|316:72,1,62.9999980773926,8|0,0:0|0:0,0:0:0:0:
440,120,201606,2,0,L|512:104,1,62.9999980773926
424,208,201959,6,0,L|286:237,1,125.999996154785,10|0,0:1|0:0,0:0:0:0:
269,156,202489,2,0,P|209:143|159:180,1,125.999996154785,8|0,0:1|0:0,0:0:0:0:
177,261,203018,1,0,0:0:0:0:
300,234,203195,1,0,0:0:0:0:
177,261,203371,6,0,L|300:234,1,125.999996154785,10|0,0:1|0:0,0:0:0:0:
220,168,203901,1,8,0:1:0:0:
305,316,204077,2,0,P|255:353|196:340,1,125.999996154785,8|0,0:0|0:0,0:0:0:0:
300,234,204606,1,0,0:0:0:0:
177,261,204783,2,0,L|150:137,1,125.999996154785,10|0,0:1|0:0,0:0:0:0:
128,52,205312,1,8,0:1:0:0:
256,140,205489,6,0,L|273:57,1,83.9999974365235,4|4,0:3|0:3,0:0:0:0:
344,24,205842,5,4,0:3:0:0:
420,36,205959,5,4,0:3:0:0:
480,84,206077,5,4,0:3:0:0:
476,92,206195,5,2,0:0:0:0:
476,92,206931,6,0,L|464:192,1,94.4999971160889,0|0,0:0|0:0,0:0:0:0:
412,256,207616,6,0,P|348:248|332:296,1,126,2|0,0:0|0:0,0:0:0:0:
256,372,208338,6,0,P|240:308|160:272,1,157.5
58,303,209061,6,0,P|66:231|50:191,1,107.999996704102,2|0,0:0|0:0,0:0:0:0:
55,199,210077,5,0,0:0:0:0:
176,160,210253,1,0,0:0:0:0:
256,256,210429,2,0,L|376:232,1,107.999996704102,2|0,0:0|0:0,0:0:0:0:
460,144,210958,1,0,0:0:0:0:
390,95,211134,6,0,P|403:151|460:144,1,126,4|0,0:0|0:0,0:0:0:0:
468,56,211840,5,4,0:0:0:0:
392,8,212193,5,8,0:0:0:0:
390,95,212370,1,8,0:0:0:0:
468,56,212546,5,8,0:0:0:0:
256,8,212723,1,8,0:0:0:0:
224,92,212899,5,8,0:0:0:0:
0,148,213076,2,0,L|8:96,1,45,8|0,0:0|0:0,0:0:0:0:
224,92,213252,6,0,L|217:136,1,45,8|0,0:0|0:0,0:0:0:0:
108,156,213429,2,0,L|101:200,1,45,8|0,0:1|0:0,0:0:0:0:
13,331,213605,6,0,L|120:312,1,108,4|8,0:0|0:0,0:0:0:0:
128,324,213958,1,8,0:0:0:0:
136,336,214046,1,8,0:0:0:0:
144,348,214134,1,8,0:0:0:0:
180,324,214223,1,8,0:0:0:0:
224,316,214311,1,4,0:3:0:0:
284,332,214399,1,4,0:3:0:0:
336,368,214487,1,4,0:3:0:0:
400,356,214576,1,4,0:3:0:0:
432,292,214663,6,0,L|424:232,1,60,8|8,0:1|0:3,0:0:0:0:
336,368,214996,6,0,L|135:342,1,202.500007724762,4|0,0:0|0:0,0:0:0:0:
20,380,215369,6,0,P|40:268|120:228,1,180,8|8,0:0|0:0,0:0:0:0:
178,219,215633,1,8,0:0:0:0:
208,134,215721,1,8,0:0:0:0:
150,65,215810,1,8,0:3:0:0:
62,80,215898,1,8,0:3:0:0:
31,165,215986,1,8,0:3:0:0:
89,234,216074,6,0,B|236:200|188:312|288:284,1,202.5,4|0,0:0|0:0,0:0:0:0:
271,287,216946,6,0,L|267:323,1,36,2|2,0:0|0:0,0:0:0:0:
444,312,217469,6,0,B|432:352|400:364|400:364|432:292|400:224,1,215.999993408203,4|8,0:0|0:0,0:0:0:0:
504,72,218015,2,0,P|458:74|416:28,1,107.999996704102,0|10,0:0|0:1,0:0:0:0:
228,162,218367,2,0,P|263:123|316:124,2,107.999996704102,8|8|0,0:1|0:0|0:0,0:0:0:0:
240,384,218897,5,10,0:1:0:0:
404,148,219073,1,0,0:0:0:0:
404,148,219250,1,8,0:0:0:0:
488,368,219426,1,0,0:0:0:0:
256,308,219603,2,0,P|203:308|169:347,1,107.999996704102,10|0,0:1|0:0,0:0:0:0:
372,340,219956,5,8,0:0:0:0:
488,368,220132,1,0,0:0:0:0:
300,200,220309,2,0,P|265:160|213:160,1,107.999996704102,10|0,0:1|0:0,0:0:0:0:
24,352,220662,1,8,0:0:0:0:
136,228,220838,2,0,P|83:228|49:267,1,107.999996704102,0|10,0:0|0:1,0:0:0:0:
256,308,221191,1,0,0:0:0:0:
184,48,221367,1,8,0:0:0:0:
68,32,221544,1,0,0:0:0:0:
300,200,221720,6,0,P|352:199|386:160,1,107.999996704102,10|0,0:1|0:0,0:0:0:0:
136,124,222073,1,8,0:0:0:0:
183,47,222250,2,0,P|223:81|225:134,1,107.999996704102,8|10,0:1|0:1,0:0:0:0:
56,292,222603,2,0,L|40:200,1,53.9999983520508,2|8,0:0|0:0,0:0:0:0:
32,152,222769,1,10,0:0:0:0:
140,376,222945,2,0,L|156:284,1,53.9999983520508,8|8,0:0|0:0,0:0:0:0:
164,236,223132,5,8,0:1:0:0:
256,372,223308,1,8,0:1:0:0:
428,0,223484,1,4,0:0:0:0:
195,93,223661,2,0,B|256:100|256:100|272:87|300:84,1,107.999996704102,2|8,0:0|0:1,0:0:0:0:
413,164,224014,2,0,B|352:157|352:157|336:170|308:173,1,107.999996704102,2|8,0:0|0:0,0:0:0:0:
185,39,224367,2,0,L|201:131,1,53.9999983520508,8|8,0:0|0:0,0:0:0:0:
203,180,224543,5,8,0:1:0:0:
80,88,224720,1,8,0:1:0:0:
364,384,224896,1,4,0:0:0:0:
308,172,225073,2,0,B|247:165|247:165|231:178|203:181,1,107.999996704102,2|8,0:0|0:1,0:0:0:0:
90,101,225426,2,0,B|151:108|151:108|167:95|195:92,1,107.999996704102,2|8,0:0|0:0,0:0:0:0:
56,324,225779,2,0,L|66:271,1,53.9999983520508,0|8,0:0|0:0,0:0:0:0:
194,92,225955,6,0,P|246:93|280:132,1,107.999996704102,4|0,0:0|0:0,0:0:0:0:
189,318,226308,1,8,0:0:0:0:
189,318,226484,2,0,P|164:272|182:223,1,107.999996704102,2|8,0:0|0:1,0:0:0:0:
390,205,226837,2,0,P|363:250|312:260,1,107.999996704102,2|8,0:0|0:0,0:0:0:0:
183,223,227190,1,8,0:1:0:0:
287,74,227367,6,0,L|279:132,1,58.4999973220826,8|8,0:0|0:0,0:0:0:0:
176,165,227543,2,0,L|183:223,1,58.4999973220826,8|8,0:0|0:0,0:0:0:0:
84,60,227720,2,0,L|76:117,1,58.4999973220826,8|0,0:0|0:0,0:0:0:0:
48,320,227896,1,4,0:0:0:0:
312,260,228249,5,4,0:0:0:0:
48,320,228426,1,8,0:0:0:0:
2,219,228602,2,0,L|0:228,1,9,8|8,0:0|0:0,0:0:0:0:
48,320,228779,6,0,L|68:256,1,67.5000025749208,4|0,0:3|0:0,0:0:0:0:
172,204,228955,2,0,L|191:139,1,67.5000025749208,8|8,0:1|0:1,0:0:0:0:
256,12,229132,5,4,0:0:0:0:
297,89,229308,1,8,0:1:0:0:
512,124,229484,5,8,0:0:0:0:
456,332,229661,1,8,0:1:0:0:
316,384,229837,5,8,0:0:0:0:
256,224,230014,1,8,0:1:0:0:
404,104,230190,5,8,0:0:0:0:
92,72,230367,1,8,0:1:0:0:
200,8,230543,5,8,0:0:0:0:
256,316,230720,1,8,0:1:0:0:
372,76,230896,5,8,0:0:0:0:
316,384,231073,1,8,0:1:0:0:
200,8,231249,5,8,0:0:0:0:
168,152,231426,1,8,0:1:0:0:
208,344,231602,5,4,0:0:0:0:
512,280,231779,1,8,0:1:0:0:
408,160,231955,5,8,0:0:0:0:
100,224,232132,1,8,0:1:0:0:
208,344,232308,5,8,0:0:0:0:
128,40,232484,1,8,0:1:0:0:
396,8,232661,5,8,0:0:0:0:
296,344,232837,1,8,0:1:0:0:
408,160,233014,5,8,0:0:0:0:
353,131,233102,1,8,0:0:0:0:
293,146,233190,1,8,0:0:0:0:
258,197,233279,1,8,0:0:0:0:
203,225,233367,1,8,0:1:0:0:
143,210,233455,1,8,0:1:0:0:
108,159,233543,2,0,L|113:96,1,62.9999980773926,8|0,0:0|0:0,0:0:0:0:
194,15,233720,2,0,L|256:20,1,62.9999980773926,8|0,0:1|0:0,0:0:0:0:
408,8,233896,6,0,L|429:259,1,251.999992309571,4|4,0:0|0:3,0:0:0:0:
424,268,234337,1,4,0:3:0:0:
420,276,234426,1,2,0:0:0:0:
420,276,235132,6,0,B|392:260|392:260|344:268,2,67.5
481,214,235837,6,0,B|409:175|409:175|329:183,1,161.999995056153,2|8,0:0|0:1,0:0:0:0:
316,188,236455,1,8,0:1:0:0:
304,192,236543,2,0,B|280:128|280:128|304:52,2,135,4|0|0,0:0|0:0|0:0,0:0:0:0:
360,324,237249,5,4,0:0:0:0:
360,324,237602,5,8,0:1:0:0:
188,248,237779,1,8,0:1:0:0:
168,61,237955,1,8,0:0:0:0:
352,360,238132,5,8,0:0:0:0:
168,252,238308,1,8,0:0:0:0:
200,40,238484,1,8,0:0:0:0:
377,140,238661,2,0,L|364:208,1,62.9999980773926,4|0,0:0|0:0,0:0:0:0:
168,252,238837,6,0,L|194:389,1,125.999996154785,4|0,0:0|0:0,0:0:0:0:
192,375,239367,6,0,P|230:337|266:341,1,90,2|2,0:0|0:0,0:0:0:0:
266,333,241220,1,2,0:0:0:0:
270,325,241308,1,2,0:0:0:0:
274,317,241396,1,2,0:0:0:0:
279,309,241484,6,0,P|372:337|465:308,1,198.000006042481,4|8,0:0|0:0,0:0:0:0:
312,164,242014,1,0,0:0:0:0:
424,168,242190,2,0,L|325:175,1,99.0000030212403,8|8,0:1|0:1,0:0:0:0:
452,44,242543,2,0,L|353:51,1,99.0000030212403,8|0,0:0|0:0,0:0:0:0:
136,24,242896,6,0,B|95:1|95:1|116:160,1,198.000006042481,10|8,0:1|0:0,0:0:0:0:
168,336,243425,1,0,0:0:0:0:
256,364,243602,2,0,P|244:280|200:260,1,99.0000030212403,8|8,0:1|0:1,0:0:0:0:
114,150,243955,2,0,P|198:138|218:94,1,99.0000030212403,8|0,0:0|0:0,0:0:0:0:
212,124,244220,1,0,0:0:0:0:
220,116,244308,6,0,B|340:140|296:64|420:84,1,198.000006042481,4|8,0:0|0:0,0:0:0:0:
480,276,244837,1,0,0:0:0:0:
343,309,245014,1,8,0:1:0:0:
382,173,245190,1,8,0:1:0:0:
343,309,245367,1,8,0:0:0:0:
480,276,245543,1,0,0:0:0:0:
476,264,245631,1,0,0:0:0:0:
472,252,245720,5,10,0:1:0:0:
440,368,245896,1,0,0:0:0:0:
292,220,246073,2,0,P|243:214|201:238,1,99.0000030212403,8|8,0:0|0:1,0:0:0:0:
48,340,246337,1,8,0:1:0:0:
51,351,246425,2,0,P|80:312|80:264,1,99.0000030212403,8|0,0:0|0:1,0:0:0:0:
72,76,246690,1,8,0:1:0:0:
58,72,246778,2,0,P|78:117|120:142,1,99.0000030212403,8|0,0:0|0:1,0:0:0:0:
248,44,247043,1,8,0:1:0:0:
256,56,247131,6,0,B|320:44|320:44|372:72|372:72|464:52,1,198.000006042481,4|8,0:0|0:0,0:0:0:0:
304,160,247661,1,0,0:0:0:0:
428,316,247837,1,8,0:1:0:0:
444,56,248014,1,8,0:1:0:0:
208,160,248190,1,8,0:0:0:0:
311,347,248367,1,0,0:0:0:0:
311,347,248455,1,0,0:0:0:0:
311,347,248543,6,0,B|339:286|339:286|302:154,1,198.000006042481,10|8,0:1|0:0,0:0:0:0:
32,72,249073,1,0,0:0:0:0:
196,12,249249,1,8,0:1:0:0:
24,84,249425,1,8,0:1:0:0:
188,24,249601,1,8,0:0:0:0:
303,159,249778,1,0,0:0:0:0:
308,148,249867,1,0,0:0:0:0:
313,136,249955,5,8,0:1:0:0:
284,44,250131,1,8,0:0:0:0:
480,260,250308,5,8,0:0:0:0:
512,168,250484,1,8,0:1:0:0:
436,200,250661,5,8,0:0:0:0:
388,352,250837,1,8,0:1:0:0:
192,384,251014,1,8,0:0:0:0:
120,148,251190,1,0,0:0:0:0:
128,140,251278,1,8,0:0:0:0:
136,132,251367,6,0,L|208:148,1,49.5000015106202,8|0,0:1|0:0,0:0:0:0:
255,242,251543,2,0,L|304:232,1,49.5000015106202,8|0,0:0|0:0,0:0:0:0:
136,332,251720,2,0,L|184:342,1,49.5000015106202,8|8,0:0|0:0,0:0:0:0:
375,331,251896,1,4,0:3:0:0:
375,331,252073,6,0,L|385:282,1,49.5000015106202,4|0,0:0|0:0,0:0:0:0:
512,100,252249,1,8,0:3:0:0:
468,160,252337,1,8,0:3:0:0:
396,180,252425,1,8,0:0:0:0:
324,160,252514,1,8,0:0:0:0:
280,100,252602,2,0,L|269:51,1,49.5000015106202,4|4,0:3|0:3,0:0:0:0:
260,8,252778,5,2,0:0:0:0:
260,8,253484,2,0,L|336:20,2,67.5,0|0|0,0:0|0:0|0:0,0:0:0:0:
200,84,254190,6,0,L|359:110,1,161.999995056153,2|8,0:0|0:1,0:0:0:0:
368,104,254808,1,8,0:1:0:0:
376,96,254896,2,0,P|400:48|480:36,2,135,4|0|0,0:0|0:0|0:0,0:0:0:0:
416,268,255602,5,4,0:0:0:0:
416,268,255955,5,8,0:1:0:0:
256,328,256131,1,8,0:1:0:0:
96,268,256308,1,8,0:0:0:0:
448,336,256484,5,8,0:0:0:0:
240,372,256660,1,8,0:0:0:0:
48,276,256837,1,8,0:0:0:0:
20,64,257014,2,0,P|40:40|88:40,1,62.9999980773926,4|0,0:0|0:0,0:0:0:0:
256,0,257190,2,0,P|320:16|432:24,1,125.999996154785,4|0,0:0|0:0,0:0:0:0:
379,23,258073,6,0,P|450:41|452:121,1,162,0|0,0:0|0:0,0:0:0:0:
350,245,259837,6,0,B|298:274|250:245|189:196|274:117|410:137|353:228|490:207|490:207|457:212|442:232,1,432,4|0,0:0|0:0,0:0:0:0:
