osu file format v14

[General]
AudioFilename: audio.mp3
AudioLeadIn: 0
PreviewTime: 132165
Countdown: 0
SampleSet: Soft
StackLeniency: 0.5
Mode: 0
LetterboxInBreaks: 0
EpilepsyWarning: 1
WidescreenStoryboard: 1

[Editor]
Bookmarks: 1490,268308
DistanceSpacing: 0.2
BeatDivisor: 3
GridSize: 4
TimelineZoom: 1.7

[Metadata]
Title:Sakurairo Time Capsule
TitleUnicode:桜色タイムカプセル
Artist:Suzumu feat. GUMI
ArtistUnicode:スズム feat. GUMI
Creator:Kyuukai
Version:Expert
Source:
Tags:kebyou ningen ケビョウニンゲン Feigning Illness Human SUZUMUSIC Cherry Blossom Colored megpoid Kei Nakamura 中村圭 Youkame Ame ga Yamu Mae ni On eighth day before the rain stops 八日目、雨が止む前に vocaloid rock japanese eimi fukada yaleufeu full version
BeatmapID:2497699
BeatmapSetID:1195834

[Difficulty]
HPDrainRate:5.5
CircleSize:4
OverallDifficulty:8.5
ApproachRate:9
SliderMultiplier:1.8
SliderTickRate:1

[Events]
//Background and Video events
0,0,"my dad is big shaq.jpg",0,0
//Break Periods
//Storyboard Layer 0 (Background)
Sprite,Background,Centre,"sb\ring.png",496,128 F,0,62195,63195,0.5,0 S,19,62195,63195,0.1,0.3 P,0,62195,63195,A
Sprite,Background,Centre,"sb\ring.png",464,216 F,0,62372,63372,0.5,0 S,19,62372,63372,0.1,0.3 P,0,62372,63372,A
Sprite,Background,Centre,"sb\ring.png",436,56 F,0,62548,63548,0.5,0 S,19,62548,63548,0.1,0.3 P,0,62548,63548,A
Sprite,Background,Centre,"sb\ring.png",556,200 F,0,62725,63725,0.5,0 S,19,62725,63725,0.1,0.3 P,0,62725,63725,A
Sprite,Background,Centre,"sb\ring.png",372,236 F,0,62901,63901,0.5,0 S,19,62901,63901,0.1,0.3 P,0,62901,63901,A
Sprite,Background,Centre,"sb\ring.png",496,128 F,0,63078,64078,0.5,0 S,19,63078,64078,0.1,0.3 P,0,63078,64078,A
Sprite,Background,Centre,"sb\ring.png",444,340 F,0,63254,64254,0.5,0 S,19,63254,64254,0.1,0.3 P,0,63254,64254,A
Sprite,Background,Centre,"sb\ring.png",401,145 F,0,63431,64431,0.5,0 S,19,63431,64431,0.1,0.3 P,0,63431,64431,A
Sprite,Background,Centre,"sb\ring.png",576,316 F,0,63607,64607,0.5,0 S,19,63607,64607,0.1,0.3 P,0,63607,64607,A
Sprite,Background,Centre,"sb\ring.png",424,60 F,0,74901,75901,0.5,0 S,19,74901,75901,0.1,0.3 P,0,74901,75901,A
Sprite,Background,Centre,"sb\ring.png",428,68 F,0,74989,75989,0.5,0 S,19,74989,75989,0.1,0.3 P,0,74989,75989,A
Sprite,Background,Centre,"sb\ring.png",432,76 F,0,75078,76078,0.5,0 S,19,75078,76078,0.1,0.3 P,0,75078,76078,A
Sprite,Background,Centre,"sb\ring.png",320,136 F,0,75254,76254,0.5,0 S,19,75254,76254,0.1,0.3 P,0,75254,76254,A
Sprite,Background,Centre,"sb\ring.png",168,72 F,0,75431,76431,0.5,0 S,19,75431,76431,0.1,0.3 P,0,75431,76431,A
Sprite,Background,Centre,"sb\ring.png",224,208 F,0,75784,76784,0.5,0 S,19,75784,76784,0.1,0.3 P,0,75784,76784,A
Sprite,Background,Centre,"sb\ring.png",156,372 F,0,75960,76960,0.5,0 S,19,75960,76960,0.1,0.3 P,0,75960,76960,A
Sprite,Background,Centre,"sb\ring.png",312,284 F,0,76137,77137,0.5,0 S,19,76137,77137,0.1,0.3 P,0,76137,77137,A
Sprite,Background,Centre,"sb\ring.png",308,292 F,0,76225,77225,0.5,0 S,19,76225,77225,0.1,0.3 P,0,76225,77225,A
Sprite,Background,Centre,"sb\ring.png",304,300 F,0,76313,77313,0.5,0 S,19,76313,77313,0.1,0.3 P,0,76313,77313,A
Sprite,Background,Centre,"sb\ring.png",140,300 F,0,84078,85078,0.5,0 S,19,84078,85078,0.1,0.3 P,0,84078,85078,A
Sprite,Background,Centre,"sb\ring.png",168,212 F,0,84784,85784,0.5,0 S,19,84784,85784,0.1,0.3 P,0,84784,85784,A
Sprite,Background,Centre,"sb\ring.png",168,212 F,0,85137,86137,0.5,0 S,19,85137,86137,0.1,0.3 P,0,85137,86137,A
Sprite,Background,Centre,"sb\ring.png",336,248 F,0,85313,86313,0.5,0 S,19,85313,86313,0.1,0.3 P,0,85313,86313,A
Sprite,Background,Centre,"sb\ring.png",276,120 F,0,85489,86489,0.5,0 S,19,85489,86489,0.1,0.3 P,0,85489,86489,A
Sprite,Background,Centre,"sb\ring.png",236,312 F,0,85665,86665,0.5,0 S,19,85665,86665,0.1,0.3 P,0,85665,86665,A
Sprite,Background,Centre,"sb\ring.png",364,156 F,0,85842,86842,0.5,0 S,19,85842,86842,0.1,0.3 P,0,85842,86842,A
Sprite,Background,Centre,"sb\ring.png",400,368 F,0,86018,87018,0.5,0 S,19,86018,87018,0.1,0.3 P,0,86018,87018,A
Sprite,Background,Centre,"sb\ring.png",472,236 F,0,86195,87195,0.5,0 S,19,86195,87195,0.1,0.3 P,0,86195,87195,A
Sprite,Background,Centre,"sb\ring.png",236,312 F,0,86372,87372,0.5,0 S,19,86372,87372,0.1,0.3 P,0,86372,87372,A
Sprite,Background,Centre,"sb\ring.png",172,176 F,0,129959,130959,0.5,0 S,19,129959,130959,0.1,0.3 P,0,129959,130959,A
Sprite,Background,Centre,"sb\ring.png",144,88 F,0,130136,131136,0.5,0 S,19,130136,131136,0.1,0.3 P,0,130136,131136,A
Sprite,Background,Centre,"sb\ring.png",110,244 F,0,130312,131312,0.5,0 S,19,130312,131312,0.1,0.3 P,0,130312,131312,A
Sprite,Background,Centre,"sb\ring.png",235,107 F,0,130489,131489,0.5,0 S,19,130489,131489,0.1,0.3 P,0,130489,131489,A
Sprite,Background,Centre,"sb\ring.png",80,156 F,0,130665,131665,0.5,0 S,19,130665,131665,0.1,0.3 P,0,130665,131665,A
Sprite,Background,Centre,"sb\ring.png",263,196 F,0,130842,131842,0.5,0 S,19,130842,131842,0.1,0.3 P,0,130842,131842,A
Sprite,Background,Centre,"sb\ring.png",140,332 F,0,131018,132018,0.5,0 S,19,131018,132018,0.1,0.3 P,0,131018,132018,A
Sprite,Background,Centre,"sb\ring.png",80,156 F,0,131195,132195,0.5,0 S,19,131195,132195,0.1,0.3 P,0,131195,132195,A
Sprite,Background,Centre,"sb\ring.png",263,196 F,0,131371,132371,0.5,0 S,19,131371,132371,0.1,0.3 P,0,131371,132371,A
Sprite,Background,Centre,"sb\ring.png",413,195 F,0,142665,143665,0.5,0 S,19,142665,143665,0.1,0.3 P,0,142665,143665,A
Sprite,Background,Centre,"sb\ring.png",417,203 F,0,142753,143753,0.5,0 S,19,142753,143753,0.1,0.3 P,0,142753,143753,A
Sprite,Background,Centre,"sb\ring.png",421,211 F,0,142842,143842,0.5,0 S,19,142842,143842,0.1,0.3 P,0,142842,143842,A
Sprite,Background,Centre,"sb\ring.png",309,271 F,0,143018,144018,0.5,0 S,19,143018,144018,0.1,0.3 P,0,143018,144018,A
Sprite,Background,Centre,"sb\ring.png",168,216 F,0,143195,144195,0.5,0 S,19,143195,144195,0.1,0.3 P,0,143195,144195,A
Sprite,Background,Centre,"sb\ring.png",224,352 F,0,143548,144548,0.5,0 S,19,143548,144548,0.1,0.3 P,0,143548,144548,A
Sprite,Background,Centre,"sb\ring.png",76,236 F,0,143724,144724,0.5,0 S,19,143724,144724,0.1,0.3 P,0,143724,144724,A
Sprite,Background,Centre,"sb\ring.png",156,108 F,0,143901,144901,0.5,0 S,19,143901,144901,0.1,0.3 P,0,143901,144901,A
Sprite,Background,Centre,"sb\ring.png",152,116 F,0,143989,144989,0.5,0 S,19,143989,144989,0.1,0.3 P,0,143989,144989,A
Sprite,Background,Centre,"sb\ring.png",148,124 F,0,144077,145077,0.5,0 S,19,144077,145077,0.1,0.3 P,0,144077,145077,A
Sprite,Background,Centre,"sb\ring.png",176,164 F,0,151842,152842,0.5,0 S,19,151842,152842,0.1,0.3 P,0,151842,152842,A
Sprite,Background,Centre,"sb\ring.png",164,72 F,0,152548,153548,0.5,0 S,19,152548,153548,0.1,0.3 P,0,152548,153548,A
Sprite,Background,Centre,"sb\ring.png",164,72 F,0,152901,153901,0.5,0 S,19,152901,153901,0.1,0.3 P,0,152901,153901,A
Sprite,Background,Centre,"sb\ring.png",332,148 F,0,153077,154077,0.5,0 S,19,153077,154077,0.1,0.3 P,0,153077,154077,A
Sprite,Background,Centre,"sb\ring.png",192,232 F,0,153254,154254,0.5,0 S,19,153254,154254,0.1,0.3 P,0,153254,154254,A
Sprite,Background,Centre,"sb\ring.png",272,56 F,0,153430,154430,0.5,0 S,19,153430,154430,0.1,0.3 P,0,153430,154430,A
Sprite,Background,Centre,"sb\ring.png",296,248 F,0,153606,154606,0.5,0 S,19,153606,154606,0.1,0.3 P,0,153606,154606,A
Sprite,Background,Centre,"sb\ring.png",164,72 F,0,153783,154783,0.5,0 S,19,153783,154783,0.1,0.3 P,0,153783,154783,A
Sprite,Background,Centre,"sb\ring.png",332,148 F,0,153959,154959,0.5,0 S,19,153959,154959,0.1,0.3 P,0,153959,154959,A
Sprite,Background,Centre,"sb\ring.png",88,212 F,0,154136,155136,0.5,0 S,19,154136,155136,0.1,0.3 P,0,154136,155136,A
Sprite,Background,Centre,"sb\ring.png",380,168 F,0,227370,228370,0.5,0 S,19,227370,228370,0.1,0.3 P,0,227370,228370,A
Sprite,Background,Centre,"sb\ring.png",376,176 F,0,227458,228458,0.5,0 S,19,227458,228458,0.1,0.3 P,0,227458,228458,A
Sprite,Background,Centre,"sb\ring.png",371,183 F,0,227547,228547,0.5,0 S,19,227547,228547,0.1,0.3 P,0,227547,228547,A
Sprite,Background,Centre,"sb\ring.png",253,293 F,0,227723,228723,0.5,0 S,19,227723,228723,0.1,0.3 P,0,227723,228723,A
Sprite,Background,Centre,"sb\ring.png",232,128 F,0,227899,228899,0.5,0 S,19,227899,228899,0.1,0.3 P,0,227899,228899,A
Sprite,Background,Centre,"sb\ring.png",160,188 F,0,228252,229252,0.5,0 S,19,228252,229252,0.1,0.3 P,0,228252,229252,A
Sprite,Background,Centre,"sb\ring.png",332,84 F,0,228429,229429,0.5,0 S,19,228429,229429,0.1,0.3 P,0,228429,229429,A
Sprite,Background,Centre,"sb\ring.png",360,212 F,0,228605,229605,0.5,0 S,19,228605,229605,0.1,0.3 P,0,228605,229605,A
Sprite,Background,Centre,"sb\ring.png",364,220 F,0,228693,229693,0.5,0 S,19,228693,229693,0.1,0.3 P,0,228693,229693,A
Sprite,Background,Centre,"sb\ring.png",367,227 F,0,228781,229781,0.5,0 S,19,228781,229781,0.1,0.3 P,0,228781,229781,A
Sprite,Background,Centre,"sb\ring.png",184,275 F,0,236546,237546,0.5,0 S,19,236546,237546,0.1,0.3 P,0,236546,237546,A
Sprite,Background,Centre,"sb\ring.png",244,204 F,0,237252,238252,0.5,0 S,19,237252,238252,0.1,0.3 P,0,237252,238252,A
Sprite,Background,Centre,"sb\ring.png",244,204 F,0,237605,238605,0.5,0 S,19,237605,238605,0.1,0.3 P,0,237605,238605,A
Sprite,Background,Centre,"sb\ring.png",276,388 F,0,237781,238781,0.5,0 S,19,237781,238781,0.1,0.3 P,0,237781,238781,A
Sprite,Background,Centre,"sb\ring.png",392,232 F,0,237958,238958,0.5,0 S,19,237958,238958,0.1,0.3 P,0,237958,238958,A
Sprite,Background,Centre,"sb\ring.png",360,436 F,0,238134,239134,0.5,0 S,19,238134,239134,0.1,0.3 P,0,238134,239134,A
Sprite,Background,Centre,"sb\ring.png",260,296 F,0,238311,239311,0.5,0 S,19,238311,239311,0.1,0.3 P,0,238311,239311,A
Sprite,Background,Centre,"sb\ring.png",492,356 F,0,238487,239487,0.5,0 S,19,238487,239487,0.1,0.3 P,0,238487,239487,A
Sprite,Background,Centre,"sb\ring.png",328,164 F,0,238664,239664,0.5,0 S,19,238664,239664,0.1,0.3 P,0,238664,239664,A
Sprite,Background,Centre,"sb\ring.png",360,436 F,0,238840,239840,0.5,0 S,19,238840,239840,0.1,0.3 P,0,238840,239840,A
//Storyboard Layer 1 (Fail)
//Storyboard Layer 2 (Pass)
//Storyboard Layer 3 (Foreground)
//Storyboard Layer 4 (Overlay)
//Storyboard Sound Samples

[TimingPoints]
1490,352.941176470588,4,2,1,40,1,0
1490,-166.666666666667,4,2,1,40,0,0
14901,-166.666666666667,4,2,1,40,0,0
15166,-166.666666666667,4,2,1,5,0,0
15254,-125,4,2,1,40,0,0
15519,-125,4,2,1,5,0,0
15607,-100,4,2,1,60,0,0
26901,-250,4,2,1,40,0,0
29725,-166.666666666667,4,2,1,40,0,0
31137,-125,4,2,1,50,0,0
42431,-111.111111111111,4,2,1,60,0,0
53725,-142.857142857143,4,2,1,50,0,0
59372,-500,4,2,1,40,0,0
59989,-500,4,2,1,5,0,0
60078,-333.333333333333,4,2,1,40,0,0
60695,-333.333333333333,4,2,1,5,0,0
60784,-250,4,2,1,40,0,0
61401,-250,4,2,1,5,0,0
61489,-200,4,2,1,70,0,0
62107,-200,4,2,1,5,0,0
62195,-71.4285714285714,4,2,1,70,0,0
63607,-200,4,2,1,70,0,0
64489,-200,4,2,1,30,0,0
65019,-100,4,2,1,80,0,1
70666,-100,4,2,1,80,0,0
71019,-100,4,2,1,80,0,1
72078,-100,4,2,1,80,0,0
72431,-100,4,2,1,80,0,1
73313,-100,4,2,1,80,0,0
73489,-100,4,2,1,80,0,1
74901,-100,4,2,1,80,0,0
75431,-83.3333333333333,4,2,1,80,0,1
75519,-83.3333333333333,4,2,1,80,0,0
75695,-83.3333333333333,4,2,1,5,0,0
75784,-250,4,2,1,80,0,1
75872,-250,4,2,1,80,0,0
76313,-100,4,2,1,80,0,1
81960,-200,4,2,1,40,0,0
83372,-166.666666666667,4,2,1,60,0,0
84078,-125,4,2,1,80,0,0
84784,-83.3333333333333,4,2,1,80,0,1
86372,-83.3333333333333,4,2,1,80,0,0
86901,-200,4,2,1,80,0,0
87254,-133.333333333333,4,2,1,80,0,0
87607,-100,4,2,1,60,0,0
98901,-200,4,2,1,40,0,0
100313,-166.666666666667,4,2,1,50,0,0
101019,-133.333333333333,4,2,1,50,0,0
101725,-111.111111111111,4,2,1,60,0,0
108784,-100,4,2,1,50,0,0
109489,340.909090909091,4,2,1,40,1,0
109489,-125,4,2,1,40,0,0
110170,353.460972017673,4,2,1,50,1,0
110170,-111.111111111111,4,2,1,50,0,0
110523,357.142857142857,4,2,1,60,1,0
110523,-111.111111111111,4,2,1,60,0,0
111607,352.941176470588,4,2,1,60,1,0
111607,-111.111111111111,4,2,1,60,0,0
121489,-142.857142857143,4,2,1,50,0,0
127136,-500,4,2,1,30,0,0
127754,-500,4,2,1,5,0,0
127842,-333.333333333333,4,2,1,40,0,0
128459,-333.333333333333,4,2,1,5,0,0
128548,-250,4,2,1,50,0,0
129165,-250,4,2,1,5,0,0
129253,-200,4,2,1,60,0,0
129871,-200,4,2,1,5,0,0
129959,-71.4285714285714,4,2,1,70,0,0
131724,-200,4,2,1,70,0,0
132077,-100,4,2,1,70,0,0
132254,-100,4,2,1,70,0,0
132430,-83.3333333333333,4,2,1,70,0,0
132783,-100,4,2,1,80,0,1
138430,-100,4,2,1,80,0,0
138783,-100,4,2,1,80,0,1
139842,-100,4,2,1,80,0,0
140195,-100,4,2,1,80,0,1
141077,-100,4,2,1,80,0,0
141254,-100,4,2,1,80,0,1
142665,-100,4,2,1,80,0,0
143195,-83.3333333333333,4,2,1,80,0,1
143283,-83.3333333333333,4,2,1,80,0,0
143459,-83.3333333333333,4,2,1,5,0,0
143548,-250,4,2,1,80,0,1
143636,-250,4,2,1,80,0,0
144077,-100,4,2,1,80,0,1
149724,-200,4,2,1,40,0,0
151136,-166.666666666667,4,2,1,60,0,0
151842,-125,4,2,1,80,0,0
152548,-83.3333333333333,4,2,1,80,0,1
154136,-83.3333333333333,4,2,1,80,0,0
154312,-333.333333333333,4,2,1,80,0,0
155283,-333.333333333333,4,2,1,5,0,0
155371,-500,4,2,1,40,0,0
166665,-166.666666666667,4,2,1,40,0,0
172312,-333.333333333333,4,2,1,40,0,0
175136,-125,4,2,1,60,0,0
176548,-99.9999999999999,4,2,1,65,0,0
177077,-90.9090909090909,4,2,1,65,0,0
177959,-83.3333333333333,4,2,1,70,0,0
179371,344.827586206897,4,2,1,70,1,0
179371,-83.3333333333333,4,2,1,70,0,0
180233,370.37037037037,4,2,1,70,1,0
180233,-83.3333333333333,4,2,1,70,0,0
180418,370.37037037037,4,2,1,70,1,0
180418,-83.3333333333333,4,2,1,70,0,0
180788,348.837209302326,4,2,1,70,1,0
180788,-83.3333333333333,4,2,1,70,0,0
181136,333.333333333333,4,2,1,70,1,0
181136,-83.3333333333333,4,2,1,70,0,0
181469,348.837209302326,4,2,1,70,1,0
181469,-83.3333333333333,4,2,1,70,0,0
181817,375,4,2,1,70,1,0
181817,-83.3333333333333,4,2,1,70,0,0
182192,357.142857142857,4,2,1,70,1,0
182192,-83.3333333333333,4,2,1,70,0,0
182549,344.827586206897,4,2,1,70,1,0
182549,-83.3333333333333,4,2,1,70,0,0
183238,357.142857142857,4,2,1,70,1,0
183238,-83.3333333333333,4,2,1,70,0,0
183595,352.941176470588,4,2,1,80,1,0
183595,-90.9090909090909,4,2,1,80,0,0
183947,-66.6666666666667,4,2,1,70,0,0
184124,340.909090909091,4,2,1,80,1,0
184124,-133.333333333333,4,2,1,80,0,0
184464,352.941176470588,4,2,1,80,1,0
184993,352.941176470588,4,2,1,80,1,0
184993,-90.9090909090909,4,2,1,80,0,0
185345,-66.6666666666667,4,2,1,70,0,0
185522,-133.333333333333,4,2,1,80,0,0
185698,361.44578313253,4,2,1,80,1,0
185969,315.789473684211,4,2,1,80,1,0
186127,285.714285714286,4,2,1,80,1,0
186412,344.827586206897,4,2,1,80,1,0
186412,-80,4,2,1,80,0,0
186670,337.078651685393,4,2,1,80,1,0
186922,315.789473684211,4,2,1,80,1,0
187158,322.58064516129,4,2,1,80,1,0
187883,-500,4,2,1,70,0,0
189174,-500,4,2,1,5,0,0
189254,352.941176470588,4,2,1,40,1,0
189254,-166.666666666667,4,2,1,40,0,0
197724,-333.333333333334,4,2,1,40,0,0
200548,-142.857142857143,4,2,1,50,0,0
206195,368.098159509202,4,2,1,30,1,0
206195,-200,4,2,1,30,0,0
206931,342.857142857143,4,2,1,30,1,0
206931,-333.333333333333,4,2,1,30,0,0
207531,-333.333333333333,4,2,1,5,0,0
207616,361.44578313253,4,2,1,30,1,0
207616,-250.000000000001,4,2,1,30,0,0
208248,-250.000000000001,4,2,1,5,0,0
208338,-200,4,2,1,30,0,0
208971,-200,4,2,1,5,0,0
209061,-333.333333333334,4,2,1,40,0,0
209784,-333.333333333334,4,2,1,5,0,0
210077,352.941176470588,4,2,1,40,1,0
210077,-200,4,2,1,40,0,0
210429,352.941176470588,4,2,1,40,1,0
210429,-166.666666666667,4,2,1,40,0,0
211134,-250,4,2,1,60,0,0
211752,-250,4,2,1,5,0,0
211840,-100,4,2,1,70,0,0
213605,-125,4,2,1,50,0,0
213958,-100,4,2,1,60,0,0
214663,333.333333333333,4,2,1,80,1,0
214663,-133.333333333333,4,2,1,80,0,0
214996,375,4,2,1,80,1,0
214996,-100,4,2,1,80,0,0
215277,-100,4,2,1,5,0,0
215369,352.941176470588,4,2,1,80,1,0
215369,-80,4,2,1,80,0,0
216074,348.837209302326,4,2,1,80,1,0
216074,-333.333333333333,4,2,1,80,0,0
216858,-200,4,2,1,5,0,0
216946,-500,4,2,1,30,0,0
217469,370.37037037037,4,2,1,80,1,1
217469,-100,4,2,1,80,0,1
217839,352.941176470588,4,2,1,80,1,1
218015,352.941176470588,4,2,1,80,1,1
218897,352.941176470588,4,2,1,80,1,1
222603,333.333333333333,4,2,1,80,1,1
222769,352.941176470588,4,2,1,80,1,1
222945,375,4,2,1,80,1,1
223132,352.941176470588,4,2,1,80,1,0
223132,-100,4,2,1,80,0,0
223484,-100,4,2,1,80,0,1
224543,-100,4,2,1,80,0,0
224896,-100,4,2,1,80,0,1
225779,-100,4,2,1,80,0,0
225955,-100,4,2,1,80,0,1
227367,-100,4,2,1,80,0,0
227896,-83.3333333333333,4,2,1,80,0,1
227984,-83.3333333333333,4,2,1,80,0,0
228161,-83.3333333333333,4,2,1,5,0,0
228249,-100,4,2,1,80,0,1
228337,-100,4,2,1,80,0,0
228779,-133.333333333333,4,2,1,80,0,0
229132,-83.3333333333333,4,2,1,80,0,1
234426,-200,4,2,1,60,0,0
235837,-166.666666666667,4,2,1,80,0,0
236543,-125,4,2,1,80,0,0
237249,-83.3333333333333,4,2,1,80,0,1
238837,-83.3333333333333,4,2,1,80,0,0
239367,-1000,4,2,1,20,0,0
241132,-125,4,2,1,40,0,0
241396,-125,4,2,1,40,0,0
241484,-100,4,2,1,60,0,0
252779,-200,4,2,1,60,0,0
254190,-166.666666666667,4,2,1,60,0,0
254896,-100,4,2,1,70,0,0
255602,-83.3333333333333,4,2,1,70,0,0
258073,-500,4,2,1,20,0,0
259661,-500,4,2,1,5,0,0
259837,-1000,4,2,1,70,0,0
268308,-1000,4,2,1,5,0,0

[Colours]
Combo1 : 207,207,207
Combo2 : 255,128,192
Combo3 : 255,128,128
Combo4 : 66,160,255

[HitObjects]
68,100,1490,6,0,L|188:92,1,107.999996704102,2|0,0:0|0:0,0:0:0:0:
256,35,2019,2,0,P|269:58|273:84,1,53.9999983520508,2|0,0:0|0:0,0:0:0:0:
372,71,2372,2,0,P|372:97|362:122,1,53.9999983520508,2|0,0:0|0:0,0:0:0:0:
284,180,2725,1,2,0:0:0:0:
284,180,2901,2,0,L|164:188,1,107.999996704102,2|2,0:0|0:0,0:0:0:0:
140,262,3431,2,0,P|138:210|91:191,1,107.999996704102,2|2,0:0|0:0,0:0:0:0:
44,276,3960,1,2,0:0:0:0:
104,352,4137,1,2,0:0:0:0:
200,336,4313,6,0,P|256:332|288:376,2,107.999996704102,2|2|2,0:0|0:0|0:0,0:0:0:0:
204,348,5372,1,2,0:0:0:0:
208,360,5725,2,0,B|304:376|268:312|368:324,1,161.999995056153,2|2,0:0|0:0,0:0:0:0:
444,368,6431,1,2,0:0:0:0:
296,212,7137,6,0,L|304:92,1,107.999996704102,2|0,0:0|0:0,0:0:0:0:
392,68,7666,1,2,0:0:0:0:
392,68,7842,2,0,L|395:121,1,53.9999983520508,2|0,0:0|0:0,0:0:0:0:
486,173,8195,1,2,0:0:0:0:
402,229,8372,1,2,0:0:0:0:
493,281,8548,2,0,L|486:173,1,107.999996704102,2|2,0:0|0:0,0:0:0:0:
395,121,9078,2,0,L|402:229,2,107.999996704102,2|2|2,0:0|0:0|0:0,0:0:0:0:
388,24,9960,5,2,0:0:0:0:
388,24,10313,6,0,L|320:32,1,53.9999983520508,2|0,0:0|0:0,0:0:0:0:
300,120,10666,2,0,L|232:128,1,53.9999983520508,2|0,0:0|0:0,0:0:0:0:
384,36,11019,6,0,L|316:44,1,53.9999983520508,2|0,0:0|0:0,0:0:0:0:
296,132,11372,2,0,L|228:140,1,53.9999983520508,2|0,0:0|0:0,0:0:0:0:
376,48,11725,6,0,L|308:56,1,53.9999983520508,2|0,0:0|0:0,0:0:0:0:
288,144,12078,2,0,L|220:152,1,53.9999983520508,2|0,0:0|0:0,0:0:0:0:
136,160,12431,5,2,0:0:0:0:
176,72,12607,1,0,0:0:0:0:
192,236,12784,1,2,0:0:0:0:
192,236,13137,6,0,L|200:312,1,53.9999983520508,2|0,0:0|0:0,0:0:0:0:
288,324,13489,2,0,L|293:270,1,53.9999983520508,2|2,0:0|0:0,0:0:0:0:
384,236,13842,6,0,L|389:289,1,53.9999983520508,2|2,0:0|0:0,0:0:0:0:
480,324,14195,2,0,L|485:270,1,53.9999983520508,2|2,0:0|0:0,0:0:0:0:
496,176,14548,5,2,0:0:0:0:
484,270,14725,1,2,0:0:0:0:
496,176,14901,6,0,L|408:164,1,80.9999975280763,2|0,0:0|0:0,0:0:0:0:
336,216,15254,6,0,P|318:165|334:115,1,108,4|0,0:3|0:0,0:0:0:0:
360,20,15607,6,0,B|248:8|296:76|188:60,1,180,4|8,0:0|0:0,0:0:0:0:
4,112,16137,1,0,0:0:0:0:
71,43,16313,2,0,P|95:80|100:125,1,90,8|8,0:1|0:1,0:0:0:0:
162,236,16666,2,0,P|167:192|192:155,1,90,8|0,0:0|0:0,0:0:0:0:
260,308,17019,6,0,B|152:340|152:340|91:309,1,180,10|8,0:1|0:0,0:0:0:0:
260,224,17548,1,0,0:0:0:0:
348,264,17725,2,0,P|356:324|340:364,1,90,8|8,0:1|0:1,0:0:0:0:
436,224,18078,2,0,P|425:180|435:136,1,90,8|0,0:0|0:0,0:0:0:0:
468,60,18342,1,0,0:0:0:0:
468,60,18431,6,0,P|408:16|292:44,1,180,10|8,0:1|0:0,0:0:0:0:
172,104,18960,1,0,0:0:0:0:
236,176,19137,2,0,L|336:164,1,90,8|8,0:1|0:1,0:0:0:0:
212,16,19489,2,0,L|112:4,1,90,8|0,0:0|0:0,0:0:0:0:
48,40,19754,1,0,0:0:0:0:
48,40,19842,6,0,B|64:104|64:104|44:148|44:148|60:232,1,180,10|8,0:1|0:0,0:0:0:0:
160,164,20372,1,8,0:1:0:0:
160,164,20460,1,8,0:1:0:0:
160,164,20548,1,8,0:0:0:0:
76,324,20725,1,8,0:1:0:0:
176,272,20901,2,0,P|244:272|256:344,1,135,8|0,0:0|0:0,0:0:0:0:
344,379,21254,6,0,P|357:292|319:212,1,180,4|8,0:0|0:0,0:0:0:0:
318,211,21960,1,8,0:1:0:0:
492,260,22137,1,8,0:1:0:0:
436,124,22313,1,8,0:0:0:0:
387,298,22489,1,0,0:0:0:0:
260,136,22666,6,0,B|148:124|196:192|88:176,1,180,10|8,0:1|0:0,0:0:0:0:
0,32,23195,1,0,0:0:0:0:
112,84,23372,1,8,0:1:0:0:
0,240,23548,1,8,0:1:0:0:
91,176,23725,2,0,P|152:180|152:256,1,135,8|0,0:0|0:0,0:0:0:0:
140,336,24078,6,0,B|252:348|204:280|312:296,1,180,4|8,0:0|0:0,0:0:0:0:
400,192,24607,1,0,0:0:0:0:
452,348,24784,1,8,0:1:0:0:
392,172,24960,1,8,0:1:0:0:
340,328,25137,1,8,0:0:0:0:
340,328,25489,5,8,0:1:0:0:
276,172,25666,1,8,0:0:0:0:
412,60,25842,1,8,0:0:0:0:
352,232,26019,1,8,0:1:0:0:
276,60,26195,2,0,P|228:48|172:80,1,90,8|8,0:0|0:0,0:0:0:0:
180,88,26460,5,8,0:0:0:0:
152,84,26548,1,8,0:0:0:0:
124,80,26637,1,8,0:3:0:0:
96,76,26725,1,8,0:3:0:0:
68,72,26813,1,8,0:3:0:0:
20,64,26901,5,4,0:0:0:0:
20,64,27431,5,0,0:0:0:0:
88,124,27607,2,0,L|76:200,1,72,2|0,0:0|0:0,0:0:0:0:
252,116,28137,5,0,0:0:0:0:
185,176,28313,2,0,L|196:247,1,72,2|0,0:0|0:0,0:0:0:0:
20,168,28842,5,0,0:0:0:0:
87,228,29019,2,0,L|75:299,1,72,2|0,0:0|0:0,0:0:0:0:
75,299,29725,5,2,0:0:0:0:
80,312,30078,1,2,0:0:0:0:
84,324,30431,1,2,0:0:0:0:
164,232,30784,2,0,P|203:233|224:266,1,80.9999975280763,4|8,0:3|0:3,0:0:0:0:
208,362,31137,6,0,B|292:374|264:314|364:330,1,144,4|10,0:0|0:1,0:0:0:0:
432,360,31666,1,0,0:0:0:0:
432,360,31842,2,0,P|440:324|424:276,1,72,10|0,0:1|0:0,0:0:0:0:
356,232,32195,2,0,P|348:196|364:148,1,72,10|0,0:1|0:0,0:0:0:0:
464,4,32548,5,10,0:1:0:0:
480,100,32725,2,0,B|396:112|424:52|324:68,1,144,0|0,0:0|0:0,0:0:0:0:
267,4,33254,2,0,P|251:35|247:71,1,72,10|0,0:1|0:0,0:0:0:0:
156,124,33607,2,0,P|152:88|135:56,1,72,10|0,0:1|0:0,0:0:0:0:
16,128,33960,6,0,B|4:212|64:184|48:284,1,144,10|10,0:1|0:1,0:0:0:0:
36,356,34489,1,0,0:0:0:0:
36,356,34666,2,0,B|120:368|92:308|192:324,1,144,10|10,0:1|0:1,0:0:0:0:
256,368,35195,1,0,0:0:0:0:
172,224,35372,5,10,0:1:0:0:
256,272,35548,2,0,P|291:280|326:272,1,72,2|10,0:0|0:1,0:0:0:0:
292,184,35901,1,2,0:0:0:0:
409,321,36078,2,0,B|429:277|429:277|404:184,1,144,10|10,0:1|0:1,0:0:0:0:
348,8,36607,1,2,0:0:0:0:
260,76,36784,6,0,B|190:54|190:54|122:78,1,144,10|10,0:1|0:1,0:0:0:0:
32,44,37313,1,0,0:0:0:0:
32,44,37489,2,0,P|21:78|32:111,1,72,10|0,0:1|0:0,0:0:0:0:
108,172,37842,1,10,0:1:0:0:
123,78,38019,1,0,0:0:0:0:
42,243,38195,6,0,P|107:270|172:243,1,144,10|10,0:1|0:1,0:0:0:0:
236,172,38725,1,0,0:0:0:0:
236,172,38901,2,0,L|232:100,1,72,10|0,0:1|0:0,0:0:0:0:
336,60,39254,2,0,L|332:131,1,72,10|0,0:1|0:0,0:0:0:0:
439,243,39607,6,0,L|432:100,1,144,10|10,0:1|0:1,0:0:0:0:
331,131,40137,1,0,0:0:0:0:
331,131,40313,2,0,L|338:274,1,144,10|10,0:1|0:1,0:0:0:0:
338,274,41019,5,10,0:1:0:0:
439,243,41195,1,2,0:0:0:0:
384,376,41372,5,10,0:1:0:0:
244,332,41548,1,2,0:0:0:0:
343,202,41725,6,0,L|337:273,1,72,10|8,0:0|0:0,0:0:0:0:
328,272,41989,1,8,0:0:0:0:
316,268,42078,1,8,0:0:0:0:
304,264,42166,1,4,0:3:0:0:
292,260,42254,1,4,0:3:0:0:
280,256,42342,1,4,0:3:0:0:
260,252,42431,6,0,B|172:240|200:308|96:292,1,161.999995056153,4|8,0:0|0:0,0:0:0:0:
32,172,42960,1,0,0:0:0:0:
116,122,43137,2,0,P|129:160|124:200,1,80.9999975280763,8|8,0:1|0:1,0:0:0:0:
32,72,43489,2,0,P|58:41|95:26,1,80.9999975280763,8|0,0:0|0:0,0:0:0:0:
256,92,43842,5,10,0:1:0:0:
187,154,44019,2,0,P|147:146|115:121,1,80.9999975280763,0|8,0:0|0:0,0:0:0:0:
240,0,44372,2,0,B|328:-12|300:56|404:40,1,161.999995056153,10|0,0:1|0:0,0:0:0:0:
512,100,44901,1,8,0:0:0:0:
484,0,45078,1,0,0:0:0:0:
416,144,45254,6,0,B|404:232|472:204|456:308,1,161.999995056153,10|8,0:1|0:0,0:0:0:0:
328,368,45784,1,0,0:0:0:0:
251,313,45960,2,0,P|294:251|364:280,1,161.999995056153,8|8,0:1|0:0,0:0:0:0:
328,368,46489,1,0,0:0:0:0:
168,256,46666,5,8,0:1:0:0:
108,348,46842,2,0,P|70:360|32:347,1,80.9999975280763,2|8,0:0|0:0,0:0:0:0:
168,256,47195,1,2,0:0:0:0:
116,120,47372,2,0,B|128:208|60:180|76:284,1,161.999995056153,8|8,0:1|0:0,0:0:0:0:
24,136,47901,1,0,0:0:0:0:
168,256,48078,6,0,B|224:284|224:284|320:257,1,161.999995056153,10|8,0:1|0:0,0:0:0:0:
408,320,48607,2,0,B|436:264|436:264|409:168,1,161.999995056153,0|8,0:0|0:1,0:0:0:0:
360,20,49137,1,8,0:0:0:0:
456,72,49313,1,0,0:0:0:0:
296,124,49489,6,0,B|208:136|236:68|132:84,1,161.999995056153,10|8,0:1|0:0,0:0:0:0:
160,176,50019,1,0,0:0:0:0:
71,143,50195,2,0,P|53:108|51:67,1,80.9999975280763,8|8,0:1|0:1,0:0:0:0:
160,176,50548,2,0,P|157:216|139:252,1,80.9999975280763,8|0,0:0|0:0,0:0:0:0:
0,320,50901,6,0,B|88:308|60:376|164:360,1,161.999995056153,10|8,0:1|0:0,0:0:0:0:
340,360,51431,1,0,0:0:0:0:
320,268,51607,2,0,P|247:267|248:340,1,161.999995056153,8|8,0:1|0:0,0:0:0:0:
340,360,52137,1,0,0:0:0:0:
444,268,52313,6,0,B|428:212|428:212|444:164|444:164|428:108,1,161.999995056153,10|8,0:1|0:0,0:0:0:0:
228,48,52842,1,8,0:1:0:0:
232,56,52931,1,8,0:1:0:0:
236,64,53019,1,8,0:0:0:0:
348,20,53195,1,8,0:3:0:0:
316,160,53372,1,4,0:3:0:0:
224,40,53548,1,4,0:3:0:0:
77,159,53725,6,0,B|121:139|121:139|196:160,1,125.999996154785,4|0,0:0|0:0,0:0:0:0:
132,252,54254,1,8,0:1:0:0:
216,292,54431,2,0,B|260:312|260:312|334:291,1,125.999996154785,8|0,0:0|0:0,0:0:0:0:
424,260,54960,1,8,0:1:0:0:
352,200,55137,1,0,0:0:0:0:
408,352,55313,1,8,0:0:0:0:
408,352,55666,5,8,0:1:0:0:
352,200,55842,1,10,0:0:0:0:
440,168,56019,1,2,0:0:0:0:
424,260,56195,1,2,0:0:0:0:
408,352,56372,1,2,0:0:0:0:
352,200,56548,6,0,P|348:144|404:80,1,125.999996154785,8|0,0:1|0:0,0:0:0:0:
324,16,57078,1,8,0:1:0:0:
324,16,57166,1,8,0:1:0:0:
324,16,57254,2,0,P|277:47|194:30,1,125.999996154785,8|0,0:0|0:0,0:0:0:0:
72,8,57784,1,8,0:1:0:0:
0,116,57960,1,8,0:1:0:0:
128,84,58137,1,8,0:0:0:0:
128,84,58489,5,4,0:3:0:0:
83,175,58666,2,0,P|112:205|108:252,1,83.9999974365235,8|8,0:0|0:3,0:0:0:0:
72,316,59019,2,0,L|20:308,2,41.9999987182618,8|4|4,0:3|0:3|0:3,0:0:0:0:
128,372,59372,6,0,L|190:362,1,63,2|0,0:0|0:0,0:0:0:0:
248,308,60078,6,0,L|341:322,1,94.4999971160889,2|0,0:0|0:0,0:0:0:0:
412,383,60784,6,0,P|441:330|420:272,1,126,2|0,0:0|0:0,0:0:0:0:
336,228,61489,6,0,P|306:174|352:80,1,157.5,4|0,0:0|0:0,0:0:0:0:
432,72,62195,5,4,0:0:0:0:
400,160,62372,1,0,0:0:0:0:
372,0,62548,1,8,0:0:0:0:
492,144,62725,5,8,0:0:0:0:
308,180,62901,1,8,0:0:0:0:
432,72,63078,1,8,0:0:0:0:
380,284,63254,5,8,0:0:0:0:
337,89,63431,1,8,0:0:0:0:
512,260,63607,2,0,B|440:248|440:248|380:284|380:284|292:260,1,225,4|2,0:0|0:0,0:0:0:0:
300,262,64842,5,2,0:0:0:0:
204,316,65019,6,0,B|184:256|184:256|208:204|208:204|188:147,1,180,4|8,0:0|0:0,0:0:0:0:
27,215,65548,2,0,P|70:221|108:198,1,90,0|10,0:0|0:1,0:0:0:0:
240,71,65901,2,0,P|161:41|104:104,1,180,8|0,0:1|0:0,0:0:0:0:
240,180,66431,5,10,0:1:0:0:
112,292,66607,1,0,0:0:0:0:
252,172,66784,1,8,0:0:0:0:
56,200,66960,1,0,0:0:0:0:
224,276,67137,2,0,B|332:264|292:336|392:328,1,180,2|8,0:1|0:0,0:0:0:0:
468,204,67666,1,0,0:0:0:0:
393,147,67842,6,0,P|374:187|375:231,1,90,10|0,0:1|0:0,0:0:0:0:
480,112,68195,1,8,0:0:0:0:
404,56,68372,2,0,B|296:44|336:116|236:108,1,180,0|0,0:0|0:0,0:0:0:0:
80,68,68901,1,8,0:0:0:0:
248,16,69078,1,0,0:0:0:0:
144,156,69254,6,0,P|132:198|142:242,1,90,10|0,0:1|0:0,0:0:0:0:
276,372,69607,1,8,0:0:0:0:
120,332,69784,2,0,B|228:344|188:272|288:280,1,180,8|2,0:1|0:0,0:0:0:0:
432,192,70313,1,10,0:0:0:0:
372,348,70489,5,8,0:0:0:0:
368,340,70578,1,8,0:0:0:0:
364,332,70666,2,0,L|456:344,1,90,8|8,0:1|0:1,0:0:0:0:
348,152,71019,5,4,0:0:0:0:
432,192,71195,2,0,P|440:135|416:87,1,90,2|8,0:0|0:1,0:0:0:0:
275,18,71548,2,0,L|264:108,1,90,2|8,0:0|0:0,0:0:0:0:
88,188,71901,5,8,0:0:0:0:
96,192,71989,1,8,0:0:0:0:
104,196,72078,2,0,L|92:104,1,90,8|8,0:1|0:1,0:0:0:0:
12,336,72431,5,4,0:0:0:0:
92,288,72607,2,0,P|132:288|164:328,1,90,2|8,0:0|0:1,0:0:0:0:
280,180,72960,2,0,L|269:269,1,90,2|8,0:0|0:0,0:0:0:0:
181,209,73313,1,2,0:0:0:0:
249,361,73489,6,0,B|357:373|317:301|417:309,1,180,4|8,0:0|0:0,0:0:0:0:
508,256,74019,2,0,L|497:166,1,90,2|8,0:0|0:1,0:0:0:0:
381,114,74372,2,0,L|392:204,1,90,2|8,0:0|0:0,0:0:0:0:
484,44,74725,1,8,0:1:0:0:
360,4,74901,5,8,0:0:0:0:
364,12,74989,1,8,0:0:0:0:
368,20,75078,2,0,L|292:28,1,45,8|8,0:0|0:0,0:0:0:0:
256,80,75254,2,0,L|211:75,1,45,8|0,0:0|0:0,0:0:0:0:
104,16,75431,6,0,B|120:108|48:80|68:176,1,161.999995056153,4|0,0:0|0:0,0:0:0:0:
160,152,75784,5,4,0:0:0:0:
92,316,75960,1,8,0:0:0:0:
248,228,76137,1,8,0:0:0:0:
244,236,76225,1,8,0:0:0:0:
240,244,76313,6,0,B|348:232|308:304|408:296,1,180,4|8,0:0|0:0,0:0:0:0:
487,336,76842,2,0,P|500:293|485:252,1,90,0|10,0:0|0:1,0:0:0:0:
484,129,77195,2,0,P|477:210|396:204,1,180,8|0,0:1|0:0,0:0:0:0:
452,40,77725,5,10,0:1:0:0:
316,156,77901,1,0,0:0:0:0:
336,0,78078,1,8,0:0:0:0:
312,188,78254,1,0,0:0:0:0:
208,80,78431,2,0,B|100:68|140:140|40:132,1,180,10|8,0:1|0:0,0:0:0:0:
52,40,78960,1,0,0:0:0:0:
188,172,79137,6,0,P|204:213|189:254,1,90,4|0,0:0|0:0,0:0:0:0:
104,216,79489,1,8,0:0:0:0:
208,348,79666,2,0,B|100:360|140:288|40:296,1,180,0|8,0:0|0:1,0:0:0:0:
189,254,80195,1,8,0:0:0:0:
56,384,80372,1,0,0:0:0:0:
208,348,80548,5,8,0:0:0:0:
216,352,80637,1,8,0:0:0:0:
224,356,80725,2,0,L|232:280,1,45,8|0,0:0|0:0,0:0:0:0:
296,256,80901,2,0,L|280:152,1,90,12|0,0:0|0:0,0:0:0:0:
256,4,81254,1,4,0:0:0:0:
200,96,81431,5,4,0:3:0:0:
164,96,81519,1,4,0:3:0:0:
130,108,81607,1,8,0:0:0:0:
103,131,81695,1,8,0:0:0:0:
78,157,81784,1,8,0:0:0:0:
45,173,81872,1,8,0:0:0:0:
10,176,81960,5,2,0:0:0:0:
10,176,82666,2,0,L|18:109,2,67.5,0|0|0,0:0|0:0|0:0,0:0:0:0:
76,244,83372,5,2,0:0:0:0:
76,244,83901,1,8,0:1:0:0:
76,244,83989,1,8,0:1:0:0:
76,244,84078,2,0,L|89:351,2,108,4|0|0,0:0|0:0|0:0,0:0:0:0:
104,156,84784,5,4,0:0:0:0:
104,156,85137,5,8,0:1:0:0:
272,192,85313,1,8,0:1:0:0:
212,64,85489,5,8,0:0:0:0:
172,256,85666,1,8,0:0:0:0:
300,100,85842,5,8,0:0:0:0:
336,312,86019,1,8,0:0:0:0:
408,180,86195,5,4,0:0:0:0:
172,256,86372,1,4,0:0:0:0:
172,256,86901,6,0,P|196:276|196:328,1,67.5,0|0,0:0|0:0,0:0:0:0:
200,320,87254,1,8,0:0:0:0:
196,328,87342,1,8,0:0:0:0:
192,336,87431,1,8,0:0:0:0:
188,344,87519,1,8,0:0:0:0:
184,352,87607,6,0,B|292:364|252:292|352:300,1,180,4|8,0:0|0:0,0:0:0:0:
504,220,88137,1,0,0:0:0:0:
440,148,88313,2,0,P|415:185|411:230,1,90,8|8,0:1|0:1,0:0:0:0:
377,381,88666,2,0,P|372:336|348:299,1,90,8|0,0:0|0:0,0:0:0:0:
219,201,89019,6,0,P|295:226|311:147,1,180,10|8,0:1|0:0,0:0:0:0:
140,64,89548,1,0,0:0:0:0:
239,18,89725,2,0,L|228:108,1,90,8|8,0:1|0:1,0:0:0:0:
76,192,90078,2,0,L|64:102,1,90,8|0,0:0|0:0,0:0:0:0:
140,64,90342,1,0,0:0:0:0:
140,64,90431,6,0,L|162:242,1,180,10|8,0:1|0:0,0:0:0:0:
28,384,90960,1,0,0:0:0:0:
40,292,91137,2,0,P|96:308|108:340,1,90,8|8,0:1|0:1,0:0:0:0:
229,201,91489,2,0,P|186:205|162:242,1,90,8|0,0:0|0:0,0:0:0:0:
188,320,91754,1,0,0:0:0:0:
188,320,91842,6,0,B|252:304|252:304|296:324|296:324|360:311,1,180,10|8,0:1|0:0,0:0:0:0:
308,208,92372,1,8,0:1:0:0:
308,208,92460,1,8,0:1:0:0:
308,208,92548,1,8,0:0:0:0:
468,296,92725,1,8,0:1:0:0:
420,196,92901,2,0,P|435:154|418:114,1,90,8|0,0:0|0:0,0:0:0:0:
444,32,93166,1,0,0:0:0:0:
444,32,93254,6,0,B|336:20|376:92|276:84,1,180,4|8,0:0|0:0,0:0:0:0:
279,84,93960,1,8,0:1:0:0:
100,64,94137,1,8,0:1:0:0:
176,180,94313,1,8,0:0:0:0:
197,1,94489,1,0,0:0:0:0:
64,172,94666,6,0,B|80:236|80:236|60:280|60:280|73:344,1,180,10|8,0:1|0:0,0:0:0:0:
256,384,95195,1,0,0:0:0:0:
160,292,95372,1,8,0:1:0:0:
312,172,95548,1,8,0:1:0:0:
255,292,95725,2,0,P|315:277|332:335,1,135,8|0,0:0|0:0,0:0:0:0:
412,384,96078,6,0,P|425:297|387:217,1,180,4|8,0:0|0:0,0:0:0:0:
232,136,96607,1,0,0:0:0:0:
232,136,96695,1,8,0:0:0:0:
232,136,96784,1,8,0:1:0:0:
384,64,96960,1,8,0:1:0:0:
292,208,97137,1,8,0:0:0:0:
292,208,97489,5,8,0:1:0:0:
272,20,97666,1,8,0:0:0:0:
384,64,97842,1,8,0:0:0:0:
388,72,97931,1,8,0:3:0:0:
392,80,98019,2,0,L|384:144,1,45,8|8,0:1|0:0,0:0:0:0:
292,208,98195,2,0,L|286:163,1,45,4|0,0:3|0:0,0:0:0:0:
200,100,98372,5,8,0:0:0:0:
179,117,98460,1,8,0:0:0:0:
155,130,98548,1,8,0:0:0:0:
129,135,98637,1,8,0:3:0:0:
102,134,98725,1,8,0:3:0:0:
77,125,98813,1,0,0:0:0:0:
54,111,98901,1,4,0:0:0:0:
54,111,99431,5,2,0:0:0:0:
116,164,99607,2,0,L|108:220,1,45,2|2,0:0|0:0,0:0:0:0:
44,260,99960,2,0,L|52:316,1,45,2|2,0:0|0:0,0:0:0:0:
120,368,100313,5,2,0:0:0:0:
180,308,100489,2,0,P|228:300|256:352,1,107.999996704102,2|2,0:0|0:0,0:0:0:0:
348,368,101019,6,0,L|356:256,1,90.0000034332277,8|8,0:3|0:3,0:0:0:0:
412,216,101372,2,0,L|468:212,2,45.0000017166138,4|4|4,0:3|0:3|0:3,0:0:0:0:
368,144,101725,6,0,L|196:128,1,161.999995056153,4|8,0:0|0:0,0:0:0:0:
36,176,102254,1,0,0:0:0:0:
82,18,102431,2,0,P|104:52|104:91,1,80.9999975280763,8|0,0:1|0:0,0:0:0:0:
188,202,102784,2,0,P|185:162|207:128,1,80.9999975280763,8|0,0:0|0:0,0:0:0:0:
388,64,103137,5,8,0:1:0:0:
287,15,103313,2,0,L|296:96,1,80.9999975280763,2|8,0:0|0:0,0:0:0:0:
476,32,103666,1,2,0:0:0:0:
464,124,103842,2,0,L|443:300,1,161.999995056153,10|8,0:1|0:0,0:0:0:0:
512,368,104372,1,0,0:0:0:0:
340,312,104548,6,0,B|252:300|280:368|176:352,1,161.999995056153,10|8,0:1|0:0,0:0:0:0:
116,292,105078,1,0,0:0:0:0:
165,211,105254,2,0,P|201:221|203:259,1,80.9999975280763,8|8,0:1|0:1,0:0:0:0:
28,324,105607,1,8,0:0:0:0:
100,384,105784,1,0,0:0:0:0:
44,232,105960,6,0,L|76:48,1,161.999995056153,10|8,0:1|0:0,0:0:0:0:
208,16,106489,1,0,0:0:0:0:
239,103,106666,2,0,P|200:109|162:97,1,80.9999975280763,8|8,0:1|0:1,0:0:0:0:
300,32,107019,2,0,P|325:63|332:102,1,80.9999975280763,8|0,0:0|0:0,0:0:0:0:
384,236,107372,6,0,B|372:148|440:176|424:72,1,161.999995056153,10|8,0:1|0:0,0:0:0:0:
476,224,107901,1,0,0:0:0:0:
440,312,108078,1,8,0:1:0:0:
440,312,108254,1,0,0:0:0:0:
292,248,108431,1,8,0:0:0:0:
292,248,108784,5,4,0:0:0:0:
383,176,108960,1,8,0:3:0:0:
387,184,109048,1,8,0:0:0:0:
391,191,109137,2,0,L|383:239,1,45,8|8,0:0|0:0,0:0:0:0:
299,292,109313,2,0,L|291:247,1,45,4|8,0:3|0:0,0:0:0:0:
248,156,109489,5,4,0:3:0:0:
248,156,109716,2,0,L|241:108,2,48,8|8|8,0:0|0:0|0:0,0:0:0:0:
208,228,110057,1,8,0:0:0:0:
208,228,110170,6,0,P|133:255|59:227,1,161.999995056153,4|8,0:0|0:0,0:0:0:0:
136,132,110701,1,0,0:0:0:0:
33,55,110880,2,0,L|44:136,1,80.9999975280763,8|8,0:1|0:1,0:0:0:0:
220,212,111237,2,0,L|230:131,1,80.9999975280763,8|0,0:0|0:0,0:0:0:0:
348,0,111607,5,10,0:1:0:0:
364,88,111783,2,0,B|276:100|304:32|200:48,1,161.999995056153,0|2,0:0|0:1,0:0:0:0:
164,166,112312,2,0,P|190:136|229:131,1,80.9999975280763,8|8,0:1|0:1,0:0:0:0:
388,176,112665,1,8,0:0:0:0:
328,88,112842,1,0,0:0:0:0:
288,220,113018,6,0,P|344:300|400:276,1,161.999995056153,10|8,0:1|0:0,0:0:0:0:
256,380,113548,1,0,0:0:0:0:
188,316,113724,2,0,P|104:300|48:360,1,161.999995056153,8|8,0:1|0:0,0:0:0:0:
104,264,114254,1,0,0:0:0:0:
0,140,114430,5,8,0:1:0:0:
108,168,114607,2,0,L|112:88,1,80.9999975280763,2|8,0:0|0:0,0:0:0:0:
16,232,114959,1,2,0:0:0:0:
104,264,115136,2,0,P|143:264|172:237,1,80.9999975280763,8|8,0:1|0:1,0:0:0:0:
267,107,115489,2,0,P|247:141|256:180,1,80.9999975280763,4|0,0:0|0:0,0:0:0:0:
292,328,115842,6,0,B|380:316|352:384|456:368,1,161.999995056153,4|8,0:0|0:0,0:0:0:0:
504,264,116371,2,0,P|444:276|380:200,1,161.999995056153,0|8,0:0|0:1,0:0:0:0:
420,68,116901,1,8,0:0:0:0:
476,160,117077,1,0,0:0:0:0:
324,116,117254,6,0,B|236:128|264:60|160:76,1,161.999995056153,10|8,0:1|0:0,0:0:0:0:
16,156,117783,1,0,0:0:0:0:
57,15,117959,2,0,P|80:48|80:88,1,80.9999975280763,8|8,0:1|0:1,0:0:0:0:
63,237,118312,2,0,P|95:213|108:176,1,80.9999975280763,8|0,0:0|0:0,0:0:0:0:
216,76,118665,6,0,P|262:139|252:217,1,161.999995056153,10|8,0:1|0:0,0:0:0:0:
168,376,119195,1,0,0:0:0:0:
236,312,119371,2,0,B|324:324|296:256|400:272,1,161.999995056153,8|8,0:1|0:0,0:0:0:0:
376,376,119901,1,0,0:0:0:0:
496,268,120077,1,10,0:1:0:0:
440,192,120254,1,8,0:0:0:0:
496,268,120430,1,8,0:0:0:0:
496,268,120783,5,8,0:0:0:0:
332,296,120959,1,8,0:3:0:0:
440,192,121136,1,4,0:3:0:0:
468,356,121312,1,4,0:3:0:0:
348,204,121489,6,0,P|284:200|252:252,1,125.999996154785,4|0,0:0|0:0,0:0:0:0:
232,352,122018,1,8,0:1:0:0:
152,304,122195,2,0,P|92:309|56:261,1,125.999996154785,8|8,0:0|0:1,0:0:0:0:
44,168,122724,1,8,0:1:0:0:
136,212,122901,1,0,0:0:0:0:
32,76,123077,1,8,0:0:0:0:
32,76,123430,5,0,0:0:0:0:
136,212,123607,1,10,0:0:0:0:
56,261,123783,1,2,0:0:0:0:
44,168,123959,1,2,0:0:0:0:
32,76,124136,1,2,0:0:0:0:
136,212,124312,6,0,P|185:174|247:177,1,125.999996154785,10|0,0:1|0:0,0:0:0:0:
304,104,124842,1,8,0:1:0:0:
304,104,124930,1,8,0:1:0:0:
304,104,125018,2,0,P|353:142|415:139,1,125.999996154785,8|0,0:0|0:0,0:0:0:0:
512,40,125548,1,8,0:1:0:0:
380,52,125724,1,10,0:1:0:0:
512,128,125901,1,8,0:0:0:0:
512,128,126254,5,4,0:3:0:0:
472,216,126430,2,0,P|495:236|508:292,1,83.9999974365235,8|8,0:0|0:3,0:0:0:0:
468,356,126783,2,0,L|508:372,2,41.9999987182618,8|4|4,0:3|0:3|0:3,0:0:0:0:
400,312,127136,6,0,L|337:321,1,63,2|0,0:0|0:0,0:0:0:0:
276,272,127842,6,0,L|182:286,1,94.4999971160889,2|0,0:0|0:0,0:0:0:0:
116,356,128548,6,0,P|80:296|108:236,1,126,2|0,0:0|0:0,0:0:0:0:
171,192,129254,6,0,P|202:121|171:51,1,157.5,4|0,0:0|0:0,0:0:0:0:
108,120,129959,5,4,0:0:0:0:
80,32,130136,1,0,0:0:0:0:
46,188,130312,1,8,0:0:0:0:
171,51,130489,5,8,0:0:0:0:
16,100,130665,1,8,0:0:0:0:
199,140,130842,1,8,0:0:0:0:
76,276,131018,5,8,0:0:0:0:
16,100,131195,1,8,0:0:0:0:
199,140,131371,1,8,0:1:0:0:
136,208,131548,1,8,0:1:0:0:
171,51,131724,6,0,P|204:49|236:56,1,60,4|8,0:0|0:0,0:0:0:0:
234,62,132077,1,4,0:0:0:0:
238,70,132165,1,8,0:1:0:0:
242,78,132254,1,8,0:1:0:0:
246,86,132342,1,8,0:1:0:0:
250,94,132430,5,8,0:0:0:0:
286,70,132518,1,8,0:0:0:0:
330,74,132607,1,8,0:0:0:0:
362,106,132695,1,8,0:0:0:0:
362,150,132783,6,0,B|302:170|302:170|250:146|250:146|193:166,1,180,4|8,0:0|0:0,0:0:0:0:
90,30,133312,2,0,P|112:67|108:111,1,90,0|10,0:0|0:1,0:0:0:0:
36,236,133665,2,0,B|144:224|104:296|204:288,1,180,8|0,0:1|0:0,0:0:0:0:
308,172,134195,5,10,0:1:0:0:
280,336,134371,1,0,0:0:0:0:
296,160,134548,1,8,0:0:0:0:
424,288,134724,1,0,0:0:0:0:
284,148,134901,2,0,B|176:136|216:208|116:200,1,180,10|8,0:1|0:0,0:0:0:0:
80,52,135430,5,0,0:0:0:0:
84,44,135518,1,0,0:0:0:0:
87,35,135607,2,0,P|122:62|129:106,1,90,10|0,0:1|0:0,0:0:0:0:
104,292,135959,1,8,0:0:0:0:
36,224,136136,2,0,P|84:200|192:256,1,180,0|0,0:0|0:0,0:0:0:0:
256,384,136665,1,8,0:0:0:0:
104,292,136842,1,0,0:0:0:0:
276,212,137018,6,0,P|318:200|360:213,1,90,10|0,0:1|0:0,0:0:0:0:
493,341,137371,1,8,0:0:0:0:
401,365,137548,2,0,B|389:257|461:297|453:197,1,180,8|2,0:1|0:0,0:0:0:0:
445,43,138077,1,10,0:0:0:0:
277,123,138254,5,8,0:0:0:0:
273,131,138342,1,8,0:0:0:0:
269,139,138430,2,0,L|361:127,1,90,8|8,0:1|0:1,0:0:0:0:
188,256,138783,5,4,0:0:0:0:
109,207,138959,2,0,P|65:208|37:243,1,90,2|8,0:0|0:1,0:0:0:0:
156,360,139312,2,0,L|245:349,1,90,2|8,0:0|0:0,0:0:0:0:
388,252,139665,5,8,0:0:0:0:
392,244,139754,1,8,0:0:0:0:
396,235,139842,2,0,L|306:246,1,90,8|8,0:1|0:1,0:0:0:0:
144,136,140195,5,4,0:0:0:0:
223,87,140371,2,0,P|267:88|295:123,1,90,2|8,0:0|0:1,0:0:0:0:
176,240,140724,2,0,L|87:229,1,90,2|8,0:0|0:0,0:0:0:0:
248,332,141077,1,2,0:0:0:0:
252,340,141165,1,8,0:0:0:0:
256,348,141254,6,0,B|448:316,1,180,4|8,0:0|0:0,0:0:0:0:
357,155,141783,2,0,P|325:184|327:227,1,90,2|8,0:0|0:1,0:0:0:0:
463,128,142136,2,0,P|455:85|416:66,1,90,2|8,0:0|0:0,0:0:0:0:
436,232,142489,1,8,0:1:0:0:
349,139,142665,5,8,0:0:0:0:
353,147,142754,1,8,0:0:0:0:
357,155,142842,2,0,L|281:163,1,45,8|8,0:0|0:0,0:0:0:0:
245,215,143018,2,0,L|200:210,1,45,8|0,0:0|0:0,0:0:0:0:
104,160,143195,6,0,B|120:252|48:224|68:320,1,161.999995056153,4|0,0:0|0:0,0:0:0:0:
160,296,143548,5,4,0:0:0:0:
12,180,143724,1,8,0:0:0:0:
92,52,143901,1,8,0:0:0:0:
88,60,143989,1,8,0:0:0:0:
84,68,144077,6,0,B|192:56|152:128|252:120,1,180,4|8,0:0|0:0,0:0:0:0:
356,152,144606,2,0,P|352:100|384:72,1,90,0|10,0:0|0:1,0:0:0:0:
433,208,144959,2,0,P|356:248|280:208,1,180,8|0,0:1|0:0,0:0:0:0:
164,96,145489,5,2,0:1:0:0:
188,264,145665,1,0,0:0:0:0:
160,76,145842,1,8,0:0:0:0:
84,236,146018,1,0,0:0:0:0:
156,56,146195,2,0,B|264:44|224:116|324:108,1,180,10|8,0:1|0:0,0:0:0:0:
312,16,146724,1,0,0:0:0:0:
460,156,146901,6,0,L|449:245,1,90,4|0,0:0|0:0,0:0:0:0:
361,193,147254,1,8,0:0:0:0:
469,337,147430,2,0,B|361:349|401:277|301:285,1,180,0|8,0:0|0:1,0:0:0:0:
448,245,147959,1,8,0:0:0:0:
316,380,148136,1,0,0:0:0:0:
253,189,148312,6,0,P|199:258|216:344,1,180,4|8,0:0|0:0,0:0:0:0:
304,284,148842,1,8,0:1:0:0:
136,168,149018,1,8,0:0:0:0:
108,340,149195,5,4,0:3:0:0:
105,305,149283,1,4,0:3:0:0:
89,272,149371,1,8,0:0:0:0:
63,247,149459,1,8,0:0:0:0:
40,220,149548,1,8,0:0:0:0:
28,186,149636,1,0,0:0:0:0:
28,150,149724,5,2,0:0:0:0:
28,150,150430,2,0,L|20:83,2,67.5,0|0|0,0:0|0:0|0:0,0:0:0:0:
112,108,151136,5,2,0:0:0:0:
112,108,151665,5,8,0:1:0:0:
112,108,151754,1,8,0:1:0:0:
112,108,151842,2,0,L|125:215,2,108,4|0|0,0:0|0:0|0:0,0:0:0:0:
100,16,152548,5,4,0:0:0:0:
100,16,152901,5,8,0:1:0:0:
268,92,153077,1,8,0:1:0:0:
128,176,153254,5,8,0:0:0:0:
208,0,153430,1,8,0:0:0:0:
232,192,153606,5,8,0:0:0:0:
100,16,153783,1,8,0:0:0:0:
268,92,153959,5,4,0:0:0:0:
24,156,154136,1,4,0:0:0:0:
128,176,154312,6,0,L|100:16,1,161.999995056153,0|2,0:0|0:0,0:0:0:0:
100,16,156430,5,2,0:0:0:0:
160,88,156783,2,0,P|196:60|256:68,1,108,2|2,0:0|0:0,0:0:0:0:
323,192,158195,2,0,P|279:162|228:172,1,108,2|2,0:0|0:0,0:0:0:0:
227,172,159430,1,2,0:0:0:0:
268,272,159606,6,0,L|161:252,1,108,2|2,0:0|0:0,0:0:0:0:
161,252,161018,6,0,P|144:288|144:304,1,54,2|0,0:0|0:0,0:0:0:0:
143,301,161724,1,2,0:0:0:0:
200,364,162077,1,2,0:0:0:0:
280,376,162430,6,0,P|304:364|352:364,1,72,2|2,0:0|0:0,0:0:0:0:
348,363,163842,6,0,P|325:348|324:268,1,108,2|2,0:0|0:0,0:0:0:0:
319,273,165077,1,2,0:0:0:0:
412,260,165254,6,0,L|416:296,1,36,2|2,0:0|0:0,0:0:0:0:
500,296,165783,6,0,L|492:242,1,54,2|2,0:0|0:0,0:0:0:0:
492,242,166665,6,0,L|484:188,1,54,2|0,0:0|0:0,0:0:0:0:
400,144,167018,2,0,L|392:90,1,54,2|0,0:0|0:0,0:0:0:0:
460,24,167371,1,2,0:0:0:0:
460,24,167548,1,2,0:0:0:0:
392,90,167724,1,2,0:0:0:0:
392,90,168077,2,0,L|285:75,2,107.999996704102,2|0|2,0:0|0:0|0:0,0:0:0:0:
392,90,169136,1,2,0:0:0:0:
392,90,169489,6,0,L|400:144,1,53.9999983520508,2|0,0:0|0:0,0:0:0:0:
480,192,169842,2,0,L|472:246,1,53.9999983520508,2|0,0:0|0:0,0:0:0:0:
456,336,170195,1,2,0:0:0:0:
384,256,170548,1,2,0:0:0:0:
280,280,170901,6,0,B|160:256|192:356|84:344,1,215.999993408203,2|2,0:0|0:0,0:0:0:0:
85,344,171959,1,2,0:0:0:0:
36,264,172136,1,2,0:0:0:0:
84,184,172312,6,0,P|152:148|168:216,1,161.999995056153,2|0,0:0|0:0,0:0:0:0:
171,209,173548,1,0,0:0:0:0:
152,292,173724,2,0,L|144:320,2,26.9999991760254,0|0|0,0:0|0:0|0:0,0:0:0:0:
236,272,174254,1,0,0:0:0:0:
236,272,174606,2,0,L|256:344,1,67.4999979400635,0|0,0:0|0:0,0:0:0:0:
340,376,175136,6,0,P|356:336|464:336,1,144,4|8,0:0|0:0,0:0:0:0:
512,216,175665,2,0,P|469:222|415:128,1,144,4|8,0:0|0:1,0:0:0:0:
500,124,176195,1,8,0:0:0:0:
500,124,176283,1,8,0:0:0:0:
500,124,176371,1,4,0:3:0:0:
412,28,176548,6,0,P|348:8|296:52,1,135,4|8,0:0|0:0,0:0:0:0:
298,46,176901,1,8,0:0:0:0:
232,132,177077,1,4,0:0:0:0:
196,0,177254,1,8,0:0:0:0:
120,96,177430,5,8,0:3:0:0:
116,104,177518,1,8,0:0:0:0:
112,112,177606,1,8,0:0:0:0:
80,88,177695,1,8,0:0:0:0:
40,88,177783,1,8,0:0:0:0:
8,112,177871,1,8,0:0:0:0:
0,156,177959,6,0,L|20:268,1,107.999996704102,4|2,0:0|0:0,0:0:0:0:
98,375,178312,2,0,P|105:323|152:300,1,107.999996704102,8|2,0:0|0:0,0:0:0:0:
296,352,178665,2,0,L|276:240,1,107.999996704102,8|2,0:1|0:0,0:0:0:0:
196,131,179018,2,0,P|189:183|143:207,1,107.999996704102,8|2,0:0|0:0,0:0:0:0:
16,76,179371,6,0,B|144:100|104:8|224:24,1,215.999993408203,10|8,0:1|0:0,0:0:0:0:
287,166,179888,2,0,P|248:130|196:130,1,107.999996704102,2|8,0:0|0:1,0:0:0:0:
320,47,180233,2,0,P|372:48|411:12,1,107.999996704102,2|8,0:0|0:0,0:0:0:0:
492,188,180603,1,2,0:0:0:0:
388,152,180788,6,0,B|364:280|456:240|440:360,1,215.999993408203,10|8,0:1|0:0,0:0:0:0:
324,316,181302,1,2,0:0:0:0:
328,324,181386,1,2,0:0:0:0:
332,332,181469,2,0,P|284:384|204:340,1,161.999995056153,2|2,0:0|0:0,0:0:0:0:
124,316,181817,2,0,L|117:369,1,53.9999983520508,10|0,0:0|0:0,0:0:0:0:
32,332,182004,2,0,L|25:278,1,53.9999983520508,2|0,0:0|0:0,0:0:0:0:
16,184,182192,6,0,B|144:208|104:116|224:132,1,215.999993408203,2|8,0:1|0:0,0:0:0:0:
308,108,182635,1,0,0:0:0:0:
312,116,182721,2,0,L|305:169,1,53.9999983520508,2|0,0:0|0:0,0:0:0:0:
203,277,182893,2,0,L|196:224,1,53.9999983520508,4|0,0:0|0:0,0:0:0:0:
252,44,183066,5,0,0:0:0:0:
284,28,183152,1,8,0:0:0:0:
320,24,183238,1,8,0:0:0:0:
356,32,183327,1,4,0:3:0:0:
384,56,183416,1,4,0:3:0:0:
400,88,183505,1,4,0:3:0:0:
403,126,183595,6,0,P|468:120|488:208,1,148.50000453186,4|8,0:0|0:0,0:0:0:0:
500,280,183947,6,0,P|466:276|438:259,1,67.5000025749208,8|0,0:0|0:0,0:0:0:0:
360,208,184124,6,0,P|311:195|262:207,1,101.250003862381,4|8,0:0|0:0,0:0:0:0:
262,207,184464,1,8,0:0:0:0:
148,384,184640,1,8,0:0:0:0:
174,352,184728,1,4,0:3:0:0:
182,312,184816,1,4,0:3:0:0:
174,272,184905,1,4,0:3:0:0:
150,240,184993,6,0,L|0:228,1,148.50000453186,4|8,0:0|0:0,0:0:0:0:
48,148,185345,6,0,L|115:153,1,67.5000025749208,8|0,0:0|0:0,0:0:0:0:
208,160,185522,6,0,L|216:64,1,67.5000025749208,4|8,0:0|0:0,0:0:0:0:
204,84,185788,1,8,0:0:0:0:
196,76,185878,1,8,0:0:0:0:
188,68,185969,2,0,L|192:8,1,45,8|4,0:0|0:3,0:0:0:0:
348,68,186269,5,4,0:3:0:0:
344,84,186341,1,4,0:3:0:0:
340,100,186412,2,0,P|408:84|456:164,1,168.75,4|4,0:0|0:0,0:0:0:0:
384,280,186922,1,4,0:0:0:0:
256,192,187158,2,0,P|212:248|144:232,2,135,4|4|4,0:0|0:0|0:0,0:0:0:0:
220,76,187883,6,0,B|144:60|152:112|72:104,1,153,4|2,0:0|0:0,0:0:0:0:
73,104,189606,5,0,0:0:0:0:
4,172,189783,2,0,L|12:236,1,53.9999983520508,2|2,0:0|0:0,0:0:0:0:
112,248,190136,2,0,L|104:312,1,53.9999983520508,2|2,0:0|0:0,0:0:0:0:
40,372,190489,1,2,0:0:0:0:
105,301,190665,2,0,L|218:315,1,107.999996704102,2|2,0:0|0:0,0:0:0:0:
304,328,191195,1,2,0:0:0:0:
304,328,191548,2,0,L|297:381,2,53.9999983520508,2|2|2,0:0|0:0|0:0,0:0:0:0:
380,272,192077,6,0,L|365:158,1,107.999996704102,2|2,0:0|0:0,0:0:0:0:
392,52,192783,2,0,P|350:83|300:67,1,107.999996704102,2|2,0:0|0:0,0:0:0:0:
228,148,193489,2,0,B|128:132|164:208|56:184,1,161.999995056153,2|2,0:0|0:0,0:0:0:0:
0,136,194195,1,2,0:0:0:0:
76,324,194901,5,2,0:0:0:0:
156,376,195254,1,0,0:0:0:0:
228,340,195430,1,2,0:0:0:0:
228,340,195606,2,0,P|272:336|312:384,1,107.999996704102,2|2,0:0|0:0,0:0:0:0:
311,380,196136,1,2,0:0:0:0:
396,336,196312,2,0,L|404:212,1,107.999996704102,2|2,0:0|0:0,0:0:0:0:
408,136,196842,1,2,0:0:0:0:
404,124,197371,1,2,0:0:0:0:
400,112,197724,6,0,B|324:68|252:116|252:116|288:108|316:120,1,215.999993408203,2|2,0:0|0:0,0:0:0:0:
308,128,199842,1,2,0:0:0:0:
306,139,200548,6,0,B|248:116|248:116|168:136,1,125.999996154785,10|0,0:1|0:0,0:0:0:0:
108,80,201077,1,8,0:1:0:0:
108,80,201254,2,0,P|92:116|96:148,1,62.9999980773926,8|0,0:0|0:0,0:0:0:0:
7,179,201606,2,0,P|24:206|51:222,1,62.9999980773926,0|0,0:0|0:0,0:0:0:0:
144,216,201959,6,0,P|160:276|143:336,1,125.999996154785,10|0,0:1|0:0,0:0:0:0:
224,384,202489,2,0,L|368:372,1,125.999996154785,8|0,0:1|0:0,0:0:0:0:
388,288,203018,1,0,0:0:0:0:
444,364,203195,1,0,0:0:0:0:
444,364,203283,1,0,0:0:0:0:
444,364,203371,6,0,P|480:308|468:236,1,125.999996154785,10|0,0:1|0:0,0:0:0:0:
400,196,203901,1,8,0:1:0:0:
400,196,204077,2,0,P|396:134|431:82,1,125.999996154785,8|0,0:0|0:0,0:0:0:0:
488,8,204606,1,0,0:0:0:0:
431,82,204783,6,0,L|305:71,1,125.999996154785,10|0,0:1|0:0,0:0:0:0:
219,107,205312,1,8,0:1:0:0:
219,107,205489,2,0,P|203:145|219:183,1,83.9999974365235,4|4,0:3|0:3,0:0:0:0:
300,208,205842,2,0,L|316:156,2,41.9999987182618,4|4|4,0:3|0:3|0:3,0:0:0:0:
240,268,206195,5,2,0:0:0:0:
240,268,206931,6,0,L|140:252,1,94.4999971160889,0|0,0:0|0:0,0:0:0:0:
84,304,207616,6,0,P|64:244|100:188,1,126,2|0,0:0|0:0,0:0:0:0:
172,180,208338,6,0,L|198:14,1,157.5,0|0,0:0|0:0,0:0:0:0:
288,4,209061,6,0,L|305:110,1,107.999996704102,2|0,0:0|0:0,0:0:0:0:
305,110,210077,5,0,0:0:0:0:
380,80,210253,1,0,0:0:0:0:
455,110,210429,2,0,P|472:168|448:224,1,107.999996704102,2|0,0:0|0:0,0:0:0:0:
396,380,210958,1,0,0:0:0:0:
400,284,211134,6,0,P|340:268|328:324,1,126,4|0,0:0|0:0,0:0:0:0:
396,380,211840,5,4,0:0:0:0:
396,380,212193,5,8,0:0:0:0:
324,208,212370,1,8,0:0:0:0:
216,292,212546,5,8,0:0:0:0:
284,104,212723,1,8,0:0:0:0:
404,224,212899,5,8,0:0:0:0:
184,176,213076,1,8,0:0:0:0:
364,48,213252,5,8,0:0:0:0:
324,208,213429,1,8,0:1:0:0:
248,4,213605,1,4,0:0:0:0:
248,4,213958,5,8,0:0:0:0:
212,28,214046,1,8,0:0:0:0:
168,40,214134,1,8,0:0:0:0:
124,32,214223,1,8,0:0:0:0:
88,4,214311,5,4,0:3:0:0:
84,16,214399,1,4,0:3:0:0:
80,28,214487,1,4,0:3:0:0:
76,40,214576,1,4,0:3:0:0:
72,52,214663,6,0,P|94:90|92:134,1,90.0000034332277,8|4,0:1|0:3,0:0:0:0:
40,216,214996,6,0,P|93:179|148:212,1,135,4|0,0:0|0:0,0:0:0:0:
100,308,215369,6,0,P|154:320|209:309,1,112.5,8|8,0:0|0:0,0:0:0:0:
244,284,215633,1,8,0:0:0:0:
288,268,215721,1,8,0:0:0:0:
332,272,215810,1,8,0:3:0:0:
368,300,215898,1,4,0:3:0:0:
392,336,215986,1,4,0:3:0:0:
396,376,216074,6,0,L|408:248,1,121.499996292114,4|0,0:0|0:0,0:0:0:0:
407,255,216946,5,2,0:0:0:0:
460,168,217294,1,2,0:0:0:0:
460,168,217469,6,0,B|400:148|400:148|348:172|348:172|291:152,1,180,4|8,0:0|0:0,0:0:0:0:
129,28,218015,2,0,P|160:60|164:103,1,90,0|10,0:0|0:1,0:0:0:0:
24,245,218367,2,0,P|91:195|156:248,1,180,8|0,0:1|0:0,0:0:0:0:
24,352,218897,5,10,0:1:0:0:
208,384,219073,1,0,0:0:0:0:
148,184,219250,1,8,0:0:0:0:
116,368,219426,1,0,0:0:0:0:
264,260,219603,2,0,B|372:248|332:320|432:312,1,180,10|8,0:1|0:0,0:0:0:0:
288,352,220132,1,0,0:0:0:0:
420,219,220309,6,0,P|432:177|420:134,1,90,10|0,0:1|0:0,0:0:0:0:
288,0,220662,1,8,0:0:0:0:
444,40,220838,2,0,B|336:28|376:100|276:92,1,180,0|0,0:0|0:0,0:0:0:0:
68,52,221367,1,8,0:0:0:0:
172,0,221544,1,0,0:0:0:0:
152,192,221720,6,0,L|160:292,1,90,10|0,0:1|0:0,0:0:0:0:
352,328,222073,1,8,0:0:0:0:
267,164,222250,2,0,L|252:344,1,180,8|2,0:1|0:0,0:0:0:0:
256,352,222686,1,8,0:0:0:0:
260,360,222769,1,10,0:0:0:0:
77,277,222945,5,8,0:0:0:0:
73,285,223038,1,8,0:0:0:0:
69,293,223132,2,0,L|161:281,1,90,8|8,0:1|0:1,0:0:0:0:
348,117,223484,5,4,0:0:0:0:
264,77,223661,2,0,P|256:134|280:182,1,90,2|8,0:0|0:1,0:0:0:0:
421,251,224014,2,0,L|432:161,1,90,2|8,0:0|0:0,0:0:0:0:
240,264,224367,5,8,0:0:0:0:
236,272,224455,1,8,0:0:0:0:
232,280,224543,2,0,L|321:268,1,90,8|8,0:1|0:1,0:0:0:0:
112,128,224896,5,4,0:0:0:0:
63,207,225073,2,0,P|64:251|99:279,1,90,2|8,0:0|0:1,0:0:0:0:
216,160,225426,2,0,L|205:71,1,90,2|8,0:0|0:0,0:0:0:0:
404,12,225779,5,0,0:0:0:0:
408,20,225867,1,8,0:0:0:0:
412,28,225955,2,0,L|384:221,1,180,4|8,0:0|0:0,0:0:0:0:
499,351,226484,2,0,P|474:315|432:304,1,90,2|8,0:0|0:1,0:0:0:0:
256,342,226837,2,0,P|298:332|324:296,1,90,2|8,0:0|0:0,0:0:0:0:
184,192,227190,1,8,0:1:0:0:
316,112,227367,5,8,0:0:0:0:
312,120,227455,1,8,0:0:0:0:
307,127,227543,2,0,L|303:172,1,45,8|8,0:0|0:0,0:0:0:0:
189,237,227720,2,0,L|184:192,1,45,8|0,0:0|0:0,0:0:0:0:
168,72,227896,6,0,P|109:22|40:55,1,161.999995056153,4|0,0:0|0:0,0:0:0:0:
96,132,228249,5,4,0:0:0:0:
268,28,228426,1,8,0:0:0:0:
296,156,228602,1,8,0:0:0:0:
300,164,228690,1,8,0:0:0:0:
303,171,228779,6,0,L|352:176,1,33.7500012874604,4|0,0:3|0:0,0:0:0:0:
222,233,228955,2,0,L|188:236,1,33.7500012874604,8|8,0:1|0:1,0:0:0:0:
128,328,229132,6,0,L|235:316,1,107.999996704102,4|8,0:0|0:1,0:0:0:0:
410,182,229484,2,0,L|302:170,1,107.999996704102,8|8,0:0|0:1,0:0:0:0:
128,36,229837,2,0,L|235:24,1,107.999996704102,8|8,0:0|0:1,0:0:0:0:
368,84,230190,5,8,0:0:0:0:
168,152,230367,1,8,0:1:0:0:
235,23,230543,5,8,0:0:0:0:
303,223,230720,1,8,0:1:0:0:
68,188,230896,5,8,0:0:0:0:
268,120,231073,1,8,0:1:0:0:
200,256,231249,5,8,0:0:0:0:
136,48,231426,1,8,0:1:0:0:
68,188,231602,6,0,L|88:300,1,107.999996704102,4|8,0:0|0:1,0:0:0:0:
293,362,231955,2,0,L|312:256,1,107.999996704102,8|8,0:0|0:1,0:0:0:0:
168,152,232308,5,8,0:0:0:0:
219,362,232484,1,8,0:1:0:0:
404,208,232661,5,8,0:0:0:0:
194,259,232837,1,8,0:1:0:0:
429,311,233014,5,8,0:0:0:0:
378,101,233190,1,8,0:0:0:0:
378,101,233279,1,8,0:0:0:0:
378,101,233367,1,8,0:1:0:0:
290,239,233543,6,0,P|232:232|184:274,1,107.999996704102,8|8,0:0|0:1,0:0:0:0:
56,377,233896,2,0,P|89:336|88:284,1,107.999996704102,4|0,0:0|0:0,0:0:0:0:
60,148,234249,1,4,0:3:0:0:
60,148,234337,1,4,0:3:0:0:
60,148,234426,5,2,0:0:0:0:
60,148,235132,2,0,L|68:68,2,67.5,0|0|0,0:0|0:0|0:0,0:0:0:0:
120,219,235837,5,2,0:0:0:0:
120,219,236367,1,8,0:1:0:0:
120,219,236455,1,8,0:1:0:0:
120,219,236543,2,0,P|74:247|20:232,2,108,4|0|0,0:0|0:0|0:0,0:0:0:0:
180,148,237249,5,4,0:0:0:0:
180,148,237602,5,8,0:1:0:0:
212,332,237779,1,8,0:1:0:0:
328,176,237955,5,8,0:0:0:0:
296,380,238132,1,8,0:0:0:0:
196,240,238308,5,8,0:0:0:0:
428,300,238484,1,8,0:0:0:0:
264,108,238661,5,4,0:0:0:0:
296,380,238837,1,4,0:0:0:0:
296,380,239367,6,0,L|310:290,1,90,2|2,0:0|0:0,0:0:0:0:
464,212,241484,6,0,B|352:224|400:156|292:172,1,180,4|8,0:0|0:0,0:0:0:0:
136,116,242014,1,0,0:0:0:0:
223,1,242190,2,0,P|238:43|236:88,1,90,8|8,0:1|0:1,0:0:0:0:
124,202,242543,2,0,P|121:157|136:115,1,90,8|0,0:0|0:0,0:0:0:0:
204,280,242896,2,0,P|122:313|42:278,1,180,10|8,0:1|0:0,0:0:0:0:
212,188,243426,1,0,0:0:0:0:
292,240,243602,2,0,P|300:300|284:340,1,90,8|8,0:1|0:1,0:0:0:0:
211,188,243955,2,0,P|245:158|287:144,1,90,8|0,0:0|0:0,0:0:0:0:
359,187,244220,1,0,0:0:0:0:
359,187,244308,6,0,P|436:192|500:100,1,180,4|8,0:0|0:0,0:0:0:0:
300,52,244837,1,0,0:0:0:0:
392,14,245014,2,0,L|404:104,1,90,8|8,0:1|0:1,0:0:0:0:
232,172,245367,2,0,L|220:82,1,90,8|0,0:0|0:0,0:0:0:0:
300,52,245632,1,0,0:0:0:0:
300,52,245720,6,0,L|322:230,1,180,10|8,0:1|0:0,0:0:0:0:
460,328,246249,1,8,0:1:0:0:
460,328,246337,1,8,0:1:0:0:
459,327,246426,2,0,B|419:303|419:303|377:313,1,90,8|0,0:0|0:1,0:0:0:0:
297,329,246690,1,8,0:1:0:0:
297,329,246779,2,0,B|254:338|254:338|214:314,1,90,8|0,0:0|0:1,0:0:0:0:
152,260,247043,1,8,0:1:0:0:
152,260,247132,6,0,B|144:196|144:196|104:164|104:164|96:88,1,180,4|8,0:0|0:0,0:0:0:0:
97,100,247837,1,8,0:1:0:0:
264,40,248014,1,8,0:1:0:0:
88,0,248190,1,8,0:0:0:0:
208,148,248367,1,0,0:0:0:0:
208,148,248455,1,0,0:0:0:0:
208,148,248543,6,0,B|276:140|276:140|312:164|312:164|388:152,1,180,10|8,0:1|0:0,0:0:0:0:
340,40,249073,1,0,0:0:0:0:
500,136,249249,1,8,0:1:0:0:
461,23,249426,1,8,0:1:0:0:
379,153,249602,2,0,P|369:196|380:239,1,90,8|0,0:0|0:0,0:0:0:0:
420,312,249867,1,0,0:0:0:0:
420,312,249955,5,8,0:1:0:0:
228,268,250131,1,8,0:0:0:0:
228,268,250308,1,8,0:0:0:0:
308,360,250484,1,8,0:1:0:0:
344,196,250661,2,0,P|354:153|343:110,1,90,8|8,0:0|0:1,0:0:0:0:
224,36,251014,2,0,B|300:44|272:-12|368:4,1,135,8|8,0:0|0:0,0:0:0:0:
412,60,251367,5,8,0:1:0:0:
512,0,251543,1,8,0:0:0:0:
492,132,251720,1,8,0:0:0:0:
492,132,251808,1,8,0:0:0:0:
492,132,251896,1,4,0:3:0:0:
350,1,252073,1,4,0:0:0:0:
388,164,252249,5,8,0:3:0:0:
361,162,252337,1,8,0:3:0:0:
334,166,252426,1,8,0:0:0:0:
311,180,252514,1,8,0:0:0:0:
291,198,252602,1,4,0:3:0:0:
268,211,252690,1,4,0:3:0:0:
241,217,252779,1,2,0:0:0:0:
241,217,253484,6,0,L|252:140,2,67.5,0|0|0,0:0|0:0|0:0,0:0:0:0:
228,312,254190,1,2,0:0:0:0:
228,312,254720,5,8,0:1:0:0:
228,312,254808,1,8,0:1:0:0:
228,312,254896,2,0,B|280:308|280:308|308:324|308:324|384:316,2,135,4|0|0,0:0|0:0|0:0,0:0:0:0:
132,316,255602,5,4,0:0:0:0:
132,316,255955,5,8,0:1:0:0:
328,232,256131,1,8,0:1:0:0:
132,152,256308,5,8,0:0:0:0:
348,240,256484,1,8,0:0:0:0:
272,76,256661,5,8,0:0:0:0:
228,312,256837,1,8,0:0:0:0:
104,68,257014,5,4,0:0:0:0:
152,344,257190,1,4,0:0:0:0:
152,344,258073,6,0,P|232:320|276:376,1,162,0|0,0:0|0:0,0:0:0:0:
275,373,259837,6,0,B|304:276|245:212|245:212|236:232|216:244|200:228|200:228|160:192|172:132|248:100|296:148,1,432,4|0,0:0|0:0,0:0:0:0:
