osu file format v14

[General]
AudioFilename: Heart Connect - Suzumu, Feat Gumi.mp3
AudioLeadIn: 0
PreviewTime: 11036
Countdown: 0
SampleSet: Normal
StackLeniency: 0.7
Mode: 0
LetterboxInBreaks: 0
WidescreenStoryboard: 1

[Editor]
Bookmarks: 118516
DistanceSpacing: 1
BeatDivisor: 4
GridSize: 4
TimelineZoom: 3.799998

[Metadata]
Title:Shinzou Connect
TitleUnicode:心臓コネクト
Artist:suzumu
ArtistUnicode:スズム
Creator:Hailie
Version:Normal
Source:
Tags:ke-sanβ tokiti no.734 yasu giga-p ギガp vocaloid gumi DJ Lucky RyoKazuka Shanipika
BeatmapID:1647920
BeatmapSetID:784999

[Difficulty]
HPDrainRate:4
CircleSize:2.5
OverallDifficulty:4
ApproachRate:6
SliderMultiplier:1.00000000596046
SliderTickRate:1

[Events]
//Background and Video events
0,0,"Background.png",0,0
Video,0,"Video.avi"
//Break Periods
2,2799,4593
2,6140,6868
2,9258,9986
2,23121,25680
2,69827,77149
2,78628,79653
2,80903,81644
2,125497,132892
2,168720,170995
//Storyboard Layer 0 (Background)
//Storyboard Layer 1 (Fail)
//Storyboard Layer 2 (Pass)
//Storyboard Layer 3 (Foreground)
//Storyboard Sound Samples

[TimingPoints]
-3314,284.36018957346,4,1,1,60,1,0
11035,-100,4,1,1,65,0,0
11036,284.36018957346,4,1,1,65,1,0
11462,284.36018957346,4,1,1,65,1,0
22694,-100,4,1,1,50,0,0
31793,-100,4,1,1,60,0,0
41035,-100,4,2,2,50,0,0
45300,-100,4,2,2,50,0,0
45584,-100,4,1,1,50,0,0
49992,-100,4,1,1,75,0,1
50277,-100,4,1,1,75,0,0
59091,-133.333333333333,4,1,1,35,0,0
59304,-133.333333333333,4,1,1,55,0,0
59518,-100,4,1,1,75,0,0
69328,-100,4,1,1,65,0,0
78428,-100,4,2,2,65,0,0
82693,-100,4,2,2,65,0,0
82977,-100,4,2,2,65,0,0
87527,-100,4,1,1,65,0,0
95491,276.497695852535,4,1,1,65,1,0
95491,-100,4,1,1,75,0,0
96596,363.636363636364,4,1,1,75,1,0
96777,284.36018957346,4,1,1,65,1,0
96777,-100,4,1,1,50,0,0
105159,-100,4,1,1,40,0,0
105301,-100,4,1,1,50,0,0
105443,-100,4,1,1,60,0,0
105585,-100,4,1,1,65,0,0
105734,-100,4,1,1,75,0,1
106018,-100,4,1,1,75,0,0
114825,-133.333333333333,4,1,1,35,0,0
115038,-133.333333333333,4,1,1,55,0,0
115252,-100,4,1,1,75,0,0
124209,-100,4,1,1,65,0,0
134162,-100,4,1,1,50,0,0
143261,-100,4,1,1,60,0,0
151223,-100,4,1,1,65,0,0
152369,-100,4,1,1,75,0,1
161468,-100,4,1,1,75,0,0
161753,-100,4,1,1,55,0,1
162179,-100,4,1,1,75,0,1
168293,-100,4,1,1,75,0,0
172124,-100,4,1,1,55,0,0
172843,-100,4,1,1,70,0,1
173127,-100,4,1,1,70,0,0
173980,272.727272727273,4,1,1,70,1,0
174389,291.26213592233,4,1,1,70,1,0
175118,272.727272727273,4,1,1,70,1,0
175663,281.69014084507,4,1,1,70,1,0
175944,287.081339712919,4,1,1,70,1,0
176231,315.789473684211,4,1,1,70,1,0
176546,272.727272727273,4,1,1,70,1,0
176818,292.682926829268,4,1,1,70,1,0
177384,-133.333333333333,4,1,1,35,0,0
177622,264.31718061674,4,1,1,35,1,0
177669,-133.333333333333,4,1,1,55,0,0
177819,284.36018957346,4,1,1,70,1,1
177819,-100,4,1,1,70,0,1
178103,-100,4,1,1,70,0,0
178672,284.36018957346,4,1,1,70,1,0
183500,-100,4,1,1,30,0,0
183784,-100,4,1,1,50,0,0
183926,-100,4,1,1,60,0,0
184069,-100,4,1,1,70,0,0
184217,-100,4,1,1,80,0,1
193316,-133.333333333333,4,1,1,35,0,0
193521,-133.333333333333,4,1,1,55,0,0
193743,-100,4,1,1,80,0,1
200141,-100,4,1,1,80,0,0
201278,-98.0392156862745,4,1,1,80,0,0
201420,277.777777777778,4,1,1,60,1,0
202531,298.06259314456,4,1,1,60,1,0
203127,284.36018957346,4,1,1,60,1,0
203127,-100,4,1,1,70,0,0
203553,-100,4,1,1,70,0,1
203695,284.36018957346,4,1,1,70,1,0
203832,-100,4,1,1,70,0,0
217202,266.666666666667,4,1,1,70,1,1
217202,-100,4,1,1,70,0,1
217335,266.666666666667,4,1,1,70,1,1
217601,284.36018957346,4,1,1,70,1,1
218454,284.36018957346,4,1,1,70,1,1
220302,315.789473684211,4,1,1,70,1,1
220617,279.06976744186,4,1,1,70,1,1
220756,279.06976744186,4,1,1,70,1,1
221732,-100,4,1,1,70,0,0
222889,284.36018957346,4,1,1,70,1,0
223031,284.36018957346,4,1,1,70,1,0

[Colours]
Combo1 : 60,198,26
Combo2 : 0,236,236
Combo3 : 217,215,215
Combo4 : 254,1,108

[HitObjects]
252,236,1093,5,10,0:0:0:0:
252,236,2231,6,0,L|173:308,1,100.000000596046,10|10,0:0|0:0,0:0:0:0:
178,303,5643,6,0,L|122:213,1,100.000000596046,10|10,0:0|0:0,0:0:0:0:
125,218,7918,6,0,L|206:135,1,100.000000596046,10|10,0:0|0:0,0:0:0:0:
194,146,9055,5,4,0:0:0:0:
194,146,11036,5,10,0:0:0:0:
194,146,11320,6,0,L|196:268,1,100.000000596046,6|0,0:0|3:0,0:0:0:0:
193,296,11746,2,0,P|244:308|283:343,1,100.000000596046,8|4,0:0|0:3,0:0:0:0:
378,355,12315,1,8,0:0:0:0:
378,355,12457,6,0,P|419:318|427:260,1,100.000000596046,2|2,0:0|0:0,0:0:0:0:
424,226,12883,1,8,0:0:0:0:
340,169,13168,2,0,L|277:170,1,50.000000298023,2|2,0:0|0:0,0:0:0:0:
190,177,13594,6,0,P|198:227|181:280,1,100.000000596046,6|0,0:0|3:0,0:0:0:0:
140,298,14021,2,0,L|25:297,1,100.000000596046,8|4,0:0|0:3,0:0:0:0:
36,196,14589,1,8,0:0:0:0:
36,196,14732,6,0,B|37:153|23:142|31:86,1,100.000000596046,2|2,0:0|0:0,0:0:0:0:
76,78,15158,2,0,L|77:19,2,50.000000298023,8|2|4,0:0|0:2|0:3,0:0:0:0:
164,124,15727,1,8,0:0:0:0:
164,124,15869,6,0,L|286:114,1,100.000000596046,6|0,0:0|3:0,0:0:0:0:
313,116,16296,2,0,B|331:142|325:160|361:221,1,100.000000596046,8|4,0:0|0:3,0:0:0:0:
387,301,16864,1,8,0:0:0:0:
387,301,17007,6,0,P|336:329|285:325,1,100.000000596046,2|2,0:0|0:0,0:0:0:0:
245,323,17433,1,8,0:0:0:0:
189,239,17717,2,0,L|189:175,1,50.000000298023,2|2,0:0|0:0,0:0:0:0:
214,92,18144,6,0,B|257:88|257:88|276:67|276:67|304:64,1,100.000000596046,6|0,0:0|3:0,0:0:0:0:
354,64,18571,2,0,P|380:110|387:174,1,100.000000596046,8|4,0:0|0:3,0:0:0:0:
387,255,19139,1,8,0:0:0:0:
387,255,19281,6,0,L|287:264,1,100.000000596046,2|2,0:0|0:0,0:0:0:0:
251,299,19708,2,0,L|45:315,1,200.000001192092,8|8,0:0|0:0,0:0:0:0:
49,264,20419,1,14,0:0:0:0:
49,264,21556,6,0,P|49:224|71:161,1,100.000000596046,14|14,0:0|0:0,0:0:0:0:
192,84,22267,6,0,L|309:72,1,100.000000596046,8|8,0:0|0:0,0:0:0:0:
341,71,22694,1,2,0:0:0:0:
365,56,26959,6,0,L|363:170,2,100.000000596046,2|14|10,0:0|0:0|0:0,0:0:0:0:
365,56,29518,6,0,L|468:58,1,100.000000596046,14|10,0:0|0:0,0:0:0:0:
464,152,30656,6,0,P|471:209|448:269,2,100.000000596046,12|4|4,0:0|0:3|0:3,0:0:0:0:
424,64,31509,1,4,0:0:0:0:
424,64,31793,6,0,P|356:62|304:63,1,100.000000596046,6|0,0:0|3:0,0:0:0:0:
281,89,32220,2,0,L|273:207,1,100.000000596046,8|4,0:0|0:3,0:0:0:0:
267,338,32931,6,0,B|318:354|333:325|386:347,1,100.000000596046,2|2,0:0|0:0,0:0:0:0:
463,279,33499,2,0,P|463:223|461:162,1,100.000000596046,0|2,0:0|0:0,0:0:0:0:
460,129,33926,1,8,0:0:0:0:
460,129,34068,6,0,P|410:120|343:126,1,100.000000596046,6|0,0:0|3:0,0:0:0:0:
243,215,34779,2,0,L|237:326,1,100.000000596046,4|8,0:3|0:0,0:0:0:0:
235,365,35206,5,2,0:0:0:0:
136,348,35490,2,0,P|78:356|21:347,1,100.000000596046,2|2,0:0|0:2,0:0:0:0:
14,250,36059,1,4,0:3:0:0:
25,150,36343,6,0,L|25:40,1,100.000000596046,6|0,0:0|3:0,0:0:0:0:
74,59,36770,2,0,P|123:74|181:60,1,100.000000596046,8|4,0:0|0:3,0:0:0:0:
317,36,37480,6,0,B|312:82|334:96|320:154,1,100.000000596046,2|2,0:0|0:0,0:0:0:0:
278,224,38049,2,0,P|312:236|382:221,1,100.000000596046,0|2,0:0|0:0,0:0:0:0:
470,198,38618,6,0,L|465:83,1,100.000000596046,6|0,0:0|3:0,0:0:0:0:
432,60,39044,2,0,B|388:57|376:80|314:68,1,100.000000596046,8|4,0:0|0:3,0:0:0:0:
236,91,39613,1,8,0:0:0:0:
236,91,39755,6,0,L|130:51,2,100.000000596046,2|2|2,0:0|0:0|0:2,0:0:0:0:
242,191,40608,2,0,P|234:237|255:294,1,100.000000596046,4|2,0:3|0:0,0:0:0:0:
291,306,41035,5,4,1:0:0:0:
291,306,41604,2,0,L|454:307,1,150.000000894069,0|2,1:0|0:0,0:0:0:0:
453,207,42315,1,0,1:0:0:0:
453,207,42457,2,0,P|449:150|416:98,1,100.000000596046,0|0,0:0|1:0,0:0:0:0:
329,117,43025,1,0,0:0:0:0:
262,42,43310,6,0,L|152:44,1,100.000000596046,4|0,3:0|0:0,0:0:0:0:
118,69,43736,2,0,P|86:143|100:212,1,150.000000894069,2|0,0:0|0:0,0:0:0:0:
180,265,44447,5,2,0:0:0:0:
185,270,45016,2,0,B|244:258|244:258|301:282|301:282|391:257,1,200.000001192092,0|12,1:0|0:0,0:0:0:0:
379,259,47575,5,12,0:3:0:0:
379,259,47860,6,0,L|221:209,1,150.000000894069,14|10,0:0|0:0,0:0:0:0:
229,63,48713,2,0,L|374:104,1,150.000000894069,10|10,0:0|0:0,0:0:0:0:
373,103,49992,6,0,P|382:165|346:206,1,100.000000596046,4|2,0:0|2:3,0:0:0:0:
320,219,50419,1,8,0:0:0:0:
228,178,50703,2,0,P|172:186|129:194,1,100.000000596046,2|8,0:0|0:0,0:0:0:0:
79,201,51130,1,2,2:0:0:0:
76,300,51414,2,0,L|184:285,1,100.000000596046,4|2,2:3|3:0,0:0:0:0:
224,293,51841,2,0,L|245:360,1,50.000000298023,4|0,0:3|3:0,0:0:0:0:
313,270,52267,6,0,B|311:231|281:226|276:167,1,100.000000596046,2|2,0:0|2:3,0:0:0:0:
282,132,52694,2,0,P|328:120|392:139,1,100.000000596046,8|2,0:0|0:0,0:0:0:0:
470,143,53262,1,8,0:0:0:0:
470,143,53405,2,0,L|471:198,1,50.000000298023,2|2,2:0|0:0,0:0:0:0:
379,234,53831,2,0,L|377:131,1,100.000000596046,8|4,0:0|0:3,0:0:0:0:
322,48,54400,1,8,0:0:0:0:
322,48,54542,6,0,P|251:65|177:37,1,150.000000894069,4|8,0:0|0:0,0:0:0:0:
99,98,55253,2,0,P|81:159|93:214,1,100.000000596046,2|8,0:0|0:0,0:0:0:0:
110,239,55680,2,0,L|233:231,1,100.000000596046,6|4,1:0|2:3,0:0:0:0:
307,255,56248,1,2,3:0:0:0:
307,255,56390,2,0,P|306:204|283:150,1,100.000000596046,4|8,0:3|0:0,0:0:0:0:
277,110,56817,6,0,B|350:128|366:84|442:102,1,150.000000894069,4|8,0:0|0:0,0:0:0:0:
512,116,57528,2,0,P|510:78|505:54,2,50.000000298023,2|2|8,0:0|0:0|0:0,0:0:0:0:
505,165,57954,2,0,L|504:324,1,150.000000894069,6|8,1:0|0:0,0:0:0:0:
405,328,58665,2,0,P|341:322|286:333,1,100.000000596046,4|8,0:3|0:0,0:0:0:0:
269,337,59092,5,6,0:0:0:0:
269,337,59518,6,0,B|226:338|226:338|201:353|201:353|163:353,1,100.000000596046,6|2,0:0|0:0,0:0:0:0:
91,294,60087,1,8,0:0:0:0:
91,294,60229,2,0,L|78:194,1,100.000000596046,2|4,2:0|2:3,0:0:0:0:
208,112,60940,2,0,B|248:105|263:127|317:112,1,100.000000596046,4|8,0:3|0:0,0:0:0:0:
340,131,61367,6,0,P|349:209|284:260,1,150.000000894069,2|8,0:0|0:0,0:0:0:0:
212,301,62078,2,0,B|166:301|158:324|101:305,1,100.000000596046,2|8,0:0|0:0,0:0:0:0:
77,274,62504,2,0,L|55:108,1,150.000000894069,6|8,2:0|0:0,0:0:0:0:
119,47,63215,2,0,P|160:56|227:38,1,100.000000596046,4|8,0:3|0:0,0:0:0:0:
262,27,63642,5,4,0:0:0:0:
274,126,63926,2,0,L|276:194,1,50.000000298023,2|8,1:0|0:0,0:0:0:0:
375,182,64352,2,0,L|494:178,1,100.000000596046,8|8,0:0|0:0,0:0:0:0:
493,224,64779,2,0,P|494:310|432:353,1,150.000000894069,4|8,0:0|0:0,0:0:0:0:
349,335,65490,2,0,B|302:330|293:358|228:338,1,100.000000596046,4|8,0:3|0:0,0:0:0:0:
199,341,65916,5,2,0:0:0:0:
199,341,67054,6,0,P|127:349|99:283,1,150.000000894069,14|8,0:0|0:0,0:0:0:0:
23,214,67765,2,0,P|83:174|150:201,1,150.000000894069,8|12,0:0|0:0,0:0:0:0:
249,186,68476,6,0,B|281:234|281:234|361:154|425:298|478:214|478:214,1,250.000001490115,2|8,0:0|0:0,0:0:0:0:
491,187,69329,1,6,0:0:0:0:
255,195,78428,5,4,3:0:0:0:
255,195,80703,5,0,3:0:0:0:
255,195,82694,5,2,0:0:0:0:
255,195,82978,6,0,P|318:198|415:198,1,150.000000894069,6|0,3:2|1:0,0:0:0:0:
428,295,83689,2,0,P|350:293|269:291,1,150.000000894069,2|6,0:0|3:2,0:0:0:0:
131,324,84542,1,0,1:0:0:0:
131,324,84826,2,0,P|116:272|139:221,1,100.000000596046,0|2,1:0|0:3,0:0:0:0:
154,184,85253,6,0,L|315:183,1,150.000000894069,6|0,3:2|1:0,0:0:0:0:
401,206,85964,2,0,P|413:250|386:315,1,100.000000596046,2|2,0:0|0:3,0:0:0:0:
355,327,86390,5,2,3:2:0:0:
263,282,86675,2,0,L|145:279,1,100.000000596046,2|0,3:0|3:0,0:0:0:0:
81,338,87243,1,12,0:3:0:0:
81,338,87528,6,0,P|66:295|85:229,1,100.000000596046,6|0,0:0|3:0,0:0:0:0:
98,197,87954,2,0,L|211:183,1,100.000000596046,8|4,0:0|0:3,0:0:0:0:
347,179,88665,6,0,B|346:143|346:143|365:117|365:117|365:63,1,100.000000596046,2|2,0:0|0:0,0:0:0:0:
453,133,89234,2,0,P|454:182|454:232,1,100.000000596046,0|2,0:0|0:0,0:0:0:0:
452,280,89661,1,8,0:0:0:0:
452,280,89803,6,0,P|393:273|334:283,1,100.000000596046,6|0,0:0|3:0,0:0:0:0:
265,327,90371,2,0,P|250:278|260:229,1,100.000000596046,0|2,0:0|1:2,0:0:0:0:
290,135,90940,5,2,0:0:0:0:
290,135,91225,2,0,L|172:141,1,100.000000596046,2|2,0:0|0:2,0:0:0:0:
95,106,91793,1,4,0:3:0:0:
56,197,92078,6,0,B|59:237|45:261|56:307,1,100.000000596046,6|0,0:0|3:0,0:0:0:0:
100,316,92504,2,0,L|216:318,1,100.000000596046,8|4,0:0|0:3,0:0:0:0:
346,351,93215,6,0,P|356:298|344:251,1,100.000000596046,2|2,0:0|0:0,0:0:0:0:
301,164,93784,2,0,B|330:173|368:148|406:163,1,100.000000596046,0|2,0:0|0:0,0:0:0:0:
499,146,94352,6,0,L|494:31,1,100.000000596046,6|0,0:0|3:0,0:0:0:0:
445,37,94779,2,0,P|395:26|327:47,1,100.000000596046,8|4,0:0|0:3,0:0:0:0:
260,84,95348,1,8,0:0:0:0:
260,84,95491,6,0,L|79:81,1,175.00000104308,2|10,0:0|0:0,0:0:0:0:
55,152,96182,6,0,L|55:234,2,75.0000004470345,10|4|6,0:3|0:3|0:3,0:0:0:0:
98,177,96777,5,6,1:0:0:0:
98,177,97345,2,0,P|178:163|258:177,1,150.000000894069,8|2,1:0|0:0,0:0:0:0:
319,240,98056,1,8,1:0:0:0:
319,240,98198,2,0,L|330:352,1,100.000000596046,0|8,0:0|1:0,0:0:0:0:
423,308,98767,1,0,0:0:0:0:
432,208,99051,6,0,P|427:164|397:101,1,100.000000596046,4|0,3:0|0:0,0:0:0:0:
359,93,99478,2,0,P|292:101|202:112,1,150.000000894069,2|8,0:0|0:0,0:0:0:0:
101,117,100189,5,2,2:0:0:0:
99,115,100758,6,0,B|85:161|89:192|106:217|106:217|121:242|126:270|116:328,1,200.000001192092,0|8,1:0|0:0,0:0:0:0:
118,308,103317,5,12,0:3:0:0:
118,308,103601,6,0,P|188:324|282:303,1,150.000000894069,14|10,0:0|0:0,0:0:0:0:
367,202,104454,2,0,P|294:187|207:208,1,150.000000894069,10|10,0:0|0:0,0:0:0:0:
221,202,105307,6,0,L|214:90,1,100.000000596046,2|2,2:0|2:0,0:0:0:0:
212,51,105734,6,0,P|161:48|106:65,1,100.000000596046,4|2,0:0|2:3,0:0:0:0:
75,92,106160,1,8,0:0:0:0:
71,192,106445,2,0,L|70:305,1,100.000000596046,2|8,0:0|0:0,0:0:0:0:
86,339,106871,1,2,2:0:0:0:
188,319,107156,2,0,B|224:327|249:306|296:314,1,100.000000596046,4|2,2:3|3:0,0:0:0:0:
337,317,107582,2,0,P|341:293|336:263,1,50.000000298023,4|0,0:3|3:0,0:0:0:0:
363,171,108009,6,0,B|403:170|403:170|430:157|430:157|475:158,1,100.000000596046,2|2,0:0|2:3,0:0:0:0:
509,147,108435,2,0,P|506:100|471:44,1,100.000000596046,8|2,0:0|0:0,0:0:0:0:
380,46,109004,1,8,0:0:0:0:
380,46,109146,2,0,P|325:43|279:47,1,100.000000596046,2|4,2:0|2:3,0:0:0:0:
241,83,109573,2,0,P|234:133|248:192,1,100.000000596046,8|4,0:0|0:3,0:0:0:0:
324,239,110141,1,8,0:0:0:0:
324,239,110284,6,0,B|264:260|242:218|175:248,1,150.000000894069,4|8,0:0|0:0,0:0:0:0:
101,181,110995,2,0,L|108:300,1,100.000000596046,2|8,0:0|0:0,0:0:0:0:
98,330,111421,2,0,P|36:340|-5:329,1,100.000000596046,6|4,1:0|2:3,0:0:0:0:
9,213,111990,1,2,3:0:0:0:
9,213,112132,2,0,B|11:182|-6:148|2:108,1,100.000000596046,4|8,0:3|0:0,0:0:0:0:
47,94,112558,6,0,B|113:91|113:91|136:68|136:68|201:64,1,150.000000894069,4|8,0:0|0:0,0:0:0:0:
287,65,113269,2,0,L|280:3,2,50.000000298023,2|2|8,0:0|0:0|0:0,0:0:0:0:
324,98,113696,6,0,B|314:138|317:159|327:174|327:174|340:198|343:224|331:262,1,150.000000894069,6|8,1:0|0:0,0:0:0:0:
281,327,114407,2,0,P|329:342|381:333,1,100.000000596046,4|8,0:3|0:0,0:0:0:0:
411,318,114833,5,6,0:0:0:0:
411,318,115260,6,0,B|424:276|394:254|419:210,1,100.000000596046,6|2,0:0|0:0,0:0:0:0:
393,121,115829,1,8,0:0:0:0:
393,121,115971,2,0,L|284:123,1,100.000000596046,2|4,2:0|2:3,0:0:0:0:
181,223,116682,2,0,P|169:289|195:334,1,100.000000596046,4|8,0:3|0:0,0:0:0:0:
231,313,117108,6,0,B|252:300|281:299|301:310|301:310|323:318|348:328|382:308,1,150.000000894069,2|8,0:0|0:0,0:0:0:0:
461,243,117819,2,0,L|456:142,1,100.000000596046,2|8,0:0|0:0,0:0:0:0:
437,96,118246,2,0,P|371:70|283:102,1,150.000000894069,6|8,2:0|0:0,0:0:0:0:
241,173,118957,2,0,P|280:187|349:164,1,100.000000596046,4|8,0:3|0:0,0:0:0:0:
385,183,119383,5,4,0:0:0:0:
459,249,119667,2,0,L|461:311,1,50.000000298023,2|8,1:0|0:0,0:0:0:0:
364,321,120094,2,0,P|310:313|251:325,1,100.000000596046,8|8,0:0|0:0,0:0:0:0:
215,330,120521,2,0,B|193:347|166:350|139:338|139:338|117:327|82:327|53:347,1,150.000000894069,4|8,0:0|0:0,0:0:0:0:
15,248,121231,2,0,P|9:217|33:145,1,100.000000596046,4|8,0:3|0:0,0:0:0:0:
72,130,121658,5,2,0:0:0:0:
72,130,122795,6,0,B|140:141|140:141|166:127|195:127|227:147,1,150.000000894069,14|8,0:0|0:0,0:0:0:0:
210,239,123506,2,0,B|142:250|142:250|116:236|87:236|55:256,1,150.000000894069,8|12,0:0|0:0,0:0:0:0:
105,341,124217,5,4,0:3:0:0:
153,352,124359,2,0,L|270:343,1,100.000000596046,12|10,0:0|0:0,0:0:0:0:
296,368,124786,1,8,0:3:0:0:
358,289,125070,5,6,0:0:0:0:
375,89,134170,6,0,L|211:86,1,150.000000894069,4|2,0:0|0:0,0:0:0:0:
125,87,134881,1,2,0:0:0:0:
125,87,135023,2,0,P|136:164|94:223,1,150.000000894069,0|2,0:0|0:0,0:0:0:0:
175,283,135734,1,2,0:0:0:0:
175,283,135876,2,0,P|230:254|321:268,1,150.000000894069,0|0,0:0|1:0,0:0:0:0:
403,233,136587,6,0,L|388:112,1,100.000000596046,0|0,3:0|3:0,0:0:0:0:
306,68,137156,1,0,3:0:0:0:
234,138,137440,2,0,L|232:253,1,100.000000596046,0|0,3:0|3:0,0:0:0:0:
183,315,138009,2,0,P|133:313|63:324,1,100.000000596046,2|2,0:0|0:0,0:0:0:0:
46,173,138720,6,0,P|45:107|69:60,1,100.000000596046,0|0,1:0|3:0,0:0:0:0:
90,38,139146,1,2,0:0:0:0:
214,68,139431,2,0,L|326:57,1,100.000000596046,2|2,0:0|0:0,0:0:0:0:
390,122,139999,2,0,P|391:177|388:243,2,100.000000596046,2|2|2,0:0|0:0|0:0,0:0:0:0:
474,68,140852,1,0,1:0:0:0:
256,192,140995,12,2,142558,0:0:0:0:
258,286,143269,6,0,B|205:288|205:288|177:311|177:311|116:311,1,150.000000894069,2|2,1:0|0:0,0:0:0:0:
249,99,144407,6,0,B|310:99|310:99|338:122|338:122|391:124,1,150.000000894069,2|2,1:0|0:0,0:0:0:0:
390,123,145544,6,0,P|401:188|385:273,1,150.000000894069,2|2,1:0|0:0,0:0:0:0:
118,312,146682,6,0,P|101:238|112:165,1,150.000000894069,2|2,1:0|0:0,0:0:0:0:
136,121,147250,2,0,L|116:65,2,50.000000298023,2|2|2,3:0|3:0|3:0,0:0:0:0:
235,111,147819,6,0,B|275:111|275:111|321:137|334:142|389:136,1,150.000000894069,2|8,1:0|0:0,0:0:0:0:
429,142,148388,2,0,P|436:181|433:211,1,50.000000298023,2|12,0:0|0:3,0:0:0:0:
368,264,148814,1,8,0:0:0:0:
368,264,148957,6,0,B|347:258|319:257|293:270|293:270|272:285|243:286|199:276,1,150.000000894069,2|8,1:0|0:0,0:0:0:0:
61,89,150094,6,0,B|81:94|110:93|131:78|131:78|157:65|186:66|206:72,1,150.000000894069,2|8,1:0|0:0,0:0:0:0:
206,72,151231,6,0,P|197:132|202:171,1,100.000000596046,6|2,0:0|0:0,0:0:0:0:
251,177,151658,2,0,L|370:169,1,100.000000596046,8|8,0:0|0:0,0:0:0:0:
392,142,152085,1,8,0:0:0:0:
469,205,152369,6,0,B|470:242|470:242|456:273|456:273|460:323,1,100.000000596046,14|0,0:0|3:0,0:0:0:0:
477,347,152795,1,2,0:0:0:0:
377,347,153080,2,0,P|326:340|271:350,1,100.000000596046,2|8,0:0|0:0,0:0:0:0:
228,347,153506,2,0,P|199:294|113:235,1,150.000000894069,2|2,0:0|0:0,0:0:0:0:
29,258,154217,1,2,0:0:0:0:
56,162,154502,1,8,0:0:0:0:
56,162,154644,6,0,P|95:121|184:87,1,150.000000894069,2|2,3:2|0:0,0:0:0:0:
279,103,155355,2,0,P|311:145|328:194,1,100.000000596046,2|8,2:2|0:0,0:0:0:0:
314,237,155781,2,0,B|295:232|267:234|246:247|246:247|218:263|187:261|150:247,1,150.000000894069,2|8,3:0|0:0,0:0:0:0:
82,303,156492,2,0,P|74:261|92:201,1,100.000000596046,8|8,0:0|0:0,0:0:0:0:
108,160,156919,5,14,0:0:0:0:
247,105,157345,2,0,L|363:106,1,100.000000596046,2|2,0:0|0:0,0:0:0:0:
441,178,157914,1,8,0:0:0:0:
441,178,158056,2,0,P|450:242|444:348,1,150.000000894069,2|2,1:3|0:0,0:0:0:0:
347,324,158767,2,0,L|330:376,2,50.000000298023,6|4|8,3:0|0:0|0:0,0:0:0:0:
302,301,159194,6,0,L|181:299,1,100.000000596046,14|8,0:0|0:0,0:0:0:0:
161,328,159620,1,8,0:0:0:0:
90,256,159904,2,0,P|82:220|89:136,1,100.000000596046,8|8,0:0|0:0,0:0:0:0:
112,116,160331,2,0,B|135:104|165:99|198:119|198:119|229:100|264:98|307:123,1,200.000001192092,6|2,0:3|0:0,0:0:0:0:
353,104,161042,1,8,0:0:0:0:
439,154,161326,1,8,0:0:0:0:
439,154,161468,6,0,B|437:201|437:201|443:218|443:218|444:261,1,100.000000596046,14|6,1:0|0:3,0:0:0:0:
441,303,161895,2,0,P|411:300|371:309,1,50.000000298023,8|2,0:0|0:3,0:0:0:0:
345,321,162179,2,0,P|300:337|236:326,1,100.000000596046,2|8,0:0|0:0,0:0:0:0:
152,279,162748,2,0,L|146:168,1,100.000000596046,2|2,0:0|1:0,0:0:0:0:
213,104,163317,2,0,P|271:105|325:90,1,100.000000596046,2|8,0:0|0:0,0:0:0:0:
359,80,163743,6,0,B|371:114|371:114|397:129|397:129|382:157|381:175|404:226,1,150.000000894069,2|2,3:0|0:0,0:0:0:0:
474,272,164454,1,2,0:0:0:0:
330,313,164739,1,8,0:0:0:0:
330,313,164881,2,0,P|261:323|178:307,1,150.000000894069,6|8,0:0|0:0,0:0:0:0:
133,289,165449,2,0,B|126:229|126:229,1,50.000000298023,2|8,0:0|0:0,0:0:0:0:
121,139,165876,1,8,0:0:0:0:
121,139,166018,6,0,P|172:128|220:133,1,100.000000596046,14|6,1:0|0:3,0:0:0:0:
267,144,166445,1,8,0:0:0:0:
365,164,166729,2,0,B|382:192|357:239|376:279,1,100.000000596046,8|8,0:0|0:0,0:0:0:0:
381,311,167156,2,0,B|347:296|310:297|282:315|282:315|247:346|207:350|188:341,1,200.000001192092,14|10,0:0|0:0,0:0:0:0:
108,286,168009,1,10,0:0:0:0:
170,207,168293,5,14,0:0:0:0:
382,159,172132,6,0,P|384:87|278:74,1,200.000001192092,2|6,3:0|0:3,0:0:0:0:
250,116,172843,5,6,0:0:0:0:
168,174,173127,2,0,L|169:239,1,50.000000298023,0|10,3:0|0:0,0:0:0:0:
202,308,173554,2,0,B|254:307|254:307|313:327,1,100.000000596046,8|8,0:0|0:0,0:0:0:0:
347,338,173980,1,14,0:0:0:0:
433,287,174252,2,0,L|436:219,1,50.000000298023,8|12,0:0|0:3,0:0:0:0:
374,157,174680,2,0,L|372:97,2,50.000000298023,8|8|8,0:0|0:0|0:0,0:0:0:0:
321,167,175117,5,6,0:0:0:0:
231,122,175390,2,0,L|160:122,1,50.000000298023,2|10,0:0|0:0,0:0:0:0:
131,128,175663,5,6,0:0:0:0:
70,202,175944,2,0,L|70:265,1,50.000000298023,2|10,0:0|0:0,0:0:0:0:
69,301,176231,5,6,0:0:0:0:
158,344,176546,2,0,L|226:344,1,50.000000298023,2|10,0:0|0:0,0:0:0:0:
258,347,176818,5,6,0:0:0:0:
348,302,177110,2,0,L|349:237,1,50.000000298023,2|10,0:0|0:0,0:0:0:0:
349,214,177403,5,4,0:3:0:0:
349,214,177820,6,0,L|249:216,1,100.000000596046,6|2,0:0|0:0,0:0:0:0:
149,223,178387,1,8,0:0:0:0:
149,223,178529,2,0,P|157:271|142:318,1,100.000000596046,2|4,2:0|2:3,0:0:0:0:
53,197,179240,2,0,B|57:165|57:165|72:143|72:143|71:85,1,100.000000596046,4|8,0:3|0:0,0:0:0:0:
112,72,179667,6,0,B|138:86|162:83|188:69|188:69|217:57|254:62|277:70,1,150.000000894069,2|8,0:0|0:0,0:0:0:0:
350,27,180378,2,0,P|354:90|342:132,1,100.000000596046,2|8,0:0|0:0,0:0:0:0:
374,165,180804,2,0,B|378:222|378:222|413:249|413:249|414:312,1,150.000000894069,6|8,2:0|0:0,0:0:0:0:
319,340,181515,2,0,B|267:326|270:355|204:345,1,100.000000596046,4|8,0:3|0:0,0:0:0:0:
170,348,181942,5,4,0:0:0:0:
113,265,182226,2,0,P|109:240|111:203,1,50.000000298023,2|8,1:0|0:0,0:0:0:0:
164,131,182653,2,0,B|205:121|223:147|283:127,1,100.000000596046,8|8,0:0|0:0,0:0:0:0:
313,124,183079,5,6,0:0:0:0:
313,124,183506,2,0,L|312:293,1,150.000000894069,2|8,3:0|0:1,0:0:0:0:
311,374,184217,6,0,B|361:393|371:359|425:366,1,100.000000596046,4|2,0:0|2:3,0:0:0:0:
454,344,184643,1,8,0:0:0:0:
501,255,184928,2,0,B|502:218|502:218|484:190|484:190|482:156,1,100.000000596046,2|8,0:0|0:0,0:0:0:0:
483,110,185354,1,2,2:0:0:0:
395,62,185638,2,0,B|355:76|329:52|275:65,1,100.000000596046,4|2,2:3|3:0,0:0:0:0:
236,58,186065,2,0,P|236:95|246:126,1,50.000000298023,4|0,0:3|3:0,0:0:0:0:
258,205,186491,6,0,B|286:205|286:205|317:191|317:191|374:188,1,100.000000596046,2|2,0:0|2:3,0:0:0:0:
404,181,186918,2,0,P|431:244|431:286,1,100.000000596046,8|2,0:0|0:0,0:0:0:0:
354,337,187487,1,8,0:0:0:0:
354,337,187629,2,0,L|292:339,1,50.000000298023,2|2,2:0|0:0,0:0:0:0:
206,315,188055,2,0,P|207:351|214:374,2,50.000000298023,8|2|4,0:0|3:0|0:3,0:0:0:0:
228,217,188624,1,8,0:0:0:0:
228,217,188766,6,0,B|182:217|182:217|157:225|157:225|117:226,1,100.000000596046,4|2,0:0|2:3,0:0:0:0:
13,129,189477,2,0,B|24:94|-5:70|20:22,1,100.000000596046,2|8,0:0|0:0,0:0:0:0:
66,32,189904,2,0,P|108:17|165:41,1,100.000000596046,6|4,1:0|2:3,0:0:0:0:
238,94,190473,1,2,3:0:0:0:
238,94,190615,2,0,B|243:130|243:130|231:160|231:160|235:200,1,100.000000596046,4|8,0:3|0:0,0:0:0:0:
243,240,191041,6,0,B|220:226|189:228|163:248|163:248|135:262|109:261|90:244,1,150.000000894069,4|8,0:0|0:0,0:0:0:0:
11,295,191752,2,0,L|6:362,2,50.000000298023,2|2|8,0:0|0:0|0:0,0:0:0:0:
11,244,192179,2,0,B|23:199|23:199|14:176|-1:137|-1:137|15:93,1,150.000000894069,6|8,1:0|0:0,0:0:0:0:
111,100,192890,2,0,L|108:40,2,50.000000298023,4|0|8,0:3|3:0|0:0,0:0:0:0:
143,118,193316,5,6,0:0:0:0:
143,118,193743,6,0,B|178:125|204:98|263:118,1,100.000000596046,12|8,0:0|0:0,0:0:0:0:
291,104,194169,1,2,0:0:0:0:
386,73,194454,2,0,L|394:16,2,50.000000298023,2|8|2,0:0|0:0|0:0,0:0:0:0:
425,102,194880,2,0,P|442:172|434:209,1,100.000000596046,8|8,0:0|0:0,0:0:0:0:
401,291,195449,1,8,0:0:0:0:
401,291,195591,6,0,B|350:283|337:307|285:302,1,100.000000596046,2|2,0:0|0:0,0:0:0:0:
256,322,196018,1,8,0:0:0:0:
158,297,196302,2,0,L|152:188,1,100.000000596046,8|8,0:0|0:0,0:0:0:0:
150,147,196728,2,0,B|176:158|197:160|221:143|221:143|237:133|259:131|310:141,1,150.000000894069,14|8,0:0|0:0,0:0:0:0:
384,95,197439,2,0,P|398:150|387:195,1,100.000000596046,8|8,0:0|0:0,0:0:0:0:
390,241,197866,5,12,0:0:0:0:
300,284,198150,2,0,B|262:297|262:297|229:290,1,50.000000298023,2|8,0:0|0:0,0:0:0:0:
190,215,198577,2,0,P|159:244|143:302,1,100.000000596046,8|8,0:0|0:0,0:0:0:0:
115,339,199003,2,0,B|124:303|124:303|124:277|112:264|112:264|98:239|91:217|91:217|98:180,1,150.000000894069,4|8,0:0|0:0,0:0:0:0:
142,109,199714,1,12,0:3:0:0:
238,134,199999,1,2,0:0:0:0:
280,107,200141,5,8,0:0:0:0:
280,107,201278,6,0,P|309:107|346:119,1,51.0000006152628,14|2,0:0|0:0,0:0:0:0:
387,192,201697,1,8,1:0:0:0:
387,192,201975,2,0,B|365:213|343:214|319:203|319:203|293:189|264:189|232:209,1,150.000000894069,8|12,0:0|0:0,0:0:0:0:
246,200,203127,6,0,P|213:242|204:291,1,100.000000596046,10|10,0:0|0:0,0:0:0:0:
188,333,203553,6,0,B|135:330|135:330|79:341,1,100.000000596046,6|0,0:0|3:0,0:0:0:0:
44,317,203979,2,0,P|34:272|56:215,1,100.000000596046,8|4,0:0|0:3,0:0:0:0:
135,169,204548,1,8,0:0:0:0:
135,169,204690,6,0,L|250:168,1,100.000000596046,6|2,0:0|0:0,0:0:0:0:
284,163,205116,1,8,0:0:0:0:
382,181,205401,2,0,P|385:148|382:123,1,50.000000298023,2|2,0:0|0:0,0:0:0:0:
356,39,205827,6,0,B|388:45|419:27|459:35,1,100.000000596046,6|0,0:0|3:0,0:0:0:0:
485,74,206254,2,0,P|499:125|494:180,1,100.000000596046,8|4,0:0|0:3,0:0:0:0:
484,273,206822,1,8,0:0:0:0:
484,273,206965,6,0,B|362:273,1,100.000000596046,6|2,0:0|0:0,0:0:0:0:
347,307,207391,2,0,L|349:380,2,50.000000298023,8|2|4,0:0|0:2|0:3,0:0:0:0:
249,283,207960,1,8,0:0:0:0:
249,283,208102,6,0,P|188:291|146:275,1,100.000000596046,6|0,0:0|3:0,0:0:0:0:
105,260,208529,2,0,B|115:232|91:199|100:160,1,100.000000596046,8|4,0:0|0:3,0:0:0:0:
104,61,209097,1,8,0:0:0:0:
104,61,209240,6,0,B|150:73|150:73|207:68,1,100.000000596046,6|2,0:0|0:0,0:0:0:0:
252,67,209666,1,8,0:0:0:0:
319,140,209950,2,0,P|324:176|320:199,1,50.000000298023,2|2,0:0|0:0,0:0:0:0:
328,288,210377,6,0,B|372:291|390:263|434:271,1,100.000000596046,6|0,0:0|3:0,0:0:0:0:
475,264,210804,2,0,L|471:144,1,100.000000596046,8|4,0:0|0:3,0:0:0:0:
469,69,211372,1,8,0:0:0:0:
469,69,211514,6,0,B|428:69|428:69|402:87|402:87|371:88,1,100.000000596046,6|2,0:0|0:0,0:0:0:0:
326,99,211941,2,0,B|313:164|313:164|326:257,1,150.000000894069,8|4,0:0|0:3,0:0:0:0:
349,344,212652,6,0,B|395:335|395:335|417:344|417:344|447:337,1,100.000000596046,6|0,0:0|3:0,0:0:0:0:
486,309,213078,2,0,B|491:272|476:237|483:200,1,100.000000596046,8|4,0:0|0:3,0:0:0:0:
484,109,213647,1,8,0:0:0:0:
484,109,213789,6,0,P|434:102|384:109,1,100.000000596046,6|2,0:0|0:0,0:0:0:0:
339,130,214216,1,8,0:0:0:0:
302,223,214500,2,0,L|302:275,1,50.000000298023,2|2,0:0|0:0,0:0:0:0:
233,344,214927,6,0,B|190:347|190:347|166:357|166:357|131:355,1,100.000000596046,6|0,0:0|3:0,0:0:0:0:
101,317,215353,2,0,P|89:273|89:219,1,100.000000596046,8|4,0:0|0:3,0:0:0:0:
123,124,215922,1,8,0:0:0:0:
123,124,216064,6,0,B|171:118|171:118|232:128,1,100.000000596046,6|2,0:0|0:0,0:0:0:0:
269,112,216491,2,0,P|268:87|264:62,2,50.000000298023,8|2|4,0:0|0:2|0:3,0:0:0:0:
295,208,217059,1,8,0:0:0:0:
295,208,217202,6,0,B|332:215|356:195|408:203,1,100.000000596046,6|0,0:0|3:0,0:0:0:0:
443,191,217601,2,0,B|449:228|449:228|429:252|435:291,1,100.000000596046,8|4,0:0|0:3,0:0:0:0:
359,352,218169,1,8,0:0:0:0:
359,352,218311,6,0,P|310:340|251:354,1,100.000000596046,6|2,0:0|0:0,0:0:0:0:
212,355,218738,1,8,0:0:0:0:
114,332,219022,2,0,L|115:391,2,50.000000298023,12|2|8,0:3|0:0|0:0,0:0:0:0:
100,283,219449,6,0,L|93:161,1,100.000000596046,6|0,0:0|3:0,0:0:0:0:
115,137,219875,2,0,P|160:126|223:133,1,100.000000596046,8|12,0:0|0:3,0:0:0:0:
312,141,220459,1,8,0:0:0:0:
312,141,220617,2,0,P|323:99|372:51,1,100.000000596046,6|2,0:0|0:0,0:0:0:0:
416,48,221035,2,0,B|412:92|412:92|430:128|458:158|458:158|471:187|462:236,1,200.000001192092,8|8,0:0|0:0,0:0:0:0:
447,279,221732,5,4,0:0:0:0:
447,279,222889,6,0,P|386:292|331:284,1,100.000000596046,14|14,0:0|0:0,0:0:0:0:
301,304,223315,1,8,0:0:0:0:
217,248,223599,2,0,B|210:203|210:203|214:144,1,100.000000596046,8|8,0:0|0:0,0:0:0:0:
235,103,224026,5,14,0:0:0:0:
280,14,224310,2,0,B|326:2|326:2|381:23|381:23|399:4|432:8,1,150.000000894069,2|6,0:0|0:3,0:0:0:0:
507,57,225021,1,8,0:0:0:0:
507,57,225163,6,0,P|516:124|501:174,1,100.000000596046,14|14,0:0|0:0,0:0:0:0:
482,194,225590,1,8,0:0:0:0:
382,182,225874,2,0,L|273:201,1,100.000000596046,8|2,0:0|0:0,0:0:0:0:
239,223,226301,5,14,0:0:0:0:
239,223,228149,6,0,B|241:176|241:176|222:113,1,100.000000596046,2|8,0:0|0:0,0:0:0:0:
246,79,228576,5,12,0:0:0:0:
