osu file format v14

[General]
AudioFilename: Heart Connect - Suzumu, Feat Gumi.mp3
AudioLeadIn: 0
PreviewTime: 11036
Countdown: 0
SampleSet: Normal
StackLeniency: 0.7
Mode: 0
LetterboxInBreaks: 0
WidescreenStoryboard: 1

[Editor]
Bookmarks: 118516
DistanceSpacing: 0.8
BeatDivisor: 4
GridSize: 4
TimelineZoom: 1.1

[Metadata]
Title:Shinzou Connect
TitleUnicode:心臓コネクト
Artist:suzumu
ArtistUnicode:スズム
Creator:Hailie
Version:Hard
Source:
Tags:ke-sanβ tokiti no.734 yasu giga-p ギガp vocaloid gumi DJ Lucky RyoKazuka Shanipika
BeatmapID:1647917
BeatmapSetID:784999

[Difficulty]
HPDrainRate:5
CircleSize:3.5
OverallDifficulty:6.5
ApproachRate:8
SliderMultiplier:1.40000000596046
SliderTickRate:1

[Events]
//Background and Video events
0,0,"Background.png",0,0
Video,0,"Video.avi"
//Break Periods
2,2715,4893
2,6127,7168
2,9255,10286
2,23121,25965
2,69756,77149
2,125497,133175
2,168720,171281
//Storyboard Layer 0 (Background)
//Storyboard Layer 1 (Fail)
//Storyboard Layer 2 (Pass)
//Storyboard Layer 3 (Foreground)
//Storyboard Sound Samples

[TimingPoints]
-3314,284.36018957346,4,1,1,60,1,0
11034,-100,4,1,1,65,0,0
11036,284.36018957346,4,1,1,65,1,0
11462,284.36018957346,4,1,1,65,1,0
22693,-100,4,1,1,50,0,0
31792,-100,4,1,1,60,0,0
41034,-117.647058823529,4,2,2,50,0,0
45299,-153.846153846153,4,2,2,50,0,0
45583,-153.846153846153,4,1,1,50,0,0
49992,-86.9565217391304,4,1,1,75,0,1
50277,-86.9565217391304,4,1,1,75,0,0
59090,-285.714285714286,4,1,1,35,0,0
59303,-285.714285714286,4,1,1,55,0,0
59517,-86.9565217391304,4,1,1,75,0,0
69327,-86.9565217391304,4,1,1,65,0,0
78427,-86.9565217391304,4,2,2,65,0,0
82692,-285.714285714286,4,2,2,65,0,0
82976,-133.333333333334,4,2,2,65,0,0
87526,-100,4,1,1,65,0,0
95489,-100,4,1,1,75,0,0
95491,276.497695852535,4,1,1,65,1,0
96596,363.636363636364,4,1,1,75,1,0
96777,284.36018957346,4,1,1,65,1,0
96777,-117.647058823529,4,1,1,50,0,0
105158,-117.647058823529,4,1,1,40,0,0
105300,-117.647058823529,4,1,1,50,0,0
105442,-117.647058823529,4,1,1,60,0,0
105584,-117.647058823529,4,1,1,65,0,0
105734,-86.9565217391304,4,1,1,75,0,1
106018,-86.9565217391304,4,1,1,75,0,0
114824,-285.714285714286,4,1,1,35,0,0
115037,-285.714285714286,4,1,1,55,0,0
115251,-86.9565217391304,4,1,1,75,0,0
124208,-86.9565217391304,4,1,1,65,0,0
134161,-133.333333333333,4,1,1,50,0,0
141271,-133.333333333333,4,1,1,10,0,0
143260,-133.333333333333,4,1,1,60,0,0
151222,-86.9565217391304,4,1,1,65,0,0
152369,-86.9565217391304,4,1,1,75,0,1
161468,-90.9090909090909,4,1,1,75,0,0
161753,-86.9565217391304,4,1,1,75,0,1
162179,-86.9565217391304,4,1,1,75,0,1
168293,-86.9565217391304,4,1,1,75,0,0
172123,-86.9565217391304,4,1,1,55,0,0
172843,-86.9565217391304,4,1,1,70,0,1
173127,-86.9565217391304,4,1,1,70,0,0
173980,272.727272727273,4,1,1,70,1,0
173980,-86.9565217391303,4,1,1,70,0,0
174389,291.26213592233,4,1,1,70,1,0
174389,-86.9565217391303,4,1,1,70,0,0
174674,-86.9565217391303,4,1,1,70,0,0
175118,272.727272727273,4,1,1,70,1,0
175118,-86.9565217391303,4,1,1,70,0,0
175663,281.69014084507,4,1,1,70,1,0
175663,-86.9565217391303,4,1,1,70,0,0
175944,287.081339712919,4,1,1,70,1,0
175944,-86.9565217391303,4,1,1,70,0,0
176231,315.789473684211,4,1,1,70,1,0
176546,272.727272727273,4,1,1,70,1,0
176546,-86.9565217391303,4,1,1,70,0,0
176818,292.682926829268,4,1,1,70,1,0
177110,-86.9565217391303,4,1,1,70,0,0
177403,-285.714285714286,4,1,1,35,0,0
177622,264.31718061674,4,1,1,35,1,0
177668,-285.714285714286,4,1,1,55,0,0
177819,284.36018957346,4,1,1,70,1,1
177819,-86.9565217391304,4,1,1,70,0,1
178103,-86.9565217391304,4,1,1,70,0,0
178672,284.36018957346,4,1,1,70,1,0
178672,-86.9565217391303,4,1,1,70,0,0
183499,-86.9565217391304,4,1,1,30,0,0
183783,-86.9565217391304,4,1,1,50,0,0
183925,-86.9565217391304,4,1,1,60,0,0
184068,-86.9565217391304,4,1,1,70,0,0
184217,-86.9565217391304,4,1,1,80,0,1
193316,-285.714285714286,4,1,1,35,0,0
193520,-285.714285714286,4,1,1,55,0,0
193743,-86.9565217391304,4,1,1,80,0,1
200141,-86.9565217391304,4,1,1,80,0,0
201420,277.777777777778,4,1,1,60,1,0
201420,-86.9565217391303,4,1,1,60,0,0
202531,298.06259314456,4,1,1,60,1,0
203127,284.36018957346,4,1,1,60,1,0
203127,-86.9565217391304,4,1,1,70,0,0
203553,-95.2380952380952,4,1,1,70,0,1
203695,284.36018957346,4,1,1,70,1,0
203837,-95.2380952380952,4,1,1,70,0,0
217202,266.666666666667,4,1,1,70,1,1
217202,-95.2380952380952,4,1,1,70,0,1
217335,266.666666666667,4,1,1,70,1,1
217601,284.36018957346,4,1,1,70,1,1
217601,-95.2380952380951,4,1,1,70,0,1
218454,284.36018957346,4,1,1,70,1,1
218738,-95.2380952380951,4,1,1,70,0,1
220302,315.789473684211,4,1,1,70,1,1
220302,-95.2380952380951,4,1,1,70,0,1
220617,279.06976744186,4,1,1,70,1,1
220617,-95.2380952380951,4,1,1,70,0,1
220756,279.06976744186,4,1,1,70,1,1
220895,-95.2380952380951,4,1,1,70,0,1
221732,-95.2380952380952,4,1,1,70,0,0
222889,284.36018957346,4,1,1,70,1,0
222889,-95.2380952380951,4,1,1,70,0,0
223031,284.36018957346,4,1,1,70,1,0
223031,-95.2380952380951,4,1,1,70,0,0

[Colours]
Combo1 : 60,198,26
Combo2 : 0,236,236
Combo3 : 217,215,215
Combo4 : 254,1,108

[HitObjects]
300,133,1093,5,10,0:0:0:0:
257,269,2231,5,10,0:0:0:0:
206,135,2515,1,10,0:0:0:0:
257,269,5643,6,0,L|281:131,1,140.000000596046,10|10,0:0|0:0,0:0:0:0:
281,131,7918,6,0,L|257:272,1,140.000000596046,10|10,0:0|0:0,0:0:0:0:
281,131,9055,5,4,0:0:0:0:
281,131,11036,5,10,0:0:0:0:
281,131,11320,6,0,L|437:117,1,140.000000596046,6|0,0:0|3:0,0:0:0:0:
498,177,11746,1,8,0:0:0:0:
498,177,11888,2,0,L|511:107,2,70.000000298023,0|4|2,0:0|0:3|3:2,0:0:0:0:
455,254,12315,1,8,0:0:0:0:
455,254,12457,6,0,B|422:249|397:271|396:313|357:334|311:318,1,140.000000596046,2|2,0:0|0:0,0:0:0:0:
257,333,12883,2,0,L|167:341,1,70.000000298023,8|0,0:0|0:0,0:0:0:0:
126,279,13168,1,2,0:0:0:0:
126,279,13310,2,0,P|118:239|122:203,1,70.000000298023,2|8,0:0|0:0,0:0:0:0:
117,118,13594,6,0,B|171:115|171:115|202:136|202:136|260:133,1,140.000000596046,6|0,0:0|3:0,0:0:0:0:
337,115,14021,1,8,0:0:0:0:
337,115,14163,2,0,L|335:39,2,70.000000298023,0|4|2,0:0|0:3|1:2,0:0:0:0:
424,174,14589,1,8,0:0:0:0:
424,174,14732,6,0,B|384:201|384:201|361:245|361:245|307:272,1,140.000000596046,2|2,0:0|0:0,0:0:0:0:
240,275,15158,2,0,P|201:278|159:278,1,70.000000298023,8|2,0:0|0:2,0:0:0:0:
209,185,15443,1,4,0:3:0:0:
209,185,15585,2,0,P|211:158|207:106,1,70.000000298023,4|8,0:3|0:0,0:0:0:0:
269,63,15869,2,0,P|332:50|406:78,1,140.000000596046,6|0,0:0|3:0,0:0:0:0:
453,142,16296,1,8,0:0:0:0:
453,142,16438,2,0,L|507:91,2,70.000000298023,0|4|2,0:0|0:3|3:2,0:0:0:0:
405,220,16864,5,8,0:0:0:0:
405,220,17007,2,0,L|371:373,1,140.000000596046,2|2,0:0|0:0,0:0:0:0:
259,340,17433,2,0,P|217:338|156:343,1,70.000000298023,8|0,0:0|0:0,0:0:0:0:
98,295,17717,1,2,0:0:0:0:
98,295,17860,2,0,P|96:250|96:217,1,70.000000298023,2|8,0:0|0:0,0:0:0:0:
64,146,18144,6,0,B|96:126|137:115|133:143|177:133|212:102,1,140.000000596046,6|0,0:0|3:0,0:0:0:0:
293,89,18571,1,8,0:0:0:0:
293,89,18713,2,0,P|288:57|259:23,2,70.000000298023,0|4|2,0:0|0:3|1:2,0:0:0:0:
324,191,19139,1,8,0:0:0:0:
324,191,19281,6,0,P|305:223|302:273,1,70.000000298023,2|2,0:0|0:2,0:0:0:0:
252,333,19566,2,0,L|199:269,1,70.0000002980232,2|8,0:0|0:0,0:0:0:0:
152,212,19850,2,0,L|153:132,1,70.000000298023,2|4,0:2|0:3,0:0:0:0:
225,100,20134,2,0,P|277:96|310:76,1,70.0000002980232,4|8,0:3|0:0,0:0:0:0:
377,73,20419,5,14,0:0:0:0:
377,73,21556,6,0,P|343:25|251:28,1,140.000000596046,14|14,0:0|0:0,0:0:0:0:
266,18,22267,6,0,L|266:107,1,70.000000298023,8|8,0:0|0:0,0:0:0:0:
248,197,22552,1,8,0:0:0:0:
294,99,22694,1,2,0:0:0:0:
212,217,26959,5,2,0:0:0:0:
212,217,27101,1,2,0:0:0:0:
212,217,27243,2,0,L|213:306,1,70.000000298023,14|0,0:0|0:0,0:0:0:0:
306,350,27528,2,0,L|306:278,1,70.000000298023,10|0,0:0|0:0,0:0:0:0:
212,217,29518,6,0,L|294:214,1,70.000000298023,14|0,0:0|0:0,0:0:0:0:
231,132,29803,2,0,L|152:132,1,70.000000298023,10|0,0:0|0:0,0:0:0:0:
161,132,30656,6,0,P|157:104|168:56,1,70.000000298023,12|0,0:0|0:0,0:0:0:0:
246,42,30940,2,0,L|327:43,1,70.000000298023,4|10,0:3|0:0,0:0:0:0:
400,70,31225,2,0,P|363:122|278:117,1,140.000000596046,4|4,0:3|0:0,0:0:0:0:
242,190,31651,1,4,3:0:0:0:
242,190,31722,1,4,3:0:0:0:
242,190,31793,6,0,P|256:271|207:319,1,140.000000596046,6|0,0:0|3:0,0:0:0:0:
156,226,32220,2,0,P|152:196|166:141,1,70.000000298023,8|0,0:0|0:0,0:0:0:0:
223,92,32504,2,0,B|261:92|293:90|296:125|340:122|376:103,1,140.000000596046,4|8,0:3|0:0,0:0:0:0:
452,135,32931,6,0,L|456:290,1,140.000000596046,2|2,0:0|0:0,0:0:0:0:
380,329,33357,1,8,0:0:0:0:
380,329,33499,2,0,P|321:323|214:336,1,140.000000596046,0|2,0:0|0:0,0:0:0:0:
137,332,33926,1,8,0:0:0:0:
137,332,34068,6,0,P|122:263|194:221,1,140.000000596046,6|0,0:0|3:0,0:0:0:0:
260,206,34495,1,8,0:0:0:0:
260,206,34637,2,0,L|253:127,1,70.000000298023,0|4,0:0|0:3,0:0:0:0:
341,168,34921,2,0,L|348:245,1,70.000000298023,2|8,1:2|0:0,0:0:0:0:
352,325,35206,6,0,P|418:305|485:321,1,140.000000596046,2|2,0:0|0:0,0:0:0:0:
495,232,35632,1,8,0:0:0:0:
495,232,35774,2,0,P|498:199|483:154,1,70.000000298023,2|4,0:2|0:3,0:0:0:0:
447,91,36059,2,0,L|370:91,1,70.000000298023,4|8,0:3|0:0,0:0:0:0:
289,66,36343,6,0,B|289:120|289:120|305:155|305:155|305:221,1,140.000000596046,6|0,0:0|3:0,0:0:0:0:
331,301,36770,1,8,0:0:0:0:
331,301,36912,2,0,P|249:292|167:322,1,140.000000596046,0|2,0:0|3:2,0:0:0:0:
87,285,37338,1,8,0:0:0:0:
87,285,37480,6,0,P|63:239|127:175,1,140.000000596046,2|2,0:0|0:0,0:0:0:0:
190,162,37907,2,0,L|283:154,1,70.000000298023,8|0,0:0|0:0,0:0:0:0:
351,166,38191,1,2,0:0:0:0:
351,166,38334,2,0,P|361:208|356:252,1,70.000000298023,2|8,0:0|0:0,0:0:0:0:
379,310,38618,6,0,L|206:318,1,140.000000596046,6|0,0:0|3:0,0:0:0:0:
159,268,39044,1,8,0:0:0:0:
159,268,39187,2,0,B|167:237|168:201|142:193|141:163|166:119,1,140.000000596046,0|2,0:0|1:2,0:0:0:0:
195,45,39613,1,8,0:0:0:0:
195,45,39755,6,0,L|271:36,1,70.000000298023,2|2,0:0|0:2,0:0:0:0:
347,64,40040,2,0,L|364:153,1,70.000000298023,2|8,0:0|0:0,0:0:0:0:
289,192,40324,2,0,L|284:149,2,35.0000001490115,2|4|4,0:2|0:3|0:3,0:0:0:0:
234,280,40608,2,0,L|158:287,1,70.000000298023,4|8,0:3|0:0,0:0:0:0:
68,324,40893,1,2,0:0:0:0:
87,242,41035,5,4,1:0:0:0:
87,242,41604,2,0,L|86:166,1,59.500001388192,0|0,1:0|0:0,0:0:0:0:
108,107,41888,2,0,P|135:113|192:98,1,59.500001388192,2|2,0:0|0:0,0:0:0:0:
319,106,42315,1,0,1:0:0:0:
319,106,42457,2,0,L|325:180,1,59.500001388192,0|2,0:0|0:0,0:0:0:0:
330,257,42741,2,0,L|197:263,1,119.000002776384,0|0,1:0|0:0,0:0:0:0:
221,363,43168,1,0,1:0:0:0:
221,363,43310,6,0,P|276:346|342:357,1,119.000002776384,4|0,3:0|0:0,0:0:0:0:
426,359,43736,2,0,L|422:230,1,119.000002776384,2|0,0:0|0:0,0:0:0:0:
481,180,44163,2,0,L|473:105,1,59.500001388192,0|0,0:0|1:0,0:0:0:0:
401,73,44447,6,0,B|371:64|345:64|326:93|291:89|265:67,1,119.000002776384,2|0,0:0|1:0,0:0:0:0:
201,173,45016,2,0,P|189:219|197:254,1,59.500001388192,0|8,1:0|0:3,0:0:0:0:
219,310,45300,1,12,0:3:0:0:
335,354,45585,5,12,0:0:0:0:
335,354,47575,5,12,0:3:0:0:
335,354,47860,5,14,0:0:0:0:
335,354,48002,2,0,L|335:297,1,45.4999981108903,8|2,0:0|0:0,0:0:0:0:
340,214,48286,5,10,0:0:0:0:
340,214,48428,2,0,L|290:214,1,45.4999981108903,8|2,0:0|0:0,0:0:0:0:
214,219,48713,5,10,0:0:0:0:
214,219,48855,2,0,L|214:271,1,45.4999981108903,8|2,0:0|0:0,0:0:0:0:
232,356,49139,5,10,0:0:0:0:
232,356,49281,2,0,L|172:356,1,45.4999981108903,8|0,0:0|0:0,0:0:0:0:
105,343,49992,6,0,P|74:273|122:206,1,161.000003756284,4|2,0:0|2:3,0:0:0:0:
208,274,50419,2,0,P|253:274|313:274,1,80.5000018781421,8|0,0:0|0:0,0:0:0:0:
385,186,50703,2,0,P|287:187|207:189,1,161.000003756284,2|8,0:0|0:0,0:0:0:0:
118,209,51130,6,0,P|113:178|124:125,1,80.5000018781421,2|2,2:0|0:0,0:0:0:0:
226,72,51414,2,0,B|265:58|299:59|314:87|352:87|392:69,1,161.000003756284,4|2,2:3|3:0,0:0:0:0:
472,154,51841,1,4,0:3:0:0:
472,154,51983,2,0,L|480:251,1,80.5000018781421,0|8,3:0|0:0,0:0:0:0:
433,341,52267,6,0,P|388:281|284:296,1,161.000003756284,2|2,0:0|2:3,0:0:0:0:
221,341,52694,2,0,L|120:350,1,80.5000018781421,8|0,0:0|0:0,0:0:0:0:
41,251,52978,2,0,L|206:252,1,161.000003756284,2|8,0:0|0:0,0:0:0:0:
300,222,53405,2,0,P|303:182|300:132,1,80.5000018781421,2|2,2:0|0:0,0:0:0:0:
397,77,53689,2,0,P|396:115|400:173,2,80.5000018781421,4|8|2,2:3|0:0|3:0,0:0:0:0:
299,60,54116,1,4,0:3:0:0:
209,60,54258,1,2,1:0:0:0:
116,62,54400,1,8,0:0:0:0:
116,62,54542,6,0,P|111:151|46:188,1,161.000003756284,4|2,0:0|2:3,0:0:0:0:
0,263,54969,2,0,L|60:334,1,80.5000018781421,8|0,0:0|0:0,0:0:0:0:
146,348,55253,2,0,P|216:322|301:370,1,161.000003756284,2|8,0:0|0:0,0:0:0:0:
386,370,55680,6,0,B|401:329|404:300|377:273|383:248|409:183,1,161.000003756284,6|4,1:0|2:3,0:0:0:0:
474,148,56106,2,0,P|471:107|456:58,1,80.5000018781421,8|2,0:0|3:0,0:0:0:0:
380,38,56390,1,4,0:3:0:0:
380,38,56533,2,0,L|287:46,1,80.5000018781421,2|8,1:0|0:0,0:0:0:0:
221,108,56817,6,0,L|216:281,1,161.000003756284,4|2,0:0|1:0,0:0:0:0:
312,333,57243,1,8,0:0:0:0:
312,333,57386,2,0,L|318:245,1,80.5000018781421,2|2,0:0|0:0,0:0:0:0:
385,192,57670,1,2,0:0:0:0:
471,234,57812,1,8,0:0:0:0:
471,234,57954,6,0,P|487:174|409:107,1,161.000003756284,6|4,1:0|2:3,0:0:0:0:
339,167,58381,2,0,L|238:174,1,80.5000018781421,8|2,0:0|3:0,0:0:0:0:
144,191,58665,1,4,0:3:0:0:
144,191,58807,2,0,L|144:231,3,40.2500009390711,0|8|8|8,3:0|0:0|0:0|0:0,0:0:0:0:
120,258,59092,6,0,B|120:323,1,61.2499983915685,6|6,0:0|3:0,0:0:0:0:
159,332,59518,6,0,B|214:328|214:328|239:295|239:295|314:294,1,161.000003756284,6|2,0:0|0:0,0:0:0:0:
399,342,59945,1,2,2:0:0:0:
399,342,60087,6,0,P|407:306|394:235,1,80.5000018781421,8|2,0:0|2:0,0:0:0:0:
392,170,60371,1,2,0:0:0:0:
392,170,60514,2,0,L|208:198,1,161.000003756284,4|2,2:3|3:0,0:0:0:0:
146,210,60940,2,0,L|121:129,1,80.5000018781421,4|0,0:3|3:0,0:0:0:0:
116,42,61225,1,8,0:0:0:0:
116,42,61367,6,0,P|53:73|34:175,1,161.000003756284,2|2,0:0|2:3,0:0:0:0:
74,260,61793,2,0,L|76:349,1,80.5000018781421,8|0,0:0|0:0,0:0:0:0:
181,305,62078,2,0,L|175:222,1,80.5000018781421,2|0,0:0|0:0,0:0:0:0:
257,153,62362,1,8,0:0:0:0:
257,153,62504,6,0,B|296:173|335:173|341:148|382:142|422:164,1,161.000003756284,6|4,2:0|2:3,0:0:0:0:
504,180,62931,1,8,0:0:0:0:
471,88,63073,1,2,3:0:0:0:
413,159,63215,2,0,L|421:249,1,80.5000018781421,4|2,0:3|1:0,0:0:0:0:
490,325,63499,1,8,0:0:0:0:
374,326,63642,6,0,L|187:337,1,161.000003756284,4|2,0:0|1:0,0:0:0:0:
142,282,64068,2,0,L|129:384,1,80.5000018781421,8|2,0:0|0:0,0:0:0:0:
54,273,64352,2,0,L|49:192,1,80.5000018781421,8|2,0:0|0:0,0:0:0:0:
0,93,64637,1,8,0:0:0:0:
111,112,64779,6,0,B|163:112|163:112|207:82|207:82|267:79,1,161.000003756284,4|4,0:0|2:3,0:0:0:0:
377,52,65206,2,0,L|351:144,1,80.5000018781421,8|2,0:0|0:0,0:0:0:0:
425,220,65490,2,0,L|447:139,1,80.5000018781421,4|8,0:3|0:0,0:0:0:0:
449,131,65703,1,8,0:0:0:0:
453,119,65774,1,8,0:0:0:0:
377,52,65916,5,2,0:0:0:0:
376,51,67054,6,0,P|333:52|281:42,1,80.5000018781421,14|0,0:0|0:0,0:0:0:0:
221,83,67338,2,0,P|216:131|202:181,1,80.5000018781421,2|8,0:0|0:0,0:0:0:0:
126,245,67623,1,2,0:0:0:0:
126,245,67765,2,0,L|223:256,1,80.5000018781421,8|8,0:0|0:0,0:0:0:0:
290,259,68049,1,8,0:0:0:0:
353,331,68191,1,12,0:0:0:0:
353,331,68476,6,0,L|409:339,3,40.2500009390711,2|2|10|4,0:0|0:0|0:0|0:3,0:0:0:0:
407,316,68760,6,0,L|416:258,3,40.2500009390711,12|4|8|8,0:3|0:3|0:3|0:3,0:0:0:0:
420,239,69044,5,8,0:3:0:0:
366,180,69187,1,8,0:0:0:0:
422,118,69329,5,6,0:0:0:0:
255,190,78428,5,4,3:0:0:0:
255,190,80703,5,0,3:0:0:0:
255,190,82552,5,2,2:0:0:0:
255,190,82694,2,0,L|254:234,1,36.7499990349411,2|2,0:0|0:3,0:0:0:0:
255,249,82978,6,0,L|372:249,1,105.000004452467,6|2,3:2|0:0,0:0:0:0:
439,239,83405,2,0,L|439:126,1,105.000004452467,0|2,1:0|0:0,0:0:0:0:
377,72,83831,1,0,1:0:0:0:
377,72,84116,6,0,B|333:76|333:76|305:97|305:97|262:99,1,105.000004452467,6|2,3:2|0:0,0:0:0:0:
197,120,84542,2,0,L|180:244,1,105.000004452467,0|0,1:0|1:0,0:0:0:0:
126,292,84969,1,0,1:0:0:0:
126,292,85253,6,0,P|81:282|52:229,1,105.000004452467,6|2,3:2|0:0,0:0:0:0:
52,154,85680,2,0,P|73:128|145:117,1,105.000004452467,0|2,1:0|0:0,0:0:0:0:
214,78,86106,1,0,1:0:0:0:
214,78,86390,6,0,L|291:79,1,52.5000022262334,2|0,3:2|0:0,0:0:0:0:
340,108,86675,2,0,L|391:76,1,52.5000022262334,2|0,3:0|1:0,0:0:0:0:
415,154,86959,2,0,L|437:211,1,52.5000022262334,0|0,3:0|1:0,0:0:0:0:
493,276,87243,1,12,0:3:0:0:
403,284,87386,1,0,1:0:0:0:
403,284,87457,1,0,1:0:0:0:
403,284,87528,6,0,L|278:374,1,140.000000596046,6|0,0:0|3:0,0:0:0:0:
194,347,87954,2,0,L|171:277,1,70.000000298023,8|0,0:0|0:0,0:0:0:0:
183,182,88239,2,0,P|244:181|314:144,1,140.000000596046,4|8,0:3|0:0,0:0:0:0:
404,93,88665,6,0,B|398:136|400:155|436:176|433:215|420:240,1,140.000000596046,2|2,0:0|0:0,0:0:0:0:
380,329,89092,1,8,0:0:0:0:
380,329,89234,2,0,L|229:335,1,140.000000596046,0|2,0:0|0:0,0:0:0:0:
137,332,89661,1,8,0:0:0:0:
137,332,89803,6,0,P|143:248|87:193,1,140.000000596046,6|0,0:0|3:0,0:0:0:0:
76,119,90229,1,8,0:0:0:0:
76,119,90371,2,0,L|159:105,1,70.000000298023,0|4,0:0|0:3,0:0:0:0:
234,118,90656,2,0,P|271:112|316:78,1,70.000000298023,2|8,1:2|0:0,0:0:0:0:
390,33,90940,6,0,P|424:106|426:195,1,140.000000596046,2|2,0:0|0:0,0:0:0:0:
443,269,91367,1,8,0:0:0:0:
443,269,91509,2,0,L|360:269,1,70.000000298023,2|4,0:2|0:3,0:0:0:0:
289,277,91793,2,0,P|273:307|270:342,1,70.000000298023,4|8,0:3|0:0,0:0:0:0:
171,334,92078,6,0,B|171:280|171:280|187:245|187:245|187:179,1,140.000000596046,6|0,0:0|3:0,0:0:0:0:
159,107,92504,1,8,0:0:0:0:
159,107,92646,2,0,L|4:106,1,140.000000596046,0|2,0:0|3:2,0:0:0:0:
22,209,93073,1,8,0:0:0:0:
22,209,93215,6,0,P|-2:255|62:319,1,140.000000596046,2|2,0:0|0:0,0:0:0:0:
129,243,93642,2,0,L|222:235,1,70.000000298023,8|0,0:0|0:0,0:0:0:0:
309,231,93926,1,2,0:0:0:0:
309,231,94068,2,0,P|319:189|314:145,1,70.000000298023,2|8,0:0|0:0,0:0:0:0:
409,71,94352,6,0,B|402:114|400:137|432:155|431:194|411:231,1,140.000000596046,6|0,0:0|3:0,0:0:0:0:
495,289,94779,1,8,0:0:0:0:
495,289,94921,2,0,B|347:309,1,140.000000596046,0|2,0:0|1:2,0:0:0:0:
276,372,95348,1,8,0:0:0:0:
200,341,95490,5,2,0:0:0:0:
200,341,95767,1,10,0:0:0:0:
228,260,95974,1,10,0:0:0:0:
160,217,96182,1,10,0:3:0:0:
96,265,96389,1,4,0:3:0:0:
36,211,96596,1,6,0:3:0:0:
79,141,96777,5,6,1:0:0:0:
79,141,97345,6,0,L|217:117,1,119.000002776384,8|2,1:0|0:0,0:0:0:0:
248,198,97772,2,0,L|108:221,1,119.000002776384,2|8,0:0|1:0,0:0:0:0:
145,298,98198,1,0,0:0:0:0:
223,288,98340,1,2,0:0:0:0:
223,288,98412,1,2,0:0:0:0:
223,288,98483,2,0,L|302:277,1,59.500001388192,8|8,1:0|1:0,0:0:0:0:
295,198,98767,2,0,L|283:132,1,59.500001388192,0|8,0:0|1:0,0:0:0:0:
351,55,99051,6,0,L|372:183,1,119.000002776384,4|0,3:0|0:0,0:0:0:0:
390,252,99478,1,2,0:0:0:0:
390,252,99549,1,2,0:0:0:0:
390,252,99620,2,0,L|521:244,1,119.000002776384,8|8,1:0|0:0,0:0:0:0:
405,345,100189,6,0,B|381:338|360:340|338:369|298:367|272:354,1,119.000002776384,2|0,2:0|1:0,0:0:0:0:
116,328,100758,2,0,L|110:277,2,39.666667592128,0|0|8,1:0|0:0|0:3,0:0:0:0:
62,271,101042,2,0,L|57:217,2,39.666667592128,12|12|2,0:3|0:3|0:0,0:0:0:0:
88,192,101326,5,8,0:0:0:0:
88,192,103317,1,12,0:3:0:0:
88,192,103601,5,14,0:0:0:0:
88,192,103743,2,0,L|87:110,1,59.500001388192,8|2,0:0|0:0,0:0:0:0:
162,67,104028,5,10,0:0:0:0:
162,67,104170,2,0,L|231:67,1,59.500001388192,8|2,0:0|0:0,0:0:0:0:
300,127,104454,5,10,0:0:0:0:
300,127,104596,2,0,L|301:187,1,59.500001388192,8|2,0:0|0:0,0:0:0:0:
216,238,104881,5,10,0:0:0:0:
216,238,105023,2,0,L|138:238,1,59.500001388192,8|2,0:0|2:0,0:0:0:0:
66,276,105307,5,2,2:0:0:0:
66,276,105449,2,0,L|66:329,3,29.750000694096,2|2|2|2,2:0|2:0|2:0|2:0,0:0:0:0:
67,332,105734,6,0,B|128:334|128:334|169:311|169:311|234:312,1,161.000003756284,4|2,0:0|2:3,0:0:0:0:
302,366,106160,2,0,P|309:319|292:269,1,80.5000018781421,8|0,0:0|0:0,0:0:0:0:
253,202,106445,2,0,L|426:202,1,161.000003756284,2|8,0:0|0:0,0:0:0:0:
455,121,106871,6,0,P|457:80|452:35,1,80.5000018781421,2|2,2:0|0:0,0:0:0:0:
357,106,107156,2,0,P|339:158|364:271,1,161.000003756284,4|2,2:3|3:0,0:0:0:0:
457,239,107582,1,4,0:3:0:0:
457,239,107724,2,0,L|462:337,1,80.5000018781421,0|8,3:0|0:0,0:0:0:0:
371,336,108009,6,0,B|331:328|311:325|284:364|252:367|212:354,1,161.000003756284,2|2,0:0|2:3,0:0:0:0:
160,288,108435,2,0,L|159:201,1,80.5000018781421,8|0,0:0|0:0,0:0:0:0:
76,128,108720,2,0,L|73:289,1,161.000003756284,2|8,0:0|0:0,0:0:0:0:
159,207,109146,2,0,P|201:210|255:193,1,80.5000018781421,2|2,2:0|0:0,0:0:0:0:
155,125,109431,2,0,P|117:121|51:138,2,80.5000018781421,4|8|2,2:3|0:0|3:0,0:0:0:0:
238,201,109857,1,4,0:3:0:0:
324,166,109999,1,2,1:0:0:0:
406,128,110141,1,8,0:0:0:0:
406,128,110284,6,0,B|396:175|399:207|435:222|431:273|412:302,1,161.000003756284,4|2,0:0|2:3,0:0:0:0:
351,359,110710,2,0,L|263:365,1,80.5000018781421,8|0,0:0|0:0,0:0:0:0:
175,384,110995,2,0,P|147:323|55:300,1,161.000003756284,2|8,0:0|0:0,0:0:0:0:
14,198,111421,6,0,B|69:198|69:198|118:173|118:173|196:173,1,161.000003756284,6|4,1:0|2:3,0:0:0:0:
247,240,111848,2,0,L|253:329,1,80.5000018781421,8|2,0:0|3:0,0:0:0:0:
346,222,112132,1,4,0:3:0:0:
346,222,112274,2,0,L|339:134,1,80.5000018781421,2|8,1:0|0:0,0:0:0:0:
432,51,112558,6,0,B|421:88|425:122|460:139|463:169|457:208,1,161.000003756284,4|2,0:0|1:0,0:0:0:0:
425,320,112985,1,8,0:0:0:0:
425,320,113127,2,0,L|312:313,1,80.5000018781421,2|2,0:0|0:0,0:0:0:0:
225,280,113412,1,2,0:0:0:0:
251,378,113554,1,8,0:0:0:0:
225,280,113696,6,0,L|207:106,1,161.000003756284,6|4,1:0|2:3,0:0:0:0:
248,33,114122,2,0,L|344:28,1,80.5000018781421,8|2,0:0|3:0,0:0:0:0:
440,38,114407,1,4,0:3:0:0:
440,38,114549,2,0,L|440:80,3,40.2500009390711,0|8|8|8,3:0|0:0|0:0|0:0,0:0:0:0:
438,109,114833,6,0,B|438:174,1,61.2499983915685,6|6,0:0|3:0,0:0:0:0:
436,203,115260,6,0,B|405:188|375:190|351:234|312:231|280:220,1,161.000003756284,6|2,0:0|0:0,0:0:0:0:
181,287,115686,1,2,2:0:0:0:
181,287,115829,6,0,P|180:251|193:182,1,80.5000018781421,8|2,0:0|2:0,0:0:0:0:
159,111,116113,1,2,0:0:0:0:
159,111,116255,2,0,L|350:112,1,161.000003756284,4|2,2:3|3:0,0:0:0:0:
403,167,116682,2,0,L|407:276,1,80.5000018781421,4|0,0:3|3:0,0:0:0:0:
460,335,116966,1,8,0:0:0:0:
460,335,117108,6,0,B|406:328|406:328|361:353|361:353|297:346,1,161.000003756284,2|2,0:0|2:3,0:0:0:0:
223,303,117535,2,0,L|225:392,1,80.5000018781421,8|0,0:0|0:0,0:0:0:0:
138,312,117819,2,0,L|132:229,1,80.5000018781421,2|0,0:0|0:0,0:0:0:0:
101,134,118104,1,8,0:0:0:0:
101,134,118246,2,0,B|151:112|151:112|196:117|196:117|266:86,1,161.000003756284,6|4,2:0|2:3,0:0:0:0:
355,49,118672,1,8,0:0:0:0:
265,0,118814,1,2,3:0:0:0:
251,92,118957,2,0,L|259:182,1,80.5000018781421,4|2,0:3|1:0,0:0:0:0:
190,266,119241,1,8,0:0:0:0:
284,208,119383,6,0,L|444:198,1,161.000003756284,4|2,0:0|1:0,0:0:0:0:
510,278,119810,2,0,L|512:370,1,80.5000018781421,8|2,0:0|0:0,0:0:0:0:
430,285,120094,2,0,L|426:221,2,40.2500009390711,8|8|2,0:0|0:3|0:0,0:0:0:0:
375,375,120378,1,8,0:0:0:0:
283,326,120521,6,0,B|231:326|231:326|187:296|187:296|127:293,1,161.000003756284,4|4,0:0|2:3,0:0:0:0:
120,183,120947,2,0,L|116:80,1,80.5000018781421,8|2,0:0|0:0,0:0:0:0:
213,29,121231,2,0,L|212:117,1,80.5000018781421,4|8,0:3|0:0,0:0:0:0:
213,125,121445,1,8,0:0:0:0:
213,139,121516,1,8,0:0:0:0:
281,205,121658,5,2,0:0:0:0:
281,205,122795,6,0,L|173:205,1,80.5000018781421,14|0,0:0|0:0,0:0:0:0:
142,283,123080,2,0,L|168:383,1,80.5000018781421,2|8,0:0|0:0,0:0:0:0:
255,370,123364,1,2,0:0:0:0:
255,370,123506,2,0,L|297:296,1,80.5000018781421,8|8,0:0|0:0,0:0:0:0:
374,258,123791,1,8,0:0:0:0:
451,318,123933,1,12,0:0:0:0:
451,318,124359,6,0,P|463:274|459:231,1,80.5000018781421,12|2,0:0|0:0,0:0:0:0:
456,220,124573,1,2,3:1:0:0:
447,200,124644,1,10,0:0:0:0:
383,155,124786,1,8,0:3:0:0:
301,169,124928,1,8,0:0:0:0:
234,119,125070,5,6,0:0:0:0:
252,104,134170,5,4,0:0:0:0:
255,194,134454,1,0,0:0:0:0:
255,194,134596,2,0,L|380:191,1,105.000004452467,2|2,0:0|0:0,0:0:0:0:
435,197,135023,2,0,L|438:260,1,52.5000022262334,0|2,0:0|0:0,0:0:0:0:
431,333,135307,5,0,0:0:0:0:
431,333,135449,2,0,L|308:333,1,105.000004452467,2|2,0:0|0:0,0:0:0:0:
246,335,135876,2,0,L|246:268,1,52.5000022262334,0|2,0:0|1:0,0:0:0:0:
174,259,136160,1,0,0:0:0:0:
174,259,136303,6,0,L|63:258,1,105.000004452467,0|0,1:0|3:0,0:0:0:0:
74,174,136871,1,0,3:0:0:0:
154,172,137156,1,0,3:0:0:0:
215,120,137440,1,0,3:0:0:0:
210,42,137724,1,0,3:0:0:0:
283,73,138009,1,2,0:0:0:0:
363,74,138293,1,2,0:0:0:0:
367,155,138577,1,2,3:0:0:0:
367,155,138720,6,0,P|398:210|397:271,1,105.000004452467,0|0,1:0|3:0,0:0:0:0:
464,313,139146,2,0,L|404:348,1,52.5000022262334,2|0,0:0|0:0,0:0:0:0:
334,354,139431,2,0,P|279:346|219:356,1,105.000004452467,2|2,0:0|0:0,0:0:0:0:
149,335,139857,1,0,0:0:0:0:
149,335,139999,2,0,B|102:217,1,105.000004452467,2|2,0:0|0:0,0:0:0:0:
96,158,140426,2,0,L|157:131,1,52.5000022262334,0|2,0:0|0:0,0:0:0:0:
233,112,140710,1,0,0:0:0:0:
233,112,140852,2,0,P|301:107|350:87,1,105.000004452467,0|0,1:0|3:0,0:0:0:0:
256,192,141279,12,0,142985,3:0:0:0:
196,84,143269,5,2,1:0:0:0:
192,199,143554,1,2,0:0:0:0:
192,199,143696,1,2,0:0:0:0:
308,83,144407,5,2,1:0:0:0:
317,203,144691,1,2,0:0:0:0:
317,203,144833,1,2,0:0:0:0:
254,250,145544,5,2,1:0:0:0:
305,319,145829,2,0,L|368:315,1,52.5000022262334,2|2,0:0|0:0,0:0:0:0:
254,250,146682,5,2,1:0:0:0:
207,319,146966,2,0,L|144:315,1,52.5000022262334,2|2,0:0|0:0,0:0:0:0:
82,254,147250,6,0,L|78:219,7,26.2500011131167,2|2|2|2|2|2|2|2,3:0|3:0|3:0|3:0|3:0|3:0|3:0|3:0,0:0:0:0:
74,191,147819,5,2,1:0:0:0:
121,66,148104,1,2,0:0:0:0:
121,66,148246,2,0,L|194:67,1,52.5000022262334,8|2,0:0|0:0,0:0:0:0:
276,129,148530,1,12,0:3:0:0:
276,129,148672,2,0,L|315:134,3,26.2500011131167,2|2|8|0,0:0|0:0|0:0|0:0,0:0:0:0:
334,135,148957,6,0,B|460:150,1,105.000004452467,2|2,1:0|0:0,0:0:0:0:
486,237,149383,1,8,0:0:0:0:
334,135,150094,5,2,1:0:0:0:
261,223,150378,2,0,L|202:227,1,52.5000022262334,2|8,0:0|0:0,0:0:0:0:
208,226,151231,6,0,L|205:328,1,80.5000018781421,6|2,0:0|2:0,0:0:0:0:
119,245,151516,2,0,L|32:244,1,80.5000018781421,2|8,0:0|0:0,0:0:0:0:
93,160,151800,2,0,L|94:70,1,80.5000018781421,8|8,0:0|0:0,0:0:0:0:
191,130,152085,1,8,0:0:0:0:
206,228,152227,1,8,0:0:0:0:
206,228,152369,6,0,L|368:218,1,161.000003756284,14|0,0:0|3:0,0:0:0:0:
462,239,152795,2,0,L|467:337,1,80.5000018781421,2|0,0:0|0:0,0:0:0:0:
366,218,153080,2,0,L|361:117,1,80.5000018781421,2|0,0:0|3:0,0:0:0:0:
429,56,153364,1,8,0:0:0:0:
310,64,153506,6,0,B|285:59|240:59|237:102|194:101|144:86,1,161.000003756284,2|0,0:0|3:0,0:0:0:0:
54,93,153933,2,0,L|50:11,2,80.5000018781421,2|2|2,0:0|2:0|0:0,0:0:0:0:
111,202,154359,2,0,L|111:256,3,40.2500009390711,2|2|8|2,3:2|0:0|0:0|0:0,0:0:0:0:
111,265,154644,6,0,L|289:252,1,161.000003756284,2|2,3:2|3:0,0:0:0:0:
376,291,155070,2,0,L|400:374,2,80.5000018781421,2|2|2,0:0|3:2|2:2,0:0:0:0:
439,205,155497,2,0,L|456:120,1,80.5000018781421,2|8,3:0|0:0,0:0:0:0:
383,27,155781,6,0,L|360:189,1,161.000003756284,2|2,3:0|3:0,0:0:0:0:
261,120,156208,2,0,L|162:109,1,80.5000018781421,8|0,0:0|3:0,0:0:0:0:
86,185,156492,1,8,0:0:0:0:
86,185,156563,1,8,0:0:0:0:
86,185,156634,2,0,L|167:191,1,80.5000018781421,2|8,0:0|0:0,0:0:0:0:
280,218,156919,6,0,B|292:269|292:269|288:304|288:304|302:391,1,161.000003756284,14|2,0:0|1:3,0:0:0:0:
390,286,157345,2,0,L|367:207,1,80.5000018781421,2|2,0:0|3:2,0:0:0:0:
383,84,157630,2,0,L|299:111,1,80.5000018781421,2|2,0:0|3:2,0:0:0:0:
197,122,157914,1,8,0:0:0:0:
197,122,158056,6,0,B|148:122|120:124|109:169|77:170|35:158,1,161.000003756284,2|2,1:3|3:2,0:0:0:0:
26,269,158483,2,0,P|67:272|126:252,1,80.5000018781421,2|2,0:0|3:2,0:0:0:0:
207,218,158767,1,6,3:0:0:0:
207,218,158909,2,0,L|209:271,3,40.2500009390711,4|2|8|2,0:0|3:0|0:0|3:2,0:0:0:0:
211,289,159194,6,0,L|383:268,1,161.000003756284,14|8,0:0|0:0,0:0:0:0:
468,268,159620,2,0,L|481:362,1,80.5000018781421,8|2,0:0|0:0,0:0:0:0:
371,269,159904,2,0,L|359:168,1,80.5000018781421,8|2,0:0|0:0,0:0:0:0:
421,91,160189,1,8,0:0:0:0:
326,188,160331,6,0,P|236:196|132:204,1,161.000003756284,6|2,0:3|0:0,0:0:0:0:
58,264,160758,2,0,L|60:362,1,80.5000018781421,8|2,0:0|0:0,0:0:0:0:
151,290,161042,2,0,L|151:242,2,40.2500009390711,8|12|2,0:0|0:3|0:0,0:0:0:0:
261,340,161326,1,8,0:0:0:0:
261,340,161468,6,0,L|389:332,1,115.500004016518,14|0,1:0|0:0,0:0:0:0:
398,332,161753,6,0,L|396:275,3,40.2500009390711,6|2|8|2,0:3|0:3|0:0|0:3,0:0:0:0:
396,270,162037,6,0,L|495:262,1,80.5000018781421,2|2,0:3|0:0,0:0:0:0:
388,159,162322,1,2,3:2:0:0:
388,159,162464,2,0,L|294:168,1,80.5000018781421,8|2,0:0|3:2,0:0:0:0:
200,245,162748,2,0,L|160:84,1,161.000003756284,2|2,0:0|1:0,0:0:0:0:
59,117,163175,1,2,2:0:0:0:
59,117,163317,2,0,L|18:24,2,80.5000018781421,2|2|8,0:0|2:0|0:0,0:0:0:0:
120,250,163743,6,0,P|164:242|232:253,1,80.5000018781421,2|2,3:0|0:0,0:0:0:0:
324,207,164028,1,2,3:2:0:0:
324,207,164170,2,0,P|344:146|284:53,1,161.000003756284,2|2,0:0|0:0,0:0:0:0:
204,14,164596,1,2,3:2:0:0:
101,58,164739,1,8,0:0:0:0:
101,58,164881,6,0,L|57:236,1,161.000003756284,6|2,0:0|0:0,0:0:0:0:
100,308,165307,1,8,0:0:0:0:
224,256,165449,2,0,L|406:280,1,161.000003756284,2|2,0:0|0:0,0:0:0:0:
472,348,165876,1,8,0:0:0:0:
483,213,166018,6,0,L|483:125,1,80.5000018781421,14|0,1:0|0:0,0:0:0:0:
382,77,166303,1,6,0:3:0:0:
382,77,166445,2,0,L|380:165,1,80.5000018781421,8|2,0:0|0:0,0:0:0:0:
294,218,166729,1,8,0:0:0:0:
294,218,166871,2,0,L|235:218,3,40.2500009390711,10|0|8|8,0:0|0:0|0:0|0:0,0:0:0:0:
230,217,167156,6,0,L|137:182,1,80.5000018781421,14|0,0:0|0:0,0:0:0:0:
134,110,167440,2,0,L|158:202,1,80.5000018781421,10|8,0:0|0:0,0:0:0:0:
102,249,167724,2,0,L|159:183,1,80.5000018781421,10|8,0:0|0:0,0:0:0:0:
197,303,168009,1,10,0:0:0:0:
230,217,168151,1,10,0:0:0:0:
134,110,168293,5,14,0:0:0:0:
149,126,172132,6,0,P|214:125|115:43,1,322.000007512569,2|6,3:0|0:3,0:0:0:0:
56,105,172843,6,0,L|64:265,1,161.000003756284,6|0,0:0|3:0,0:0:0:0:
65,279,173198,1,2,0:0:0:0:
66,293,173269,1,10,0:0:0:0:
161,225,173554,2,0,L|201:222,4,40.2500009390711,8|0|2|2|8,0:0|0:0|0:0|0:0|0:0,0:0:0:0:
241,296,173980,6,0,L|411:292,1,161.000003756284,14|8,0:0|0:0,0:0:0:0:
459,200,174389,2,0,L|365:205,1,80.5000018781421,12|12,0:3|0:3,0:0:0:0:
257,145,174680,2,0,L|209:145,5,40.2500009390711,8|8|8|8|8|6,0:0|0:0|0:0|0:0|0:0|3:0,0:0:0:0:
181,146,175117,5,6,0:0:0:0:
181,146,175390,2,0,L|100:145,1,80.5000018781421,2|10,0:0|0:0,0:0:0:0:
240,220,175663,5,6,0:0:0:0:
240,220,175944,2,0,L|337:220,1,80.5000018781421,2|10,0:0|0:0,0:0:0:0:
184,311,176231,5,6,0:0:0:0:
184,311,176546,2,0,L|98:311,1,80.5000018781421,2|10,0:0|0:0,0:0:0:0:
253,368,176818,5,6,0:0:0:0:
253,368,177110,2,0,L|349:365,1,80.5000018781421,2|10,0:0|0:0,0:0:0:0:
356,363,177330,1,8,0:0:0:0:
378,359,177403,6,0,L|378:321,1,36.7499990349411,4|6,0:3|3:0,0:0:0:0:
385,296,177688,1,2,3:0:0:0:
385,296,177754,1,2,3:0:0:0:
385,296,177820,6,0,B|322:294|322:294|285:315|285:315|227:314,1,161.000003756284,6|2,0:0|0:0,0:0:0:0:
118,327,178245,1,2,2:0:0:0:
118,327,178387,6,0,L|109:222,1,80.5000018781421,8|2,0:0|2:0,0:0:0:0:
70,155,178672,1,2,0:0:0:0:
70,155,178814,2,0,B|127:152|127:152|173:123|173:123|245:121,1,161.000003756284,4|2,2:3|3:0,0:0:0:0:
318,116,179240,2,0,L|320:28,1,80.5000018781421,4|0,0:3|3:0,0:0:0:0:
434,98,179525,1,8,0:0:0:0:
434,98,179667,6,0,P|450:188|418:268,1,161.000003756284,2|2,0:0|2:3,0:0:0:0:
386,345,180093,2,0,L|286:354,1,80.5000018781421,8|0,0:0|0:0,0:0:0:0:
206,296,180378,2,0,P|195:253|207:216,1,80.5000018781421,2|0,0:0|0:0,0:0:0:0:
264,131,180662,5,8,0:0:0:0:
264,131,180804,2,0,B|232:148|191:142|185:117|146:117|107:137,1,161.000003756284,6|4,2:0|2:3,0:0:0:0:
12,168,181231,1,8,0:0:0:0:
35,73,181373,1,2,3:0:0:0:
108,137,181515,2,0,L|113:228,1,80.5000018781421,4|2,0:3|1:0,0:0:0:0:
43,311,181800,1,8,0:0:0:0:
150,282,181942,6,0,B|215:281|215:281|253:302|253:302|316:303,1,161.000003756284,4|2,0:0|1:0,0:0:0:0:
400,280,182368,2,0,L|387:382,1,80.5000018781421,8|2,0:0|0:0,0:0:0:0:
481,274,182653,1,8,0:0:0:0:
481,274,182724,2,0,L|475:215,3,40.2500009390711,8|2|8|8,0:3|0:0|0:0|0:0,0:0:0:0:
473,191,183079,5,6,0:0:0:0:
473,191,183790,6,0,L|468:140,5,40.2500009390711,8|2|8|8|8|8,1:0|3:0|0:1|0:1|0:1|0:1,0:0:0:0:
458,108,184217,6,0,B|423:114|398:110|398:110|369:137|369:137|340:127|273:144,1,161.000003756284,4|2,0:0|2:3,0:0:0:0:
215,127,184643,2,0,P|222:80|205:30,1,80.5000018781421,8|0,0:0|0:0,0:0:0:0:
125,99,184928,2,0,B|109:143|109:182|141:191|144:210|131:277,1,161.000003756284,2|8,0:0|0:0,0:0:0:0:
63,348,185354,6,0,L|153:337,1,80.5000018781421,2|2,2:0|0:0,0:0:0:0:
253,369,185638,2,0,L|242:179,1,161.000003756284,4|2,2:3|3:0,0:0:0:0:
344,120,186065,1,4,0:3:0:0:
344,120,186207,2,0,L|349:218,1,80.5000018781421,0|8,3:0|0:0,0:0:0:0:
464,322,186491,6,0,B|472:282|475:262|436:235|433:203|446:163,1,161.000003756284,2|2,0:0|2:3,0:0:0:0:
477,56,186918,2,0,L|377:64,1,80.5000018781421,8|0,0:0|0:0,0:0:0:0:
283,17,187202,2,0,B|285:63|285:63|263:105|263:105|265:185,1,161.000003756284,2|8,0:0|0:0,0:0:0:0:
182,243,187629,2,0,L|187:359,1,80.5000018781421,2|2,2:0|0:0,0:0:0:0:
89,231,187913,2,0,L|79:141,2,80.5000018781421,4|8|2,2:3|0:0|3:0,0:0:0:0:
41,334,188340,1,4,0:3:0:0:
185,323,188482,2,0,L|239:321,3,40.2500009390711,2|2|8|8,1:0|3:0|0:0|0:0,0:0:0:0:
250,321,188766,6,0,B|296:333|328:332|345:296|396:303|424:324,1,161.000003756284,4|2,0:0|2:3,0:0:0:0:
480,229,189193,2,0,L|470:129,1,80.5000018781421,8|0,0:0|0:0,0:0:0:0:
391,51,189477,2,0,P|384:111|389:145,1,80.5000018781421,2|0,0:0|0:0,0:0:0:0:
283,154,189762,1,8,0:0:0:0:
283,154,189904,6,0,B|234:160|234:160|186:193|186:193|121:204,1,161.000003756284,6|4,1:0|2:3,0:0:0:0:
43,331,190330,2,0,L|37:245,1,80.5000018781421,8|2,0:0|3:0,0:0:0:0:
133,201,190615,1,4,0:3:0:0:
133,201,190757,2,0,L|143:291,1,80.5000018781421,2|8,1:0|0:0,0:0:0:0:
218,362,191041,6,0,B|270:362|270:362|311:315|311:315|385:306,1,161.000003756284,4|2,0:0|1:0,0:0:0:0:
477,216,191468,1,8,0:0:0:0:
477,216,191610,2,0,L|363:214,1,80.5000018781421,2|2,0:0|0:0,0:0:0:0:
281,230,191894,1,2,0:0:0:0:
357,309,192037,1,8,0:0:0:0:
397,215,192179,6,0,B|406:177|405:143|373:135|372:94|381:52,1,161.000003756284,6|4,1:0|2:3,0:0:0:0:
260,25,192605,2,0,L|296:130,1,80.5000018781421,8|2,0:0|3:0,0:0:0:0:
187,167,192890,1,4,0:3:0:0:
281,230,193032,2,0,L|281:272,3,40.2500009390711,0|8|8|8,3:0|0:0|0:0|0:0,0:0:0:0:
279,301,193316,6,0,B|279:366,1,61.2499983915685,6|2,0:0|3:0,0:0:0:0:
244,372,193743,6,0,L|155:376,1,80.5000018781421,12|0,0:0|0:0,0:0:0:0:
60,265,194027,1,8,0:0:0:0:
60,265,194169,2,0,L|153:271,1,80.5000018781421,2|8,0:0|0:0,0:0:0:0:
226,190,194454,6,0,L|222:85,1,80.5000018781421,2|8,0:0|0:0,0:0:0:0:
307,39,194738,1,2,0:0:0:0:
190,109,194880,2,0,L|88:104,1,80.5000018781421,8|2,0:0|0:0,0:0:0:0:
226,190,195164,2,0,L|321:186,1,80.5000018781421,8|2,0:0|0:0,0:0:0:0:
437,143,195449,1,8,0:0:0:0:
306,186,195591,6,0,L|319:365,1,161.000003756284,2|2,0:0|0:0,0:0:0:0:
416,278,196018,2,0,L|410:188,1,80.5000018781421,8|2,0:0|0:0,0:0:0:0:
499,112,196302,2,0,L|506:204,1,80.5000018781421,8|2,0:0|0:0,0:0:0:0:
416,278,196586,1,8,0:0:0:0:
246,264,196728,6,0,B|196:265|196:265|151:309|126:312|73:294,1,161.000003756284,14|2,0:0|0:0,0:0:0:0:
8,362,197155,1,8,0:0:0:0:
33,238,197297,2,0,L|34:146,1,80.5000018781421,2|8,0:0|0:0,0:0:0:0:
116,76,197582,2,0,L|114:137,2,40.2500009390711,2|2|8,0:0|0:0|0:0,0:0:0:0:
227,38,197866,6,0,B|264:52|306:54|323:22|359:23|399:40,1,161.000003756284,12|2,0:0|0:0,0:0:0:0:
472,109,198292,2,0,L|478:213,1,80.5000018781421,8|2,0:0|0:0,0:0:0:0:
382,115,198577,2,0,L|387:0,1,80.5000018781421,8|2,0:0|0:0,0:0:0:0:
294,121,198861,1,8,0:0:0:0:
396,225,199003,6,0,B|356:225|326:246|331:302|291:330|236:321,1,161.000003756284,4|8,0:0|0:0,0:0:0:0:
251,326,199359,1,8,0:0:0:0:
233,325,199430,1,8,0:0:0:0:
134,337,199572,1,2,0:0:0:0:
115,235,199714,1,12,0:3:0:0:
206,215,199856,1,2,0:0:0:0:
187,122,199999,1,2,0:0:0:0:
255,58,200141,5,8,0:0:0:0:
255,58,201278,6,0,L|351:52,1,80.5000018781421,14|0,0:0|0:0,0:0:0:0:
422,137,201558,2,0,L|336:132,2,80.5000018781421,2|8|2,0:0|0:0|0:0,0:0:0:0:
463,225,201975,1,8,0:0:0:0:
378,220,202114,1,8,0:0:0:0:
286,214,202253,1,8,0:0:0:0:
201,261,202392,5,12,0:0:0:0:
201,261,203127,6,0,L|202:303,5,40.2500009390711,10|10|10|10|10|10,0:0|0:0|0:0|0:0|0:0|0:0,0:0:0:0:
209,329,203553,6,0,L|370:326,1,146.999996139764,6|0,0:0|3:0,0:0:0:0:
485,284,203979,1,8,0:0:0:0:
485,284,204121,2,0,L|496:361,2,73.4999980698822,0|4|2,0:0|0:3|3:2,0:0:0:0:
435,180,204548,1,8,0:0:0:0:
435,180,204690,6,0,B|446:25,1,146.999996139764,6|2,0:0|0:0,0:0:0:0:
335,45,205116,2,0,L|248:50,1,73.4999980698822,8|0,0:0|0:0,0:0:0:0:
163,2,205401,1,2,0:0:0:0:
163,2,205543,2,0,P|155:42|160:76,1,73.4999980698822,2|8,0:0|0:0,0:0:0:0:
245,133,205827,6,0,B|233:174|233:210|267:225|265:275|243:305,1,146.999996139764,6|0,0:0|3:0,0:0:0:0:
204,366,206254,1,8,0:0:0:0:
204,366,206396,2,0,L|124:331,2,73.4999980698822,0|4|2,0:0|0:3|1:2,0:0:0:0:
336,364,206822,1,8,0:0:0:0:
336,364,206965,6,0,B|418:223,1,146.999996139764,6|2,0:0|0:0,0:0:0:0:
470,139,207391,2,0,P|470:98|464:63,1,73.4999980698822,8|2,0:0|0:2,0:0:0:0:
365,11,207676,1,4,0:3:0:0:
364,10,207818,2,0,P|357:48|363:84,1,73.4999980698822,4|8,0:3|0:0,0:0:0:0:
265,108,208102,6,0,B|235:102|195:101|191:134|136:130|94:112,1,146.999996139764,6|0,0:0|3:0,0:0:0:0:
24,93,208529,1,8,0:0:0:0:
24,93,208671,2,0,L|16:12,2,73.4999980698822,0|4|2,0:0|0:3|3:2,0:0:0:0:
58,191,209097,5,8,0:0:0:0:
58,191,209240,2,0,L|46:358,1,146.999996139764,6|2,0:0|0:0,0:0:0:0:
161,302,209666,2,0,P|195:300|238:300,1,73.4999980698822,8|0,0:0|0:0,0:0:0:0:
312,225,209950,1,2,0:0:0:0:
312,225,210093,2,0,L|310:147,1,73.4999980698822,2|8,0:0|0:0,0:0:0:0:
431,60,210377,6,0,B|419:91|417:126|443:133|439:182|429:213,1,146.999996139764,6|0,0:0|3:0,0:0:0:0:
426,318,210804,1,8,0:0:0:0:
426,318,210946,2,0,L|528:318,2,73.4999980698822,0|4|2,0:0|0:3|1:2,0:0:0:0:
340,245,211372,1,8,0:0:0:0:
340,245,211514,6,0,P|323:281|318:327,1,73.4999980698822,6|2,0:0|0:2,0:0:0:0:
214,342,211799,2,0,L|140:363,1,73.4999980698822,2|8,0:0|0:0,0:0:0:0:
95,262,212083,2,0,L|56:188,1,73.4999980698822,2|4,0:2|0:3,0:0:0:0:
154,153,212367,2,0,L|206:82,1,73.4999980698822,4|8,0:3|0:0,0:0:0:0:
117,23,212652,6,0,B|157:22|157:22|196:53|196:53|271:51,1,146.999996139764,6|0,0:0|3:0,0:0:0:0:
362,56,213078,1,8,0:0:0:0:
362,56,213221,2,0,L|450:24,2,73.4999980698822,0|4|2,0:0|0:3|3:2,0:0:0:0:
306,148,213647,1,8,0:0:0:0:
306,148,213789,6,0,L|340:311,1,146.999996139764,6|2,0:0|0:0,0:0:0:0:
442,360,214216,2,0,L|440:259,1,73.4999980698822,8|0,0:0|0:0,0:0:0:0:
411,187,214500,1,2,0:0:0:0:
411,187,214642,2,0,L|452:114,1,73.4999980698822,2|8,0:0|0:0,0:0:0:0:
306,148,214927,6,0,B|258:146|236:151|231:187|189:193|148:178,1,146.999996139764,6|0,0:0|3:0,0:0:0:0:
72,244,215353,1,8,0:0:0:0:
72,244,215495,2,0,P|62:284|65:326,2,73.4999980698822,0|4|2,0:0|0:3|1:2,0:0:0:0:
74,140,215922,1,8,0:0:0:0:
74,140,216064,6,0,L|73:54,1,73.4999980698822,6|2,0:0|0:2,0:0:0:0:
210,37,216349,2,0,L|211:-12,2,36.7499990349411,2|2|8,0:0|0:0|0:0,0:0:0:0:
268,139,216633,2,0,L|273:233,1,73.4999980698822,2|4,0:2|0:3,0:0:0:0:
368,296,216917,1,4,0:3:0:0:
271,212,217059,1,8,0:0:0:0:
167,286,217202,6,0,B|136:307|127:324|127:324|78:316|78:316|47:331|14:336,1,146.999996139764,6|0,0:0|3:0,0:0:0:0:
68,219,217600,1,8,0:0:0:0:
68,219,217743,2,0,L|60:128,1,73.4999980698822,0|4,0:0|0:3,0:0:0:0:
155,61,218027,2,0,L|148:144,1,73.4999980698822,2|8,1:0|0:0,0:0:0:0:
265,142,218311,2,0,L|412:148,1,146.999996139764,6|2,0:0|0:0,0:0:0:0:
468,263,218738,2,0,L|367:257,1,73.4999980698822,8|2,0:0|0:0,0:0:0:0:
264,205,219022,2,0,L|266:143,3,36.7499990349411,12|2|2|2,0:3|0:0|0:0|0:0,0:0:0:0:
265,142,219307,1,8,0:0:0:0:
179,203,219449,6,0,B|180:235|184:265|148:292|153:334|174:365,1,146.999996139764,6|0,0:0|3:0,0:0:0:0:
87,244,219875,2,0,P|87:205|95:159,1,73.4999980698822,8|2,0:0|0:0,0:0:0:0:
29,80,220160,1,12,0:3:0:0:
128,79,220302,2,0,L|178:80,3,36.7499990349411,2|2|8|8,1:2|1:2|0:0|0:0,0:0:0:0:
200,85,220617,6,0,L|245:153,1,73.4999980698822,6|2,0:0|0:2,0:0:0:0:
347,119,220895,2,0,L|375:48,1,73.4999980698822,2|8,0:0|0:0,0:0:0:0:
437,162,221174,2,0,L|456:262,1,73.4999980698822,2|4,0:2|0:3,0:0:0:0:
366,342,221453,2,0,L|370:276,3,36.7499990349411,4|8|8|10,0:3|0:0|0:0|0:0,0:0:0:0:
371,274,221732,5,4,0:0:0:0:
371,274,222889,6,0,L|215:259,1,146.999996139764,14|14,0:0|0:0,0:0:0:0:
126,332,223315,1,8,0:0:0:0:
101,227,223457,2,0,L|94:178,3,36.7499990349411,2|2|8|4,0:0|0:0|0:0|0:3,0:0:0:0:
92,164,223741,2,0,L|141:155,2,36.7499990349411,2|2|8,0:0|0:0|0:0,0:0:0:0:
187,87,224026,5,14,0:0:0:0:
297,189,224310,1,2,0:0:0:0:
367,129,224452,2,0,L|475:127,1,73.4999980698822,6|2,0:0|0:0,0:0:0:0:
360,233,224737,2,0,L|258:230,1,73.4999980698822,6|2,0:3|0:0,0:0:0:0:
271,232,224950,1,2,0:0:0:0:
256,231,225021,1,8,0:0:0:0:
156,286,225163,6,0,P|134:234|183:160,1,146.999996139764,14|14,0:0|0:0,0:0:0:0:
193,64,225590,1,8,0:0:0:0:
193,64,225732,2,0,L|286:42,1,73.4999980698822,2|8,0:0|0:0,0:0:0:0:
336,126,226016,1,8,0:0:0:0:
394,51,226158,1,2,0:0:0:0:
495,43,226301,5,14,0:0:0:0:
495,43,228149,6,0,L|488:131,1,73.4999980698822,2|8,0:0|0:0,0:0:0:0:
412,168,228433,5,8,0:0:0:0:
325,148,228576,5,12,0:0:0:0:
