osu file format v14

[General]
AudioFilename: Heart Connect - Suzumu, Feat Gumi.mp3
AudioLeadIn: 0
PreviewTime: 11036
Countdown: 0
SampleSet: Normal
StackLeniency: 0.7
Mode: 0
LetterboxInBreaks: 0
WidescreenStoryboard: 1

[Editor]
Bookmarks: 185340
DistanceSpacing: 0.8
BeatDivisor: 4
GridSize: 4
TimelineZoom: 1

[Metadata]
Title:Shinzou Connect
TitleUnicode:心臓コネクト
Artist:suzumu
ArtistUnicode:スズム
Creator:Hailie
Version:Extra
Source:
Tags:ke-sanβ tokiti no.734 yasu giga-p ギガp vocaloid gumi DJ Lucky RyoKazuka Shanipika
BeatmapID:1647916
BeatmapSetID:784999

[Difficulty]
HPDrainRate:6
CircleSize:4
OverallDifficulty:8.5
ApproachRate:9.2
SliderMultiplier:1.65
SliderTickRate:1

[Events]
//Background and Video events
0,0,"Background.png",0,0
Video,0,"Video.avi"
//Break Periods
2,23121,26247
2,69756,77718
2,125497,133175
//Storyboard Layer 0 (Background)
//Storyboard Layer 1 (Fail)
//Storyboard Layer 2 (Pass)
//Storyboard Layer 3 (Foreground)
//Storyboard Sound Samples

[TimingPoints]
-3314,284.36018957346,4,1,1,60,1,0
9116,-100,4,1,1,10,0,0
11035,-100,4,1,1,65,0,0
11036,284.36018957346,4,1,1,65,1,0
11462,284.36018957346,4,1,1,65,1,0
22694,-100,4,1,1,50,0,0
31793,-100,4,1,1,60,0,0
41035,-133.333333333333,4,2,2,50,0,0
45300,-181.818181818181,4,2,2,50,0,0
45584,-181.818181818181,4,1,1,50,0,0
49992,-86.9565217391304,4,1,1,75,0,1
50277,-86.9565217391304,4,1,1,75,0,0
51343,-86.9565217391304,4,1,1,5,0,0
51415,-86.9565217391304,4,1,1,75,0,0
59084,-666.666666666667,4,1,1,35,0,0
59297,-666.666666666667,4,1,1,55,0,0
59510,-86.9565217391304,4,1,1,75,0,0
59723,-86.9565217391304,4,1,1,5,0,0
59794,-86.9565217391304,4,1,1,75,0,0
69328,-86.9565217391304,4,1,1,65,0,0
78428,-86.9565217391304,4,2,2,65,0,0
82685,-400,4,2,2,65,0,0
82970,-153.846153846154,4,2,2,65,0,0
87520,-100,4,1,1,65,0,0
95491,276.497695852535,4,1,1,65,1,0
95491,-100,4,1,1,75,0,0
96596,363.636363636364,4,1,1,75,1,0
96777,284.36018957346,4,1,1,65,1,0
96777,-133.333333333333,4,1,1,50,0,0
105159,-133.333333333333,4,1,1,40,0,0
105301,-133.333333333333,4,1,1,50,0,0
105443,-133.333333333333,4,1,1,60,0,0
105585,-133.333333333333,4,1,1,65,0,0
105734,-86.9565217391304,4,1,1,75,0,1
106018,-86.9565217391304,4,1,1,75,0,0
107076,-86.9565217391304,4,1,1,5,0,0
107147,-86.9565217391304,4,1,1,75,0,0
114824,-400,4,1,1,35,0,0
115038,-400,4,1,1,55,0,0
115251,-86.9565217391304,4,1,1,75,0,0
115464,-86.9565217391304,4,1,1,5,0,0
115538,-86.9565217391304,4,1,1,75,0,0
124209,-86.9565217391304,4,1,1,65,0,0
134161,-153.846153846153,4,1,1,50,0,0
143261,-153.846153846153,4,1,1,60,0,0
151222,-86.9565217391304,4,1,1,65,0,0
152369,-86.9565217391304,4,1,1,75,0,1
161468,-90.9090909090909,4,1,1,75,0,0
161744,-86.9565217391304,4,1,1,75,0,0
162179,-86.9565217391304,4,1,1,75,0,1
168293,-86.9565217391304,4,1,1,75,0,0
172124,-86.9565217391304,4,1,1,55,0,0
172843,-86.9565217391304,4,1,1,70,0,1
173127,-86.9565217391304,4,1,1,70,0,0
173980,272.727272727273,4,1,1,70,1,0
173980,-86.9565217391303,4,1,1,70,0,0
174389,291.26213592233,4,1,1,70,1,0
175117,-86.9565217391303,4,1,1,70,0,0
175118,272.727272727273,4,1,1,70,1,0
175118,-86.9565217391303,4,1,1,70,0,0
175663,281.69014084507,4,1,1,70,1,0
175663,-86.9565217391303,4,1,1,70,0,0
175944,287.081339712919,4,1,1,70,1,0
176231,315.789473684211,4,1,1,70,1,0
176231,-86.9565217391303,4,1,1,70,0,0
176546,272.727272727273,4,1,1,70,1,0
176818,292.682926829268,4,1,1,70,1,0
176818,-86.9565217391303,4,1,1,70,0,0
177403,-400,4,1,1,35,0,0
177622,264.31718061674,4,1,1,35,1,0
177669,-400,4,1,1,55,0,0
177819,284.36018957346,4,1,1,70,1,1
177819,-86.9565217391304,4,1,1,70,0,1
178023,-86.9565217391304,4,1,1,5,0,1
178103,-86.9565217391304,4,1,1,70,0,0
178672,284.36018957346,4,1,1,70,1,0
178672,-86.9565217391303,4,1,1,70,0,0
183500,-86.9565217391304,4,1,1,30,0,0
183784,-86.9565217391304,4,1,1,50,0,0
183926,-86.9565217391304,4,1,1,60,0,0
184069,-86.9565217391304,4,1,1,70,0,0
184217,-86.9565217391304,4,1,1,80,0,1
185561,-86.9565217391304,4,1,1,5,0,1
185633,-86.9565217391304,4,1,1,80,0,1
187836,-86.9565217391304,4,1,1,5,0,1
187907,-86.9565217391304,4,1,1,80,0,1
193316,-400,4,1,1,35,0,0
193529,-400,4,1,1,55,0,0
193743,-80,4,1,1,80,0,1
196936,-80,4,1,1,5,0,1
197007,-80,4,1,1,80,0,1
200141,-80,4,1,1,80,0,0
201420,277.777777777778,4,1,1,60,1,0
201420,-80,4,1,1,60,0,0
202531,298.06259314456,4,1,1,60,1,0
203127,284.36018957346,4,1,1,60,1,0
203127,-80,4,1,1,70,0,0
203553,-86.9565217391304,4,1,1,70,0,1
203695,284.36018957346,4,1,1,70,1,0
203837,-86.9565217391304,4,1,1,70,0,0
217202,266.666666666667,4,1,1,70,1,1
217202,-86.9565217391304,4,1,1,70,0,1
217335,266.666666666667,4,1,1,70,1,1
217601,284.36018957346,4,1,1,70,1,1
217601,-86.9565217391304,4,1,1,70,0,1
218454,284.36018957346,4,1,1,70,1,1
218454,-86.9565217391303,4,1,1,70,0,1
220302,315.789473684211,4,1,1,70,1,1
220617,279.06976744186,4,1,1,70,1,1
220756,279.06976744186,4,1,1,70,1,1
221732,-86.9565217391304,4,1,1,70,0,0
222889,284.36018957346,4,1,1,70,1,0
223031,284.36018957346,4,1,1,70,1,0
224594,-86.9565217391303,4,1,1,70,0,0

[Colours]
Combo1 : 60,198,26
Combo2 : 0,236,236
Combo3 : 217,215,215
Combo4 : 254,1,108

[HitObjects]
259,271,1093,5,10,0:0:0:0:
259,271,2231,5,10,0:0:0:0:
241,106,2515,1,10,0:0:0:0:
241,106,5643,6,0,L|260:276,1,165,10|10,0:0|0:0,0:0:0:0:
259,269,7918,5,10,0:0:0:0:
241,106,8202,1,10,0:0:0:0:
259,269,9055,5,4,0:0:0:0:
256,192,9126,12,10,11036,0:0:0:0:
471,63,11320,6,0,P|412:87|291:69,1,165,6|0,0:0|3:0,0:0:0:0:
169,18,11746,2,0,L|162:136,1,82.5,8|0,0:0|0:0,0:0:0:0:
260,123,12030,1,4,0:3:0:0:
90,83,12172,1,2,3:2:0:0:
90,83,12243,1,2,3:2:0:0:
90,83,12315,1,8,0:0:0:0:
260,123,12457,5,2,0:0:0:0:
206,262,12599,2,0,P|113:278|25:249,1,165,2|8,1:2|0:0,0:0:0:0:
206,262,13168,1,2,0:0:0:0:
305,358,13310,2,0,L|301:275,1,82.5,2|8,0:0|0:0,0:0:0:0:
352,158,13594,6,0,B|352:205|352:205|389:260|389:260|389:338,1,165,6|0,0:0|3:0,0:0:0:0:
472,190,14021,2,0,L|463:15,1,165,8|4,0:0|0:3,0:0:0:0:
352,158,14447,1,2,1:2:0:0:
352,158,14518,1,2,1:2:0:0:
352,158,14589,1,8,0:0:0:0:
264,53,14732,6,0,L|156:46,2,82.5,2|2|2,0:0|0:2|0:0,0:0:0:0:
145,122,15158,2,0,L|38:118,1,82.5,8|2,0:0|0:2,0:0:0:0:
0,220,15443,1,4,0:3:0:0:
62,118,15585,1,4,0:3:0:0:
137,219,15727,1,8,0:0:0:0:
256,141,15869,6,0,B|75:140,1,165,6|0,0:0|3:0,0:0:0:0:
181,228,16296,2,0,L|289:227,1,82.5,8|0,0:0|0:0,0:0:0:0:
328,115,16580,1,4,0:3:0:0:
282,312,16722,1,2,3:2:0:0:
282,312,16793,1,2,3:2:0:0:
282,312,16864,1,8,0:0:0:0:
328,115,17007,5,2,0:0:0:0:
415,202,17149,2,0,P|434:290|405:365,1,165,2|8,1:2|0:0,0:0:0:0:
415,202,17717,1,2,0:0:0:0:
327,114,17860,2,0,L|410:118,1,82.5,2|8,0:0|0:0,0:0:0:0:
260,65,18144,2,0,B|207:65|207:65|155:102|155:102|84:103,1,165,6|0,0:0|3:0,0:0:0:0:
37,253,18571,2,0,L|37:158,1,82.5,8|0,0:0|0:0,0:0:0:0:
1,32,18855,1,4,0:3:0:0:
106,102,18997,1,2,1:2:0:0:
106,102,19068,1,2,1:2:0:0:
106,102,19139,1,8,0:0:0:0:
251,146,19281,6,0,L|136:135,1,82.5,2|2,0:0|0:2,0:0:0:0:
252,41,19566,2,0,L|351:36,1,82.5,2|8,0:0|0:0,0:0:0:0:
481,126,19850,1,2,0:2:0:0:
432,32,19992,1,4,0:3:0:0:
330,79,20134,1,4,0:3:0:0:
384,177,20277,1,8,0:0:0:0:
432,32,20419,5,14,0:0:0:0:
432,32,21556,5,14,0:0:0:0:
367,207,21841,1,14,0:0:0:0:
367,207,22267,5,8,0:0:0:0:
259,140,22409,1,8,0:0:0:0:
87,242,22552,1,8,0:0:0:0:
175,96,22694,5,2,0:0:0:0:
185,127,26817,5,4,0:3:0:0:
256,277,26959,1,2,0:0:0:0:
256,277,27030,1,0,3:0:0:0:
256,277,27101,1,2,0:0:0:0:
185,127,27243,2,0,L|185:234,1,82.5,14|0,0:0|0:0,0:0:0:0:
84,115,27528,2,0,L|85:29,1,82.5,10|0,0:0|0:0,0:0:0:0:
84,115,29518,6,0,L|176:114,1,82.5,14|0,0:0|0:0,0:0:0:0:
82,218,29803,2,0,L|-8:218,1,82.5,10|0,0:0|0:0,0:0:0:0:
0,218,30656,6,0,P|8:256|53:312,1,82.5,12|0,0:0|0:0,0:0:0:0:
177,170,30940,2,0,P|177:121|161:79,1,82.5,4|10,0:3|0:0,0:0:0:0:
346,139,31225,1,4,0:3:0:0:
166,89,31367,1,10,0:0:0:0:
222,271,31509,1,4,0:0:0:0:
222,271,31580,1,4,3:0:0:0:
222,271,31651,1,4,3:0:0:0:
222,271,31722,1,4,3:0:0:0:
222,271,31793,6,0,B|283:253|301:309|367:308|406:283,1,165,6|0,0:0|3:0,0:0:0:0:
479,224,32220,2,0,L|376:215,1,82.5,8|0,0:0|0:0,0:0:0:0:
447,107,32504,1,4,0:3:0:0:
479,223,32646,1,2,3:2:0:0:
479,223,32717,1,2,3:2:0:0:
479,223,32789,1,8,0:0:0:0:
352,180,32931,6,0,L|338:-3,1,165,2|2,0:0|0:0,0:0:0:0:
244,73,33357,2,0,L|254:166,1,82.5,8|0,0:0|0:0,0:0:0:0:
172,255,33642,2,0,L|163:140,1,82.5,2|2,0:0|0:0,0:0:0:0:
57,159,33926,1,8,0:0:0:0:
172,255,34068,6,0,P|239:232|350:276,1,165,6|0,0:0|3:0,0:0:0:0:
434,336,34495,2,0,L|340:333,1,82.5,8|0,0:0|0:0,0:0:0:0:
413,250,34779,1,4,0:3:0:0:
351,333,34921,1,2,1:2:0:0:
351,333,34992,1,2,1:2:0:0:
351,333,35063,1,8,0:0:0:0:
257,276,35206,6,0,L|259:102,1,165,2|2,0:0|0:0,0:0:0:0:
141,84,35632,2,0,L|58:86,1,82.5,8|2,0:0|0:2,0:0:0:0:
156,10,35916,1,4,0:3:0:0:
161,156,36059,1,4,0:3:0:0:
44,91,36201,1,8,0:0:0:0:
161,156,36343,6,0,L|344:128,1,165,6|0,0:0|3:0,0:0:0:0:
439,102,36770,2,0,P|440:61|428:13,1,82.5,8|0,0:0|0:0,0:0:0:0:
318,24,37054,1,4,0:3:0:0:
324,131,37196,1,2,3:2:0:0:
324,131,37267,1,2,3:2:0:0:
324,131,37338,1,8,0:0:0:0:
458,212,37480,6,0,B|411:190|411:190|268:190,1,165,2|2,0:0|0:0,0:0:0:0:
196,114,37907,2,0,L|204:214,1,82.5,8|0,0:0|0:0,0:0:0:0:
113,272,38191,2,0,L|116:182,1,82.5,2|2,0:0|0:0,0:0:0:0:
36,310,38476,1,8,0:0:0:0:
115,189,38618,6,0,P|194:201|246:106,1,165,6|0,0:0|3:0,0:0:0:0:
329,65,39044,2,0,L|348:164,1,82.5,8|0,0:0|0:0,0:0:0:0:
435,77,39329,1,4,0:3:0:0:
344,146,39471,1,2,1:2:0:0:
344,146,39542,1,2,1:2:0:0:
344,146,39613,1,8,0:0:0:0:
477,199,39755,6,0,L|406:132,1,82.5,2|2,0:0|0:2,0:0:0:0:
380,253,40040,1,2,0:0:0:0:
476,193,40182,1,8,0:0:0:0:
435,77,40324,1,2,0:2:0:0:
310,135,40466,1,4,0:3:0:0:
200,78,40608,1,4,0:3:0:0:
209,199,40751,1,8,0:0:0:0:
310,135,40893,1,2,0:0:0:0:
292,33,41035,5,4,1:0:0:0:
292,33,41462,1,2,0:0:0:0:
292,33,41604,2,0,L|296:169,1,123.750004720688,0|2,1:0|0:0,0:0:0:0:
336,247,42030,2,0,P|290:232|206:254,1,123.750004720688,2|0,0:0|1:0,0:0:0:0:
149,293,42457,2,0,L|81:293,1,61.875002360344,0|2,0:0|0:0,0:0:0:0:
71,292,42670,1,2,0:0:0:0:
55,266,42741,2,0,L|56:189,1,61.875002360344,0|0,1:0|1:0,0:0:0:0:
37,40,43168,1,0,1:0:0:0:
37,40,43310,2,0,L|109:40,1,61.875002360344,4|0,3:0|1:0,0:0:0:0:
259,0,43736,1,2,0:0:0:0:
259,0,43879,2,0,L|344:0,1,61.875002360344,0|0,1:0|0:0,0:0:0:0:
483,124,44305,1,0,1:0:0:0:
483,124,44447,2,0,L|411:124,1,61.875002360344,2|2,0:0|0:0,0:0:0:0:
361,174,44732,2,0,L|272:173,1,61.875002360344,0|0,1:0|0:0,0:0:0:0:
288,184,44945,1,0,1:0:0:0:
278,197,45016,1,0,1:0:0:0:
234,260,45158,2,0,P|185:249|103:266,1,123.750004720688,8|0,0:3|0:0,0:0:0:0:
28,192,45585,5,12,0:0:0:0:
28,192,47575,5,12,0:3:0:0:
28,192,47860,5,14,0:0:0:0:
176,100,48002,2,0,L|116:100,1,45.3750013847352,8|2,0:0|0:0,0:0:0:0:
64,228,48286,5,10,0:0:0:0:
246,84,48428,2,0,L|179:84,1,45.3750013847352,8|2,0:0|0:0,0:0:0:0:
111,258,48713,5,10,0:0:0:0:
312,76,48855,2,0,L|255:76,1,45.3750013847352,8|2,0:0|0:0,0:0:0:0:
156,287,49139,5,10,0:0:0:0:
367,57,49281,2,0,L|302:57,1,45.3750013847352,8|0,0:0|0:0,0:0:0:0:
321,57,49992,6,0,P|287:107|356:213,1,189.750003619194,4|2,0:0|2:3,0:0:0:0:
485,143,50419,2,0,L|377:153,1,94.8750018095971,8|0,0:0|0:0,0:0:0:0:
248,203,50703,2,0,L|374:211,1,94.8750018095971,2|0,0:0|0:0,0:0:0:0:
165,141,50988,1,8,0:0:0:0:
114,337,51130,6,0,B|119:289|119:289|102:234|102:234|108:168,1,142.312502714396,2|0,2:0|0:0,0:0:0:0:
44,113,51414,2,0,P|30:144|25:220,1,94.8750018095971,4|8,2:3|0:0,0:0:0:0:
114,337,51698,1,2,3:0:0:0:
189,219,51841,1,4,0:3:0:0:
23,204,51983,1,0,3:0:0:0:
167,77,52125,1,8,0:0:0:0:
23,204,52267,6,0,P|87:174|198:232,1,189.750003619194,2|2,0:0|2:3,0:0:0:0:
264,349,52694,2,0,P|269:304|262:245,1,94.8750018095971,8|0,0:0|0:0,0:0:0:0:
372,131,52978,2,0,L|354:225,1,94.8750018095971,2|0,0:0|0:0,0:0:0:0:
468,340,53262,1,8,0:0:0:0:
354,224,53405,6,0,B|260:257,1,94.8750018095971,2|2,2:0|0:0,0:0:0:0:
372,131,53689,1,4,2:3:0:0:
414,277,53831,1,8,0:0:0:0:
264,255,53973,1,2,3:0:0:0:
280,163,54116,2,0,L|374:240,1,94.8750018095971,4|2,0:3|1:0,0:0:0:0:
205,106,54400,1,8,0:0:0:0:
414,277,54542,6,0,P|398:198|481:125,1,189.750003619194,4|2,0:0|2:3,0:0:0:0:
298,90,54969,2,0,L|177:110,1,94.8750018095971,8|0,0:0|0:0,0:0:0:0:
376,142,55253,2,0,L|494:123,1,94.8750018095971,2|0,0:0|0:0,0:0:0:0:
298,90,55537,1,8,0:0:0:0:
243,286,55680,6,0,B|237:219|237:219|210:178|210:178|203:92,1,189.750003619194,6|4,1:0|2:3,0:0:0:0:
84,0,56106,2,0,L|97:117,1,94.8750018095971,8|2,0:0|3:0,0:0:0:0:
29,240,56390,2,0,L|35:124,1,94.8750018095971,4|2,0:3|1:0,0:0:0:0:
209,101,56675,1,8,0:0:0:0:
56,284,56817,6,0,B|63:213|63:213|44:151|44:151|51:87,1,189.750003619194,4|2,0:0|1:0,0:0:0:0:
214,7,57243,2,0,L|208:115,1,94.8750018095971,8|2,0:0|0:0,0:0:0:0:
368,135,57528,1,2,0:0:0:0:
214,7,57670,1,2,0:0:0:0:
132,193,57812,1,8,0:0:0:0:
389,103,57954,6,0,P|334:104|316:-14,1,189.750003619194,6|4,1:0|2:3,0:0:0:0:
436,162,58381,2,0,L|439:286,1,94.8750018095971,8|2,0:0|3:0,0:0:0:0:
480,60,58665,1,4,0:3:0:0:
422,290,58807,1,0,3:0:0:0:
370,290,58879,1,8,0:0:0:0:
316,291,58950,1,8,0:0:0:0:
265,291,59021,1,8,0:0:0:0:
210,346,59092,6,0,L|189:345,1,18.5624994335175,6|2,0:0|0:2,0:0:0:0:
177,344,59376,1,6,3:0:0:0:
162,344,59447,1,6,3:0:0:0:
86,318,59518,6,0,L|63:157,1,142.312502714396,6|0,0:0|0:0,0:0:0:0:
141,55,59803,2,0,L|147:153,1,94.8750018095971,2|2,0:0|2:0,0:0:0:0:
246,0,60087,1,8,0:0:0:0:
146,149,60229,6,0,L|45:149,1,94.8750018095971,2|2,2:0|0:0,0:0:0:0:
194,236,60514,2,0,L|319:226,1,94.8750018095971,4|8,2:3|0:0,0:0:0:0:
469,181,60798,1,2,3:0:0:0:
288,228,60940,1,4,0:3:0:0:
344,97,61082,1,0,3:0:0:0:
400,308,61225,1,8,0:0:0:0:
290,95,61367,6,0,L|520:64,1,189.750003619194,2|2,0:0|2:3,0:0:0:0:
250,29,61793,2,0,L|131:32,1,94.8750018095971,8|0,0:0|0:0,0:0:0:0:
44,154,62078,2,0,L|53:31,1,94.8750018095971,2|0,0:0|0:0,0:0:0:0:
197,143,62362,1,8,0:0:0:0:
16,303,62504,6,0,P|-18:248|57:151,1,189.750003619194,6|4,2:0|2:3,0:0:0:0:
246,143,62931,2,0,L|139:140,1,94.8750018095971,8|2,0:0|3:0,0:0:0:0:
302,237,63215,1,4,0:3:0:0:
221,63,63357,1,2,1:0:0:0:
43,153,63499,1,8,0:0:0:0:
302,237,63642,6,0,B|271:165|271:165|286:22,1,189.750003619194,4|2,0:0|1:0,0:0:0:0:
494,40,64068,2,0,L|374:44,1,94.8750018095971,8|2,0:0|0:0,0:0:0:0:
213,144,64352,2,0,L|322:140,1,94.8750018095971,8|2,0:0|0:0,0:0:0:0:
86,114,64637,1,8,0:0:0:0:
266,304,64779,6,0,P|248:234|344:127,1,189.750003619194,4|4,0:0|2:3,0:0:0:0:
324,368,65206,2,0,P|341:329|316:239,1,94.8750018095971,8|2,0:0|0:0,0:0:0:0:
267,70,65490,1,4,0:3:0:0:
11,192,65632,1,8,0:0:0:0:
60,192,65703,1,8,0:0:0:0:
112,193,65774,1,8,0:0:0:0:
170,192,65845,1,2,2:0:0:0:
249,192,65916,5,2,0:0:0:0:
249,192,67054,6,0,L|241:293,1,94.8750018095971,14|0,0:0|0:0,0:0:0:0:
361,169,67338,2,0,L|352:51,1,94.8750018095971,2|8,0:0|0:0,0:0:0:0:
185,81,67623,1,2,0:0:0:0:
411,220,67765,1,8,0:0:0:0:
163,225,67907,1,8,0:0:0:0:
353,74,68049,1,8,0:0:0:0:
79,149,68191,5,12,0:0:0:0:
79,149,68476,2,0,L|88:220,3,47.4375009047985,2|2|10|4,0:0|0:0|0:0|0:3,0:0:0:0:
97,229,68760,5,12,0:3:0:0:
106,240,68831,1,4,0:3:0:0:
118,255,68902,1,8,0:3:0:0:
129,269,68973,1,8,0:3:0:0:
220,292,69044,5,8,0:3:0:0:
208,309,69116,1,8,0:3:0:0:
194,326,69187,1,8,0:0:0:0:
79,149,69329,5,6,0:0:0:0:
256,26,78428,5,4,3:0:0:0:
251,39,80703,5,0,3:0:0:0:
198,77,82552,5,2,2:0:0:0:
198,77,82694,2,0,L|189:94,1,10.3125,2|0,0:0|0:0,0:0:0:0:
182,108,82836,1,2,0:3:0:0:
177,120,82907,1,2,0:3:0:0:
165,140,82978,6,0,L|182:252,1,107.249995090485,6|2,3:2|0:0,0:0:0:0:
269,203,83405,2,0,L|257:135,1,53.6249975452424,0|0,1:0|3:0,0:0:0:0:
326,91,83689,2,0,L|353:198,1,107.249995090485,2|2,0:0|0:3,0:0:0:0:
351,210,84044,1,2,0:3:0:0:
350,230,84116,2,0,L|365:296,1,53.6249975452424,6|0,3:2|3:0,0:0:0:0:
302,354,84400,1,2,0:0:0:0:
302,354,84542,2,0,L|234:362,1,53.6249975452424,0|0,1:0|3:0,0:0:0:0:
154,290,84826,2,0,L|262:283,1,107.249995090485,0|2,1:0|0:3,0:0:0:0:
275,281,85182,1,2,0:3:0:0:
291,274,85253,2,0,L|406:266,1,107.249995090485,6|2,3:2|0:0,0:0:0:0:
462,180,85680,2,0,L|388:183,1,53.6249975452424,0|0,1:0|3:0,0:0:0:0:
291,125,85964,1,2,0:0:0:0:
291,125,86106,2,0,L|356:122,1,53.6249975452424,0|2,1:0|0:3,0:0:0:0:
169,61,86390,5,2,3:2:0:0:
407,192,86675,1,2,3:0:0:0:
221,197,86817,1,0,1:0:0:0:
317,64,86959,1,0,3:0:0:0:
319,283,87101,1,0,1:0:0:0:
136,192,87243,1,12,0:3:0:0:
317,64,87386,1,0,1:0:0:0:
317,64,87457,1,0,1:0:0:0:
317,64,87528,6,0,B|376:92|397:44|447:39|512:65,1,165,6|0,0:0|3:0,0:0:0:0:
381,159,87954,2,0,L|275:149,1,82.5,8|0,0:0|0:0,0:0:0:0:
334,256,88239,1,4,0:3:0:0:
381,159,88381,1,2,3:2:0:0:
381,159,88452,1,2,3:2:0:0:
381,159,88523,1,8,0:0:0:0:
467,213,88665,6,0,B|469:266|469:266|439:308|439:308|442:388,1,165,2|2,0:0|0:0,0:0:0:0:
326,341,89092,2,0,L|243:341,1,82.5,8|0,0:0|0:0,0:0:0:0:
146,267,89376,2,0,L|233:269,1,82.5,2|2,0:0|0:0,0:0:0:0:
188,169,89661,1,8,0:0:0:0:
146,267,89803,6,0,P|90:284|90:381,1,165,6|0,0:0|3:0,0:0:0:0:
183,347,90229,2,0,L|289:347,1,82.5,8|0,0:0|0:0,0:0:0:0:
219,233,90514,1,4,0:3:0:0:
183,347,90656,1,2,1:2:0:0:
183,347,90727,1,2,1:2:0:0:
183,347,90798,1,8,0:0:0:0:
339,346,90940,6,0,L|311:181,1,165,2|2,0:0|0:0,0:0:0:0:
398,74,91367,2,0,L|399:168,1,82.5,8|2,0:0|0:2,0:0:0:0:
478,31,91651,1,4,0:3:0:0:
296,38,91793,1,4,0:3:0:0:
398,156,91935,1,8,0:0:0:0:
296,38,92078,6,0,B|237:35|237:35|191:62|191:62|110:61,1,165,6|0,0:0|3:0,0:0:0:0:
49,141,92504,2,0,L|150:140,1,82.5,8|0,0:0|0:0,0:0:0:0:
39,221,92789,1,4,0:3:0:0:
131,140,92931,1,2,3:2:0:0:
131,140,93002,1,2,3:2:0:0:
131,140,93073,1,8,0:0:0:0:
276,195,93215,6,0,L|100:195,1,165,2|2,0:0|0:0,0:0:0:0:
215,93,93642,2,0,L|319:91,1,82.5,8|0,0:0|0:0,0:0:0:0:
407,162,93926,2,0,P|416:202|417:250,1,82.5,2|2,0:0|0:0,0:0:0:0:
485,336,94210,1,8,0:0:0:0:
346,262,94352,6,0,L|167:275,1,165,6|0,0:0|3:0,0:0:0:0:
74,194,94779,2,0,L|76:89,1,82.5,8|0,0:0|0:0,0:0:0:0:
189,169,95063,1,4,0:3:0:0:
76,112,95206,1,2,1:2:0:0:
76,112,95277,1,2,1:2:0:0:
76,112,95348,1,8,0:0:0:0:
368,65,95490,5,2,0:0:0:0:
368,65,95767,1,10,0:0:0:0:
389,238,95974,1,10,0:0:0:0:
211,131,96182,1,10,0:3:0:0:
340,150,96389,1,4,0:3:0:0:
368,65,96596,1,6,0:3:0:0:
276,204,96777,5,6,1:0:0:0:
276,204,97203,1,2,0:0:0:0:
276,204,97345,2,0,L|129:198,1,123.750004720688,8|2,1:0|0:0,0:0:0:0:
70,239,97772,2,0,P|55:185|69:120,1,123.750004720688,2|8,0:0|1:0,0:0:0:0:
218,71,98340,1,2,0:0:0:0:
218,71,98412,1,2,0:0:0:0:
218,71,98483,2,0,L|296:70,1,61.875002360344,8|8,1:0|1:0,0:0:0:0:
357,74,98767,2,0,L|360:162,1,61.875002360344,0|8,0:0|1:0,0:0:0:0:
432,190,99051,6,0,P|454:243|429:324,1,123.750004720688,4|0,3:0|0:0,0:0:0:0:
366,334,99478,1,2,0:0:0:0:
366,334,99549,1,2,0:0:0:0:
366,334,99620,2,0,L|282:335,1,61.875002360344,8|0,1:0|0:0,0:0:0:0:
245,261,99904,2,0,L|311:260,1,61.875002360344,8|0,0:0|1:0,0:0:0:0:
230,188,100189,2,0,L|96:187,1,123.750004720688,2|0,2:0|1:0,0:0:0:0:
199,111,100615,1,0,0:0:0:0:
216,111,100686,1,0,1:0:0:0:
227,111,100758,1,0,1:0:0:0:
253,126,100852,1,0,0:0:0:0:
280,127,100947,1,8,0:3:0:0:
306,127,101042,1,12,0:3:0:0:
339,127,101137,1,12,0:3:0:0:
368,126,101231,1,2,0:0:0:0:
413,111,101326,5,8,0:0:0:0:
413,111,103317,5,12,0:3:0:0:
413,111,103601,5,14,0:0:0:0:
230,57,103743,2,0,L|151:57,1,61.875002360344,8|2,0:0|0:0,0:0:0:0:
156,55,103957,1,0,3:0:0:0:
139,55,104028,5,10,0:0:0:0:
292,165,104170,2,0,L|371:168,1,61.875002360344,8|2,0:0|0:0,0:0:0:0:
371,168,104383,1,0,3:0:0:0:
387,168,104454,5,10,0:0:0:0:
175,246,104596,2,0,L|110:246,1,61.875002360344,8|2,0:0|0:0,0:0:0:0:
98,246,104810,1,0,3:0:0:0:
80,246,104881,5,10,0:0:0:0:
298,340,105023,2,0,L|388:342,1,61.875002360344,8|2,0:0|2:0,0:0:0:0:
397,331,105236,1,2,2:0:0:0:
425,290,105307,5,2,2:0:0:0:
431,243,105378,1,2,2:0:0:0:
414,194,105449,1,2,2:0:0:0:
368,163,105521,1,2,2:0:0:0:
318,161,105592,1,2,2:0:0:0:
273,182,105663,1,2,2:0:0:0:
239,249,105734,6,0,P|242:192|125:163,1,189.750003619194,4|2,0:0|2:3,0:0:0:0:
0,232,106160,2,0,L|101:233,1,94.8750018095971,8|0,0:0|0:0,0:0:0:0:
226,137,106445,2,0,L|105:161,1,94.8750018095971,2|0,0:0|0:0,0:0:0:0:
285,77,106729,1,8,0:0:0:0:
247,275,106871,6,0,B|247:198|247:198|223:130,1,142.312502714396,2|0,2:0|0:0,0:0:0:0:
147,243,107156,2,0,L|152:355,1,94.8750018095971,4|8,2:3|0:0,0:0:0:0:
292,277,107440,1,2,3:0:0:0:
225,136,107582,1,4,0:3:0:0:
59,228,107724,1,0,3:0:0:0:
85,53,107867,1,8,0:0:0:0:
225,136,108009,6,0,P|311:134|373:242,1,189.750003619194,2|2,0:0|2:3,0:0:0:0:
500,281,108435,2,0,P|450:289|394:279,1,94.8750018095971,8|0,0:0|0:0,0:0:0:0:
373,114,108720,2,0,L|371:235,1,94.8750018095971,2|0,0:0|0:0,0:0:0:0:
461,55,109004,1,8,0:0:0:0:
371,208,109146,6,0,L|256:201,1,94.8750018095971,2|2,2:0|0:0,0:0:0:0:
80,54,109431,1,4,2:3:0:0:
247,127,109573,1,8,0:0:0:0:
68,193,109715,1,2,3:0:0:0:
247,127,109857,2,0,L|131:125,1,94.8750018095971,4|2,0:3|1:0,0:0:0:0:
315,57,110141,1,8,0:0:0:0:
403,193,110284,6,0,B|319:190|319:190|282:157|282:157|201:156,1,189.750003619194,4|2,0:0|2:3,0:0:0:0:
102,232,110710,2,0,L|99:345,1,94.8750018095971,8|0,0:0|0:0,0:0:0:0:
190,189,110995,2,0,L|192:83,1,94.8750018095971,2|0,0:0|0:0,0:0:0:0:
102,232,111279,1,8,0:0:0:0:
269,192,111421,6,0,P|317:227|437:193,1,189.750003619194,6|4,1:0|2:3,0:0:0:0:
286,93,111848,2,0,L|174:94,1,94.8750018095971,8|2,0:0|3:0,0:0:0:0:
269,286,112132,2,0,L|269:188,1,94.8750018095971,4|2,0:3|1:0,0:0:0:0:
390,81,112416,1,8,0:0:0:0:
230,300,112558,6,0,B|230:222|230:222|254:177|254:177|256:115,1,189.750003619194,4|2,0:0|1:0,0:0:0:0:
144,4,112985,2,0,L|145:118,1,94.8750018095971,8|2,0:0|0:0,0:0:0:0:
335,130,113269,1,2,0:0:0:0:
144,98,113412,1,2,0:0:0:0:
207,269,113554,1,8,0:0:0:0:
335,130,113696,6,0,B|392:130|392:130|466:103|443:21,1,189.750003619194,6|4,1:0|2:3,0:0:0:0:
220,55,114122,2,0,L|339:54,1,94.8750018095971,8|2,0:0|3:0,0:0:0:0:
106,14,114407,1,4,0:3:0:0:
355,52,114549,5,0,3:0:0:0:
355,95,114620,1,8,0:0:0:0:
354,139,114691,1,8,0:0:0:0:
354,177,114762,1,8,0:0:0:0:
406,232,114833,6,0,L|406:262,1,30.9375,6|2,0:0|0:2,0:0:0:0:
406,282,115118,1,6,3:0:0:0:
406,300,115189,1,6,3:0:0:0:
368,361,115260,6,0,P|303:347|206:374,1,142.312502714396,6|0,0:0|0:0,0:0:0:0:
92,292,115544,2,0,P|139:296|200:282,1,94.8750018095971,2|2,0:0|2:0,0:0:0:0:
20,380,115829,1,8,0:0:0:0:
185,287,115971,6,0,L|177:184,1,94.8750018095971,2|2,2:0|0:0,0:0:0:0:
320,65,116255,2,0,P|307:102|322:171,1,94.8750018095971,4|8,2:3|0:0,0:0:0:0:
429,318,116540,1,2,3:0:0:0:
314,156,116682,1,4,0:3:0:0:
473,167,116824,1,0,3:0:0:0:
287,283,116966,1,8,0:0:0:0:
507,169,117108,6,0,P|465:90|512:-1,1,189.750003619194,2|2,0:0|2:3,0:0:0:0:
303,17,117535,2,0,P|347:26|421:7,1,94.8750018095971,8|0,0:0|0:0,0:0:0:0:
270,176,117819,2,0,L|270:71,1,94.8750018095971,2|0,0:0|0:0,0:0:0:0:
171,198,118104,1,8,0:0:0:0:
353,252,118246,6,0,P|298:261|256:392,1,189.750003619194,6|4,2:0|2:3,0:0:0:0:
434,326,118672,2,0,L|324:328,1,94.8750018095971,8|2,0:0|3:0,0:0:0:0:
250,162,118957,1,4,0:3:0:0:
429,302,119099,1,2,1:0:0:0:
249,374,119241,1,8,0:0:0:0:
250,162,119383,6,0,B|206:126|206:126|71:129,1,189.750003619194,4|2,0:0|1:0,0:0:0:0:
56,321,119810,2,0,L|56:219,1,94.8750018095971,8|2,0:0|0:0,0:0:0:0:
158,46,120094,1,8,0:0:0:0:
158,46,120165,1,8,0:3:0:0:
158,46,120236,1,2,0:0:0:0:
368,136,120378,1,8,0:0:0:0:
179,214,120521,6,0,P|106:178|-1:227,1,189.750003619194,4|4,0:0|2:3,0:0:0:0:
240,312,120947,2,0,P|203:334|141:323,1,94.8750018095971,8|2,0:0|0:0,0:0:0:0:
361,195,121231,1,4,0:3:0:0:
152,329,121374,5,8,0:0:0:0:
153,281,121445,1,8,0:0:0:0:
154,228,121516,1,8,0:0:0:0:
154,176,121587,1,2,2:0:0:0:
156,92,121658,5,2,0:0:0:0:
156,92,122795,6,0,L|37:97,1,94.8750018095971,14|0,0:0|0:0,0:0:0:0:
220,11,123080,2,0,L|334:9,1,94.8750018095971,2|8,0:0|0:0,0:0:0:0:
106,176,123364,1,2,0:0:0:0:
314,9,123506,1,8,0:0:0:0:
269,221,123649,1,8,0:0:0:0:
160,6,123791,1,8,0:0:0:0:
169,271,123933,5,12,0:0:0:0:
169,271,124359,6,0,L|284:272,1,94.8750018095971,12|2,0:0|0:0,0:0:0:0:
274,283,124573,1,2,3:1:0:0:
284,294,124644,1,10,0:0:0:0:
188,179,124786,1,8,0:3:0:0:
98,75,124928,1,8,0:0:0:0:
263,271,125070,5,6,0:0:0:0:
55,101,134170,6,0,L|46:42,1,53.6249975452424,4|0,0:0|0:0,0:0:0:0:
135,91,134454,2,0,L|139:154,2,53.6249975452424,0|2|0,0:0|0:0|0:0,0:0:0:0:
216,82,134881,2,0,L|224:25,2,53.6249975452424,2|0|2,0:0|0:0|0:0,0:0:0:0:
294,88,135307,1,0,0:0:0:0:
294,88,135449,2,0,L|365:90,1,53.6249975452424,2|0,0:0|0:0,0:0:0:0:
400,173,135734,1,2,0:0:0:0:
400,173,135876,2,0,L|325:170,1,53.6249975452424,0|2,0:0|1:0,0:0:0:0:
276,203,136160,1,0,0:0:0:0:
276,203,136303,2,0,P|248:250|258:304,1,107.249995090485,0|0,1:0|3:0,0:0:0:0:
331,350,136729,6,0,L|400:325,1,53.6249975452424,0|0,0:0|3:0,0:0:0:0:
461,295,137013,2,0,L|434:223,1,53.6249975452424,0|0,0:0|3:0,0:0:0:0:
380,189,137298,2,0,L|318:207,1,53.6249975452424,0|0,0:0|3:0,0:0:0:0:
246,198,137582,2,0,L|271:268,1,53.6249975452424,0|0,0:0|3:0,0:0:0:0:
180,283,137867,1,0,0:0:0:0:
180,283,138009,1,2,0:0:0:0:
149,199,138151,1,0,0:0:0:0:
149,199,138293,1,2,0:0:0:0:
230,174,138435,1,0,0:0:0:0:
230,174,138577,1,2,3:0:0:0:
264,248,138720,6,0,P|314:239|390:221,1,107.249995090485,0|0,1:0|3:0,0:0:0:0:
421,142,139146,2,0,L|361:154,1,53.6249975452424,2|0,0:0|0:0,0:0:0:0:
274,105,139431,2,0,L|344:91,1,53.6249975452424,2|0,0:0|0:0,0:0:0:0:
274,30,139715,1,2,0:0:0:0:
274,30,139857,1,0,0:0:0:0:
200,66,139999,2,0,L|131:64,1,53.6249975452424,2|0,0:0|0:0,0:0:0:0:
49,47,140284,2,0,L|79:99,1,53.6249975452424,2|0,0:0|0:0,0:0:0:0:
153,140,140568,1,2,0:0:0:0:
153,140,140710,1,0,0:0:0:0:
81,178,140852,2,0,P|76:225|114:278,1,107.249995090485,0|0,1:0|3:0,0:0:0:0:
210,339,141279,6,0,L|205:278,1,53.6249975452424,0|0,0:0|3:0,0:0:0:0:
312,218,141563,2,0,L|253:232,1,53.6249975452424,0|0,0:0|3:0,0:0:0:0:
134,172,141848,2,0,L|184:219,1,53.6249975452424,0|0,0:0|3:0,0:0:0:0:
277,211,142132,1,2,0:0:0:0:
175,188,142274,1,0,3:0:0:0:
205,285,142416,1,0,3:0:0:0:
322,293,142558,1,2,0:0:0:0:
384,198,142701,1,0,3:0:0:0:
327,108,142843,1,2,0:0:0:0:
213,108,142985,1,0,3:0:0:0:
277,211,143127,1,2,0:0:0:0:
273,33,143269,5,2,1:0:0:0:
277,211,143554,1,2,0:0:0:0:
273,33,143696,1,2,0:0:0:0:
369,121,144407,5,2,1:0:0:0:
190,122,144691,1,2,0:0:0:0:
369,121,144833,1,2,0:0:0:0:
131,295,145544,5,2,1:0:0:0:
190,122,145829,1,2,0:0:0:0:
131,295,145971,1,2,0:0:0:0:
369,121,146682,5,2,1:0:0:0:
428,294,146966,1,2,0:0:0:0:
369,121,147108,1,2,0:0:0:0:
428,294,147250,1,2,3:0:0:0:
415,299,147322,1,2,3:0:0:0:
401,302,147393,1,2,3:0:0:0:
385,307,147464,1,2,3:0:0:0:
371,311,147535,1,2,3:0:0:0:
354,316,147606,1,2,3:0:0:0:
339,320,147677,1,2,3:0:0:0:
324,324,147748,1,2,3:0:0:0:
302,329,147819,5,2,1:0:0:0:
209,143,148104,1,2,0:0:0:0:
302,328,148246,1,8,0:0:0:0:
189,111,148388,1,2,0:0:0:0:
157,124,148459,1,2,0:0:0:0:
134,142,148530,1,12,0:3:0:0:
118,171,148601,1,12,0:3:0:0:
110,204,148672,1,2,0:0:0:0:
109,233,148743,1,2,0:0:0:0:
116,267,148814,1,8,0:0:0:0:
346,129,148957,5,2,1:0:0:0:
116,267,149241,1,2,0:0:0:0:
346,129,149383,1,8,0:0:0:0:
148,128,150094,5,2,1:0:0:0:
376,277,150378,1,2,0:0:0:0:
148,128,150521,1,8,0:0:0:0:
248,26,151231,6,0,L|248:153,1,94.8750018095971,6|2,0:0|2:0,0:0:0:0:
376,188,151516,1,2,0:0:0:0:
148,128,151658,1,8,0:0:0:0:
242,309,151800,1,8,0:0:0:0:
277,68,151942,1,8,0:0:0:0:
60,157,152085,1,8,0:0:0:0:
248,117,152227,1,8,0:0:0:0:
88,318,152369,6,0,P|115:251|25:145,1,189.750003619194,14|0,0:0|3:0,0:0:0:0:
277,68,152795,2,0,L|176:92,1,94.8750018095971,2|0,0:0|0:0,0:0:0:0:
18,181,153080,2,0,L|132:189,1,94.8750018095971,2|0,0:0|3:0,0:0:0:0:
327,277,153364,1,8,0:0:0:0:
151,160,153506,1,2,0:0:0:0:
360,299,153649,5,2,0:0:0:0:
158,111,153791,1,0,3:0:0:0:
122,65,153862,1,2,2:0:0:0:
60,61,153933,1,2,0:0:0:0:
17,92,154004,1,2,2:0:0:0:
0,145,154075,1,2,2:0:0:0:
18,195,154146,1,0,3:0:0:0:
70,227,154217,1,2,0:0:0:0:
122,212,154288,1,2,2:0:0:0:
134,157,154359,1,2,3:2:0:0:
92,115,154431,1,2,0:0:0:0:
38,131,154502,1,8,0:0:0:0:
32,189,154573,1,2,0:0:0:0:
70,227,154644,6,0,P|149:199|253:265,1,189.750003619194,2|2,3:2|3:0,0:0:0:0:
465,367,155070,1,2,0:0:0:0:
419,354,155141,1,2,2:0:0:0:
387,322,155213,1,2,3:2:0:0:
373,281,155284,1,2,0:2:0:0:
375,234,155355,1,2,2:2:0:0:
396,193,155426,1,2,2:2:0:0:
433,173,155497,1,2,3:0:0:0:
471,166,155568,1,2,0:0:0:0:
512,174,155639,1,8,0:0:0:0:
332,136,155781,6,0,L|229:255,1,142.312502714396,2|0,3:0|0:0,0:0:0:0:
190,258,156066,2,0,L|261:179,1,94.8750018095971,2|8,3:0|0:0,0:0:0:0:
126,340,156350,1,0,3:0:0:0:
89,331,156421,1,2,2:0:0:0:
63,308,156492,1,8,0:0:0:0:
53,272,156563,1,8,0:0:0:0:
58,232,156634,1,2,0:0:0:0:
77,209,156705,1,2,0:0:0:0:
113,192,156777,1,8,0:0:0:0:
151,194,156848,1,2,0:0:0:0:
194,196,156919,6,0,P|213:134|121:57,1,189.750003619194,14|2,0:0|1:3,0:0:0:0:
372,61,157345,1,2,0:0:0:0:
130,56,157487,1,2,3:2:0:0:
152,63,157558,1,2,2:0:0:0:
178,67,157630,1,2,0:0:0:0:
29,163,157772,1,2,3:2:0:0:
64,171,157843,1,2,3:2:0:0:
103,180,157914,1,8,0:0:0:0:
372,61,158056,1,2,1:3:0:0:
281,338,158198,5,2,0:0:0:0:
246,335,158269,1,2,2:2:0:0:
206,316,158340,1,2,3:2:0:0:
181,274,158412,1,2,2:0:0:0:
184,218,158483,1,2,0:0:0:0:
218,169,158554,1,2,3:2:0:0:
237,118,158625,1,2,3:2:0:0:
211,62,158696,1,2,3:2:0:0:
151,52,158767,1,6,3:0:0:0:
108,90,158838,1,2,3:0:0:0:
109,146,158909,1,4,0:0:0:0:
149,185,158980,1,2,3:0:0:0:
204,185,159051,1,8,0:0:0:0:
251,145,159122,1,2,3:2:0:0:
357,80,159194,6,0,P|290:130|246:240,1,189.750003619194,14|8,0:0|0:0,0:0:0:0:
36,203,159620,1,8,0:0:0:0:
322,229,159762,1,2,0:0:0:0:
47,112,159904,1,8,0:0:0:0:
315,185,160047,1,2,0:0:0:0:
127,33,160189,1,8,0:0:0:0:
322,229,160331,6,0,L|105:219,1,189.750003619194,6|2,0:3|0:0,0:0:0:0:
307,316,160758,2,0,L|424:325,1,94.8750018095971,8|2,0:0|0:0,0:0:0:0:
225,362,161042,1,8,0:0:0:0:
225,362,161113,1,12,0:3:0:0:
225,362,161184,1,2,0:0:0:0:
385,228,161326,1,8,0:0:0:0:
218,59,161468,6,0,L|226:227,1,136.125004154205,14|0,1:0|0:0,0:0:0:0:
180,259,161753,5,6,0:3:0:0:
177,249,161824,1,2,0:3:0:0:
179,233,161895,1,8,0:0:0:0:
177,220,161966,1,2,0:3:0:0:
156,201,162037,1,2,0:3:0:0:
151,185,162108,1,2,0:3:0:0:
139,133,162179,5,2,0:0:0:0:
92,150,162250,1,2,3:2:0:0:
68,196,162322,1,2,3:2:0:0:
74,248,162393,1,2,2:0:0:0:
100,285,162464,1,8,0:0:0:0:
146,303,162535,1,2,3:2:0:0:
189,294,162606,1,2,3:2:0:0:
219,264,162677,1,2,3:2:0:0:
236,224,162748,1,2,0:0:0:0:
242,180,162819,1,2,3:2:0:0:
273,145,162890,1,2,3:2:0:0:
321,132,162961,1,2,3:2:0:0:
366,140,163032,1,2,1:0:0:0:
396,180,163104,1,2,3:2:0:0:
401,216,163175,1,2,2:0:0:0:
395,251,163246,1,2,2:0:0:0:
378,271,163317,1,2,0:0:0:0:
356,283,163388,1,2,2:0:0:0:
333,287,163459,1,2,2:0:0:0:
309,280,163530,1,2,2:0:0:0:
287,267,163601,1,8,0:0:0:0:
71,356,163743,5,2,3:0:0:0:
42,340,163814,2,0,B|64:301|66:268|54:241|26:217|26:217|41:192|25:140,1,189.750003619194,12|2,3:0|3:2,0:0:0:0:
42,127,164170,1,2,0:0:0:0:
68,110,164241,1,2,2:2:0:0:
105,107,164312,1,2,3:2:0:0:
139,129,164383,1,0,0:0:0:0:
150,168,164454,1,2,0:0:0:0:
137,206,164525,1,2,2:2:0:0:
101,224,164596,1,2,3:2:0:0:
262,60,164739,1,8,0:0:0:0:
345,264,164881,6,0,L|225:208,1,94.8750018095971,6|0,0:0|0:0,0:0:0:0:
86,137,165165,1,2,0:0:0:0:
259,223,165307,1,8,0:0:0:0:
86,26,165449,2,0,P|126:73|32:162,1,189.750003619194,2|2,0:0|0:0,0:0:0:0:
278,116,165876,1,8,0:0:0:0:
64,165,166018,6,0,L|66:284,1,94.8750018095971,14|0,1:0|0:0,0:0:0:0:
165,368,166303,1,6,0:3:0:0:
164,349,166374,1,2,0:3:0:0:
164,330,166445,1,8,0:0:0:0:
253,158,166587,1,2,0:0:0:0:
253,177,166658,1,0,0:0:0:0:
254,195,166729,1,8,0:0:0:0:
378,354,166871,1,10,0:0:0:0:
255,121,167013,1,8,0:0:0:0:
255,121,167085,1,8,0:0:0:0:
255,121,167156,6,0,P|166:144|103:68,1,189.750003619194,14|10,0:0|0:0,0:0:0:0:
107,242,167582,1,8,0:0:0:0:
208,57,167724,1,10,0:0:0:0:
10,111,167867,1,8,0:0:0:0:
239,178,168009,1,10,0:0:0:0:
65,19,168151,1,8,0:0:0:0:
392,52,168293,5,14,0:0:0:0:
392,52,172132,6,0,P|394:121|325:9,1,379.500007238388,2|6,3:0|0:3,0:0:0:0:
86,29,172843,6,0,L|194:27,1,94.8750018095971,6|0,0:0|0:0,0:0:0:0:
325,94,173127,1,0,3:0:0:0:
325,94,173198,1,2,0:0:0:0:
325,94,173269,1,10,0:0:0:0:
94,28,173483,1,2,0:0:0:0:
86,29,173554,2,0,L|115:133,1,94.8750018095971,8|2,0:0|0:0,0:0:0:0:
119,147,173767,1,2,0:0:0:0:
124,164,173838,1,8,0:0:0:0:
287,309,173980,6,0,B|265:244|265:244|220:198|220:198|200:111,1,189.750003619194,14|8,0:0|0:0,0:0:0:0:
201,123,174320,1,8,0:0:0:0:
197,101,174389,1,12,0:3:0:0:
287,344,174534,5,12,0:3:0:0:
248,366,174607,1,12,0:3:0:0:
204,368,174680,1,8,0:0:0:0:
168,352,174753,1,8,0:0:0:0:
141,314,174825,1,8,0:0:0:0:
139,268,174898,1,8,0:0:0:0:
160,231,174971,1,8,0:0:0:0:
195,213,175044,1,6,3:0:0:0:
272,199,175118,6,0,L|160:197,1,94.8750018095971,6|0,0:0|0:0,0:0:0:0:
374,270,175390,1,2,0:0:0:0:
216,107,175527,1,10,0:0:0:0:
280,269,175663,6,0,L|398:271,1,94.8750018095971,6|0,0:0|0:0,0:0:0:0:
196,320,175944,1,2,0:0:0:0:
364,152,176087,1,10,0:0:0:0:
202,320,176231,6,0,L|86:318,1,94.8750018095971,6|0,0:0|0:0,0:0:0:0:
290,371,176546,1,2,0:0:0:0:
106,208,176682,1,10,0:0:0:0:
290,371,176818,6,0,L|407:373,1,94.8750018095971,6|0,0:0|0:0,0:0:0:0:
252,150,177110,1,2,0:0:0:0:
401,347,177257,5,10,0:0:0:0:
372,347,177330,1,8,0:0:0:0:
310,309,177403,6,0,L|270:308,1,30.9375,4|0,0:3|0:0,0:0:0:0:
248,309,177688,1,2,3:0:0:0:
226,310,177754,1,6,3:0:0:0:
143,307,177819,6,0,B|146:259|146:259|125:211|125:211|131:141,1,142.312502714396,6|0,0:0|0:0,0:0:0:0:
201,67,178103,2,0,P|210:130|206:186,1,94.8750018095971,2|2,0:0|2:0,0:0:0:0:
264,0,178387,1,8,0:0:0:0:
209,161,178529,6,0,L|331:148,1,94.8750018095971,2|2,2:0|0:0,0:0:0:0:
166,240,178814,2,0,L|55:233,1,94.8750018095971,4|8,2:3|0:0,0:0:0:0:
253,315,179098,1,2,3:0:0:0:
312,124,179240,1,4,0:3:0:0:
166,240,179382,1,0,3:0:0:0:
201,67,179525,1,8,0:0:0:0:
382,165,179667,6,0,L|176:157,1,189.750003619194,2|2,0:0|2:3,0:0:0:0:
164,334,180093,2,0,L|166:224,1,94.8750018095971,8|0,0:0|0:0,0:0:0:0:
73,84,180378,2,0,P|114:92|176:86,1,94.8750018095971,2|0,0:0|0:0,0:0:0:0:
18,190,180662,1,8,0:0:0:0:
164,334,180804,6,0,P|150:239|37:229,1,189.750003619194,6|4,2:0|2:3,0:0:0:0:
164,334,181231,1,8,0:0:0:0:
230,130,181373,2,0,L|124:127,1,94.8750018095971,2|4,3:0|0:3,0:0:0:0:
282,227,181657,1,2,1:0:0:0:
183,48,181800,1,8,0:0:0:0:
282,227,181942,6,0,B|321:173|321:173|313:96|313:96|352:38,1,189.750003619194,4|2,0:0|1:0,0:0:0:0:
355,261,182368,2,0,L|287:342,1,94.8750018095971,8|2,0:0|0:0,0:0:0:0:
461,215,182653,1,8,0:0:0:0:
269,369,182795,1,2,0:0:0:0:
223,336,182866,1,8,0:0:0:0:
176,304,182937,1,8,0:0:0:0:
134,270,183008,1,4,0:3:0:0:
78,220,183079,5,6,0:0:0:0:
78,220,183506,5,2,3:0:0:0:
75,199,183577,1,2,3:2:0:0:
78,181,183648,1,2,3:2:0:0:
87,161,183719,1,2,3:2:0:0:
103,146,183790,1,8,1:0:0:0:
122,134,183861,1,2,3:0:0:0:
158,127,183932,1,8,0:1:0:0:
192,132,184003,1,8,0:1:0:0:
222,160,184074,1,8,0:1:0:0:
231,198,184146,1,8,0:1:0:0:
240,272,184217,6,0,B|294:262|294:262|328:216|328:216|364:220|433:201,1,189.750003619194,4|2,0:0|2:3,0:0:0:0:
304,342,184643,2,0,L|187:354,1,94.8750018095971,8|0,0:0|0:0,0:0:0:0:
108,208,184928,2,0,P|117:258|112:323,1,94.8750018095971,2|0,0:0|0:0,0:0:0:0:
32,151,185212,1,8,0:0:0:0:
197,87,185354,6,0,B|121:86|121:86|93:55|42:60,1,142.312502714396,2|0,2:0|0:0,0:0:0:0:
220,17,185638,2,0,L|323:12,1,94.8750018095971,4|8,2:3|0:0,0:0:0:0:
217,187,185923,1,2,3:0:0:0:
220,17,186065,1,4,0:3:0:0:
64,180,186207,1,0,3:0:0:0:
71,0,186349,1,8,0:0:0:0:
217,187,186491,6,0,B|268:182|268:182|342:227|300:336,1,189.750003619194,2|2,0:0|2:3,0:0:0:0:
143,253,186918,2,0,P|92:247|32:256,1,94.8750018095971,8|0,0:0|0:0,0:0:0:0:
56,65,187202,2,0,L|61:177,1,94.8750018095971,2|0,0:0|0:0,0:0:0:0:
254,154,187487,1,8,0:0:0:0:
106,299,187629,6,0,B|100:245|100:245|82:208|82:208|83:138,1,142.312502714396,2|0,2:0|0:0,0:0:0:0:
170,28,187913,2,0,L|160:135,1,94.8750018095971,4|8,2:3|0:0,0:0:0:0:
88,320,188198,1,2,3:0:0:0:
326,231,188340,1,4,0:3:0:0:
272,239,188411,1,8,0:0:0:0:
228,213,188482,1,2,1:0:0:0:
207,168,188553,1,2,3:0:0:0:
225,118,188624,1,8,0:0:0:0:
270,96,188695,1,8,0:0:0:0:
346,79,188766,6,0,L|144:94,1,189.750003619194,4|2,0:0|2:3,0:0:0:0:
71,206,189193,2,0,L|75:316,1,94.8750018095971,8|0,0:0|0:0,0:0:0:0:
169,187,189477,2,0,L|154:77,1,94.8750018095971,2|0,0:0|0:0,0:0:0:0:
346,79,189762,1,8,0:0:0:0:
158,234,189904,6,0,B|214:229|214:229|271:184|271:184|344:178,1,189.750003619194,6|4,1:0|2:3,0:0:0:0:
512,103,190330,2,0,P|452:111|385:101,1,94.8750018095971,8|2,0:0|3:0,0:0:0:0:
334,273,190615,2,0,P|339:221|323:151,1,94.8750018095971,4|2,0:3|1:0,0:0:0:0:
512,103,190899,1,8,0:0:0:0:
355,313,191041,6,0,B|359:258|359:258|415:242|422:207|423:180|406:138,1,189.750003619194,4|2,0:0|1:0,0:0:0:0:
324,21,191468,2,0,L|327:136,1,94.8750018095971,8|2,0:0|0:0,0:0:0:0:
129,138,191752,1,2,0:0:0:0:
249,259,191894,1,2,0:0:0:0:
327,116,192037,5,8,0:0:0:0:
153,310,192179,2,0,B|206:306|206:306|271:269|271:269|371:269,1,189.750003619194,6|4,1:0|2:3,0:0:0:0:
129,138,192605,1,8,0:0:0:0:
383,24,192747,1,2,3:0:0:0:
439,26,192819,1,8,0:0:0:0:
488,58,192890,1,4,0:3:0:0:
504,119,192961,1,4,3:0:0:0:
486,172,193032,1,0,3:0:0:0:
433,199,193103,1,8,0:0:0:0:
380,193,193174,1,8,0:0:0:0:
335,154,193245,1,8,0:0:0:0:
274,107,193316,6,0,P|250:107|241:109,1,30.9375,6|2,0:0|3:0,0:0:0:0:
226,116,193600,1,6,3:0:0:0:
213,124,193672,1,2,3:0:0:0:
164,193,193743,6,0,L|171:311,1,103.125,12|0,0:0|0:0,0:0:0:0:
382,314,194027,1,8,0:0:0:0:
170,295,194169,1,2,0:0:0:0:
335,154,194311,1,8,0:0:0:0:
170,295,194454,6,0,L|54:306,1,103.125,2|8,0:0|0:0,0:0:0:0:
257,338,194738,1,2,0:0:0:0:
106,188,194880,2,0,L|235:205,1,103.125,8|2,0:0|0:0,0:0:0:0:
424,192,195164,1,8,0:0:0:0:
214,122,195307,1,2,0:0:0:0:
263,312,195449,1,8,0:0:0:0:
424,192,195591,6,0,P|430:144|414:72,1,103.125,2|8,0:0|0:0,0:0:0:0:
214,122,195875,1,2,0:0:0:0:
400,224,196018,1,8,0:0:0:0:
198,336,196160,1,2,0:0:0:0:
214,122,196302,1,8,0:0:0:0:
43,272,196444,1,2,0:0:0:0:
241,223,196586,1,8,0:0:0:0:
17,17,196728,6,0,L|49:199,1,154.6875,14|0,0:0|0:0,0:0:0:0:
214,122,197013,2,0,L|91:121,1,103.125,2|8,0:0|0:0,0:0:0:0:
264,220,197297,2,0,P|316:213|397:233,1,103.125,2|8,0:0|0:0,0:0:0:0:
259,46,197582,1,2,0:0:0:0:
259,46,197653,1,2,0:0:0:0:
259,46,197724,1,8,0:0:0:0:
43,169,197866,6,0,B|127:187|127:187|180:306,1,206.25,12|2,0:0|0:0,0:0:0:0:
347,369,198292,2,0,L|304:256,1,103.125,8|2,0:0|0:0,0:0:0:0:
259,46,198577,2,0,L|258:172,1,103.125,8|2,0:0|0:0,0:0:0:0:
439,65,198861,1,8,0:0:0:0:
258,149,199003,6,0,B|220:165|206:202|206:202|145:172|145:172|124:207|57:213,1,206.25,4|8,0:0|0:0,0:0:0:0:
63,234,199359,1,8,0:0:0:0:
68,288,199430,1,8,0:0:0:0:
116,318,199501,1,2,3:0:0:0:
166,325,199572,1,2,0:0:0:0:
219,310,199643,1,2,0:0:0:0:
250,257,199714,1,12,0:3:0:0:
254,196,199785,1,2,3:0:0:0:
229,148,199856,1,2,0:0:0:0:
185,116,199928,1,2,0:0:0:0:
130,114,199999,1,2,0:0:0:0:
84,131,200070,1,6,3:0:0:0:
49,193,200141,5,8,0:0:0:0:
49,193,201278,6,0,L|162:206,1,103.125,14|0,0:0|0:0,0:0:0:0:
343,141,201558,2,0,L|230:144,1,103.125,2|8,0:0|0:0,0:0:0:0:
111,280,201836,1,2,0:0:0:0:
162,56,201975,1,8,0:0:0:0:
301,286,202114,1,8,0:0:0:0:
287,61,202253,1,8,0:0:0:0:
205,336,202392,5,12,0:0:0:0:
205,336,203127,5,10,0:0:0:0:
238,336,203198,1,10,0:0:0:0:
281,337,203269,1,10,0:0:0:0:
324,336,203340,1,10,0:0:0:0:
369,338,203411,1,10,0:0:0:0:
416,337,203482,1,10,0:0:0:0:
485,333,203553,6,0,P|454:242|523:158,1,189.750003619194,6|0,0:0|3:0,0:0:0:0:
366,153,203979,2,0,L|249:148,1,94.8750018095971,8|0,0:0|0:0,0:0:0:0:
216,45,204263,1,4,0:3:0:0:
382,83,204405,1,2,3:2:0:0:
382,83,204476,1,2,3:2:0:0:
382,83,204548,1,8,0:0:0:0:
285,197,204690,5,6,0:0:0:0:
193,116,204832,2,0,L|-4:127,1,189.750003619194,2|8,1:2|0:0,0:0:0:0:
222,154,205401,1,2,0:0:0:0:
308,233,205543,2,0,L|317:345,1,94.8750018095971,2|8,0:0|0:0,0:0:0:0:
209,237,205827,6,0,B|148:239|148:239|102:278|102:278|30:282,1,189.750003619194,6|0,0:0|3:0,0:0:0:0:
97,180,206254,1,8,0:0:0:0:
33,281,206396,2,0,L|26:380,1,94.8750018095971,0|4,0:0|0:3,0:0:0:0:
150,364,206680,1,2,1:2:0:0:
150,364,206751,1,2,1:2:0:0:
150,364,206822,1,8,0:0:0:0:
209,237,206965,6,0,L|199:133,1,94.8750018095971,6|2,0:0|0:2,0:0:0:0:
299,44,207249,2,0,L|308:160,1,94.8750018095971,2|8,0:0|0:0,0:0:0:0:
467,19,207533,1,2,0:2:0:0:
299,44,207676,1,4,0:3:0:0:
299,44,207747,1,8,0:3:0:0:
299,44,207818,1,4,0:3:0:0:
441,165,207960,1,8,0:0:0:0:
299,44,208102,6,0,P|215:45|192:142,1,189.750003619194,6|0,0:0|3:0,0:0:0:0:
98,210,208529,2,0,L|219:210,1,94.8750018095971,8|0,0:0|0:0,0:0:0:0:
266,111,208813,1,4,0:3:0:0:
305,249,208955,1,2,3:2:0:0:
305,249,209026,1,2,3:2:0:0:
305,249,209097,1,8,0:0:0:0:
405,130,209240,5,6,0:0:0:0:
266,111,209382,2,0,P|175:125|166:32,1,189.750003619194,2|8,1:2|0:0,0:0:0:0:
94,239,209950,2,0,L|106:343,1,94.8750018095971,2|2,0:0|0:0,0:0:0:0:
17,234,210235,1,8,0:0:0:0:
143,352,210377,6,0,B|200:345|200:345|249:287|249:287|311:280,1,189.750003619194,6|0,0:0|3:0,0:0:0:0:
411,163,210804,2,0,P|406:214|418:277,1,94.8750018095971,8|0,0:0|0:0,0:0:0:0:
480,130,211088,1,4,0:3:0:0:
411,257,211230,1,2,1:2:0:0:
411,257,211301,1,2,1:2:0:0:
411,257,211372,1,8,0:0:0:0:
381,61,211514,5,6,0:0:0:0:
260,135,211657,2,0,L|156:136,1,94.8750018095971,2|2,0:2|0:0,0:0:0:0:
0,123,211941,1,8,0:0:0:0:
71,228,212083,1,2,0:2:0:0:
153,111,212225,1,4,0:3:0:0:
250,233,212367,1,4,0:3:0:0:
119,328,212510,1,8,0:0:0:0:
274,210,212652,6,0,B|317:213|346:191|346:191|376:225|376:225|405:206|460:212,1,189.750003619194,6|0,0:0|3:0,0:0:0:0:
309,119,213078,2,0,L|196:153,1,94.8750018095971,8|0,0:0|0:0,0:0:0:0:
91,83,213363,1,4,0:3:0:0:
218,146,213505,1,2,3:2:0:0:
218,146,213576,1,2,3:2:0:0:
218,146,213647,1,8,0:0:0:0:
76,274,213789,5,6,0:0:0:0:
218,355,213931,2,0,P|191:301|242:191,1,189.750003619194,2|8,1:2|0:0,0:0:0:0:
359,75,214500,1,2,0:0:0:0:
452,163,214642,2,0,L|350:156,1,94.8750018095971,2|8,0:0|0:0,0:0:0:0:
219,237,214927,6,0,B|277:242|277:242|342:211|342:211|431:222,1,189.750003619194,6|0,0:0|3:0,0:0:0:0:
220,322,215353,2,0,L|121:317,1,94.8750018095971,8|0,0:0|0:0,0:0:0:0:
191,167,215638,1,4,0:3:0:0:
220,322,215780,1,2,1:2:0:0:
220,322,215851,1,2,1:2:0:0:
220,322,215922,1,8,0:0:0:0:
48,350,216064,5,6,0:0:0:0:
24,201,216206,2,0,P|74:208|147:202,1,94.8750018095971,2|2,0:2|0:0,0:0:0:0:
148,205,216420,1,2,0:0:0:0:
179,206,216491,1,8,0:0:0:0:
356,163,216633,1,2,0:2:0:0:
179,118,216775,1,4,0:3:0:0:
233,273,216917,1,4,0:3:0:0:
320,76,217059,1,8,0:0:0:0:
459,153,217202,6,0,B|411:179|411:179|370:160|320:162|320:162|268:195,1,189.750003619194,6|0,0:0|3:0,0:0:0:0:
279,10,217601,2,0,L|275:110,1,94.8750018095971,8|0,0:0|0:0,0:0:0:0:
459,153,217885,1,4,0:3:0:0:
300,275,218027,1,2,1:0:0:0:
300,275,218098,1,2,3:2:0:0:
300,275,218169,1,8,0:0:0:0:
275,104,218311,5,6,0:0:0:0:
300,275,218453,2,0,L|178:344,1,94.8750018095971,2|2,1:2|0:0,0:0:0:0:
26,282,218738,2,0,L|155:268,1,94.8750018095971,8|2,0:0|0:0,0:0:0:0:
275,104,219022,1,12,0:3:0:0:
241,119,219093,1,2,0:0:0:0:
204,139,219164,1,2,0:0:0:0:
169,160,219235,1,2,0:0:0:0:
133,178,219306,1,8,0:0:0:0:
383,176,219448,6,0,B|341:156|341:156|300:70|373:-15,1,189.750003619194,6|0,0:0|3:0,0:0:0:0:
458,199,219875,2,0,L|469:310,1,94.8750018095971,8|2,0:0|0:0,0:0:0:0:
471,113,220160,1,12,0:3:0:0:
392,331,220302,1,2,1:2:0:0:
352,318,220380,1,2,1:2:0:0:
298,317,220459,1,8,0:0:0:0:
251,326,220538,1,8,0:0:0:0:
210,348,220617,5,6,0:0:0:0:
180,184,220756,1,2,0:2:0:0:
58,282,220895,1,2,0:0:0:0:
49,131,221035,1,8,0:0:0:0:
180,184,221174,1,2,0:2:0:0:
244,37,221314,1,4,0:3:0:0:
454,109,221452,1,4,0:3:0:0:
423,147,221522,1,8,0:0:0:0:
397,172,221592,1,8,0:0:0:0:
369,202,221662,1,10,0:0:0:0:
319,254,221732,5,4,0:0:0:0:
320,255,222889,5,14,0:0:0:0:
468,103,223173,1,14,0:0:0:0:
320,255,223315,1,8,0:0:0:0:
491,76,223457,1,2,0:0:0:0:
440,75,223528,1,2,0:0:0:0:
403,102,223599,1,8,0:0:0:0:
391,144,223670,1,4,0:3:0:0:
401,183,223741,1,2,0:0:0:0:
437,205,223812,1,2,0:0:0:0:
477,209,223884,1,8,0:0:0:0:
256,34,224026,5,14,0:0:0:0:
42,170,224310,1,2,0:0:0:0:
256,34,224452,1,6,0:0:0:0:
142,232,224594,2,0,L|63:140,1,94.8750018095971,2|6,0:0|0:3,0:0:0:0:
273,199,224879,1,2,0:0:0:0:
273,199,224950,1,2,0:0:0:0:
273,199,225021,1,8,0:0:0:0:
76,343,225163,5,14,0:0:0:0:
273,199,225448,1,14,0:0:0:0:
76,343,225590,1,8,0:0:0:0:
117,178,225732,1,2,0:0:0:0:
363,187,225874,1,8,0:0:0:0:
213,334,226016,1,8,0:0:0:0:
187,102,226158,1,2,0:0:0:0:
351,323,226301,5,14,0:0:0:0:
185,62,228149,5,2,0:0:0:0:
367,244,228291,5,8,0:0:0:0:
308,76,228433,5,8,0:0:0:0:
127,294,228576,5,12,0:0:0:0:
