osu file format v14

[General]
AudioFilename: Heart Connect - Suzumu, Feat Gumi.mp3
AudioLeadIn: 0
PreviewTime: 11036
Countdown: 0
SampleSet: Normal
StackLeniency: 0.7
Mode: 0
LetterboxInBreaks: 0
WidescreenStoryboard: 0

[Editor]
Bookmarks: 118516
DistanceSpacing: 0.8
BeatDivisor: 4
GridSize: 4
TimelineZoom: 1.1

[Metadata]
Title:Shinzou Connect
TitleUnicode:心臓コネクト
Artist:suzumu
ArtistUnicode:スズム
Creator:Hailie
Version:Advanced
Source:
Tags:ke-sanβ tokiti no.734 yasu giga-p ギガp vocaloid gumi DJ Lucky RyoKazuka Shanipika
BeatmapID:1647914
BeatmapSetID:784999

[Difficulty]
HPDrainRate:4.5
CircleSize:3
OverallDifficulty:5.5
ApproachRate:7.5
SliderMultiplier:1.20000000596046
SliderTickRate:1

[Events]
//Background and Video events
Video,0,"Video.avi"
0,0,"BG.jpg",0,0
//Break Periods
2,2715,4818
2,6127,7093
2,9255,10211
2,23121,26249
2,69756,77434
2,125426,133175
2,168720,171279
//Storyboard Layer 0 (Background)
//Storyboard Layer 1 (Fail)
//Storyboard Layer 2 (Pass)
//Storyboard Layer 3 (Foreground)
//Storyboard Sound Samples

[TimingPoints]
-3314,284.36018957346,4,1,1,60,1,0
11036,284.36018957346,4,1,1,65,1,0
11036,-100,4,1,1,65,0,0
11462,284.36018957346,4,1,1,65,1,0
22694,-100,4,1,1,50,0,0
31793,-100,4,1,1,60,0,0
41035,-100,4,2,2,50,0,0
45300,-100,4,2,2,50,0,0
45584,-100,4,1,1,50,0,0
49992,-100,4,1,1,75,0,1
50277,-100,4,1,1,75,0,0
59091,-133.333333333333,4,1,1,35,0,0
59304,-133.333333333333,4,1,1,55,0,0
59518,-100,4,1,1,75,0,0
69328,-100,4,1,1,65,0,0
78428,-100,4,2,2,65,0,0
82693,-100,4,2,2,65,0,0
82977,-100,4,2,2,65,0,0
87527,-100,4,1,1,65,0,0
95490,-100,4,1,1,75,0,0
95491,276.497695852535,4,1,1,65,1,0
95491,-100,4,1,1,75,0,0
96596,363.636363636364,4,1,1,75,1,0
96777,284.36018957346,4,1,1,65,1,0
96777,-100,4,1,1,50,0,0
105159,-100,4,1,1,40,0,0
105301,-100,4,1,1,50,0,0
105443,-100,4,1,1,60,0,0
105585,-100,4,1,1,65,0,0
105734,-100,4,1,1,75,0,1
106018,-100,4,1,1,75,0,0
114825,-133.333333333333,4,1,1,35,0,0
115038,-133.333333333333,4,1,1,55,0,0
115252,-100,4,1,1,75,0,0
124209,-100,4,1,1,65,0,0
134162,-100,4,1,1,50,0,0
141130,-100,4,1,1,10,0,0
143261,-100,4,1,1,60,0,0
151223,-100,4,1,1,65,0,0
152369,-100,4,1,1,75,0,1
161468,-100,4,1,1,75,0,0
161753,-100,4,1,1,55,0,1
162173,-100,4,1,1,75,0,1
168293,-100,4,1,1,75,0,0
172124,-100,4,1,1,55,0,0
172843,-100,4,1,1,70,0,1
173127,-100,4,1,1,70,0,0
173980,272.727272727273,4,1,1,70,1,0
174389,291.26213592233,4,1,1,70,1,0
175118,272.727272727273,4,1,1,70,1,0
175663,281.69014084507,4,1,1,70,1,0
175944,287.081339712919,4,1,1,70,1,0
176231,315.789473684211,4,1,1,70,1,0
176546,272.727272727273,4,1,1,70,1,0
176818,292.682926829268,4,1,1,70,1,0
177384,-133.333333333333,4,1,1,35,0,0
177622,264.31718061674,4,1,1,35,1,0
177669,-133.333333333333,4,1,1,55,0,0
177819,284.36018957346,4,1,1,70,1,1
177819,-100,4,1,1,70,0,1
178103,-100,4,1,1,70,0,0
178672,284.36018957346,4,1,1,70,1,0
183500,-100,4,1,1,30,0,0
183784,-100,4,1,1,50,0,0
183926,-100,4,1,1,60,0,0
184069,-100,4,1,1,70,0,0
184217,-100,4,1,1,80,0,1
193316,-133.333333333333,4,1,1,35,0,0
193521,-133.333333333333,4,1,1,55,0,0
193743,-100,4,1,1,80,0,1
200141,-100,4,1,1,80,0,0
201420,277.777777777778,4,1,1,60,1,0
202531,298.06259314456,4,1,1,60,1,0
203127,284.36018957346,4,1,1,60,1,0
203127,-100,4,1,1,70,0,0
203553,-100,4,1,1,70,0,1
203695,284.36018957346,4,1,1,70,1,0
203832,-100,4,1,1,70,0,0
217202,266.666666666667,4,1,1,70,1,1
217202,-100,4,1,1,70,0,1
217335,266.666666666667,4,1,1,70,1,1
217601,284.36018957346,4,1,1,70,1,1
218454,284.36018957346,4,1,1,70,1,1
220302,315.789473684211,4,1,1,70,1,1
220617,279.06976744186,4,1,1,70,1,1
220756,279.06976744186,4,1,1,70,1,1
221732,-100,4,1,1,70,0,0
222889,284.36018957346,4,1,1,70,1,0
223031,284.36018957346,4,1,1,70,1,0

[Colours]
Combo1 : 60,198,26
Combo2 : 0,236,236
Combo3 : 217,215,215
Combo4 : 254,1,108

[HitObjects]
257,66,1093,5,10,0:0:0:0:
262,231,2231,5,10,0:0:0:0:
262,231,2515,1,10,0:0:0:0:
256,252,5643,6,0,L|399:279,1,120.000000596046,10|10,0:0|0:0,0:0:0:0:
373,274,7918,6,0,L|315:148,1,120.000000596046,10|10,0:0|0:0,0:0:0:0:
322,164,9055,5,4,0:0:0:0:
322,164,11036,5,10,0:0:0:0:
322,164,11320,6,0,P|334:237|313:303,1,120.000000596046,6|0,0:0|3:0,0:0:0:0:
241,324,11747,2,0,L|160:323,1,60.000000298023,8|0,0:0|0:0,0:0:0:0:
72,333,12031,2,0,B|67:303|66:268|86:254|82:227|75:200,1,120.000000596046,4|8,0:3|0:0,0:0:0:0:
42,110,12457,6,0,P|95:121|176:102,1,120.000000596046,2|2,0:0|0:0,0:0:0:0:
258,50,12884,1,8,0:0:0:0:
258,50,13168,2,0,L|373:117,1,120.000000596046,2|8,0:0|0:0,0:0:0:0:
476,87,13595,6,0,L|462:227,1,120.000000596046,6|0,0:0|3:0,0:0:0:0:
467,324,14021,2,0,P|429:321|395:331,1,60.000000298023,8|0,0:0|0:0,0:0:0:0:
292,328,14306,2,0,B|269:323|231:328|228:360|183:358|156:343,1,120.000000596046,4|8,0:3|0:0,0:0:0:0:
77,323,14732,6,0,P|69:260|108:195,1,120.000000596046,2|2,0:0|0:0,0:0:0:0:
185,166,15159,1,8,0:0:0:0:
185,166,15301,2,0,L|171:94,2,60.000000298023,2|4|4,0:2|0:3|0:3,0:0:0:0:
250,247,15728,1,8,0:0:0:0:
250,247,15870,6,0,L|385:227,1,120.000000596046,6|0,0:0|3:0,0:0:0:0:
442,176,16296,2,0,P|439:142|436:111,1,60.000000298023,8|0,0:0|0:0,0:0:0:0:
356,70,16581,2,0,P|315:56|229:81,1,120.000000596046,4|8,0:3|0:0,0:0:0:0:
158,110,17007,6,0,B|150:150|151:171|168:181|170:214|163:251,1,120.000000596046,2|2,0:0|0:0,0:0:0:0:
134,319,17434,1,8,0:0:0:0:
134,319,17718,2,0,L|259:280,1,120.000000596046,2|8,0:0|0:0,0:0:0:0:
348,262,18145,6,0,P|370:333|423:354,1,120.000000596046,6|0,0:0|3:0,0:0:0:0:
466,271,18571,2,0,L|461:196,1,60.000000298023,8|0,0:0|0:0,0:0:0:0:
396,140,18856,2,0,L|273:151,1,120.000000596046,4|8,0:3|0:0,0:0:0:0:
177,116,19282,6,0,L|154:42,2,60.000000298023,2|2|2,0:0|0:2|0:0,0:0:0:0:
133,192,19709,2,0,L|64:193,1,60.000000298023,8|2,0:0|0:2,0:0:0:0:
142,272,19993,2,0,L|131:344,2,60.000000298023,4|4|8,0:3|0:3|0:0,0:0:0:0:
253,328,20420,5,14,0:0:0:0:
253,328,21557,6,0,L|115:332,1,120.000000596046,14|14,0:0|0:0,0:0:0:0:
133,331,22268,6,0,L|131:264,1,60.000000298023,8|8,0:0|0:0,0:0:0:0:
227,263,22552,1,8,0:0:0:0:
257,169,22694,1,2,0:0:0:0:
244,131,27244,5,14,0:0:0:0:
244,131,27529,2,0,L|179:131,1,60.000000298023,10|0,0:0|0:0,0:0:0:0:
184,131,29519,6,0,L|190:201,1,60.000000298023,14|0,0:0|0:0,0:0:0:0:
202,285,29803,1,10,0:0:0:0:
202,285,30657,6,0,P|251:277|337:294,1,120.000000596046,12|4,0:0|0:3,0:0:0:0:
402,209,31083,1,10,0:0:0:0:
402,209,31225,2,0,P|398:150|410:82,1,120.000000596046,4|4,0:3|0:0,0:0:0:0:
247,53,31794,6,0,B|218:70|195:69|177:48|148:55|120:71,1,120.000000596046,6|0,0:0|3:0,0:0:0:0:
83,146,32221,2,0,P|86:197|87:222,1,60.000000298023,8|0,0:0|0:0,0:0:0:0:
98,302,32505,2,0,P|140:284|221:306,1,120.000000596046,4|8,0:3|0:0,0:0:0:0:
295,345,32931,6,0,P|333:344|367:356,1,60.000000298023,2|2,0:0|1:2,0:0:0:0:
455,338,33216,2,0,B|463:321|466:286|436:275|436:238|463:210,1,120.000000596046,2|0,0:0|0:0,0:0:0:0:
470,132,33642,1,2,0:0:0:0:
338,181,33927,1,8,0:0:0:0:
338,181,34069,6,0,L|191:180,1,120.000000596046,6|0,0:0|3:0,0:0:0:0:
129,229,34495,1,8,0:0:0:0:
129,229,34638,2,0,L|129:149,1,60.000000298023,0|4,0:0|0:3,0:0:0:0:
195,92,34922,2,0,L|258:92,1,60.000000298023,2|8,1:2|0:0,0:0:0:0:
338,181,35206,6,0,P|348:206|317:312,1,120.000000596046,2|2,0:0|0:0,0:0:0:0:
241,319,35633,2,0,L|240:392,2,60.000000298023,8|2|4,0:0|0:2|0:3,0:0:0:0:
151,284,36059,2,0,L|77:284,1,60.000000298023,4|8,0:3|0:0,0:0:0:0:
28,213,36344,6,0,P|19:183|61:98,1,120.000000596046,6|0,0:0|3:0,0:0:0:0:
154,85,36770,2,0,L|295:88,1,120.000000596046,8|4,0:0|0:3,0:0:0:0:
406,122,37339,1,8,0:0:0:0:
406,122,37481,6,0,L|418:201,1,60.000000298023,2|2,0:0|1:2,0:0:0:0:
393,277,37766,2,0,P|360:278|326:282,1,60.000000298023,2|8,0:0|0:0,0:0:0:0:
254,331,38050,2,0,B|222:347|197:347|176:328|154:331|124:342,1,120.000000596046,0|2,0:0|0:0,0:0:0:0:
58,283,38476,1,8,0:0:0:0:
58,283,38619,6,0,B|57:243|57:243|39:208|39:208|39:143,1,120.000000596046,6|0,0:0|3:0,0:0:0:0:
12,76,39045,2,0,B|35:92|57:92|85:72|116:71|134:84,1,120.000000596046,8|4,0:0|0:3,0:0:0:0:
233,21,39614,1,8,0:0:0:0:
233,21,39756,6,0,P|292:14|360:24,1,120.000000596046,2|2,0:0|0:0,0:0:0:0:
428,70,40183,2,0,P|426:113|425:137,1,60.000000298023,8|2,0:0|0:2,0:0:0:0:
456,229,40467,2,0,B|429:239|409:236|381:215|354:217|321:233,1,120.000000596046,4|8,0:3|0:0,0:0:0:0:
221,194,41036,5,4,1:0:0:0:
221,194,41604,2,0,P|129:203|88:181,1,120.000000596046,0|2,1:0|0:0,0:0:0:0:
146,120,42031,1,2,0:0:0:0:
285,53,42315,5,0,1:0:0:0:
285,53,42457,2,0,P|280:131|307:161,1,120.000000596046,0|0,0:0|1:0,0:0:0:0:
379,94,43026,1,0,0:0:0:0:
411,220,43311,6,0,B|422:253|419:277|400:298|401:336|417:359,1,120.000000596046,4|0,3:0|0:0,0:0:0:0:
297,304,43879,2,0,P|209:298|162:308,1,120.000000596046,0|0,1:0|0:0,0:0:0:0:
86,331,44306,1,0,1:0:0:0:
86,331,44448,6,0,L|75:188,1,120.000000596046,2|0,0:0|1:0,0:0:0:0:
68,119,45017,1,0,1:0:0:0:
159,166,45301,1,12,0:3:0:0:
254,91,45585,5,12,0:0:0:0:
254,91,47576,5,12,0:3:0:0:
254,91,47860,6,0,L|280:37,2,60.000000298023,14|8|2,0:0|0:0|0:0,0:0:0:0:
289,172,48287,6,0,L|345:206,2,60.000000298023,10|8|2,0:0|0:0|0:0,0:0:0:0:
172,139,48713,6,0,L|92:138,2,60.000000298023,10|8|2,0:0|0:0|0:0,0:0:0:0:
208,217,49140,6,0,L|178:292,2,60.000000298023,10|8|0,0:0|0:0|0:0,0:0:0:0:
208,217,49993,6,0,P|265:218|346:220,1,120.000000596046,4|2,0:0|2:3,0:0:0:0:
411,194,50420,2,0,P|418:135|398:78,1,120.000000596046,8|2,0:0|0:0,0:0:0:0:
290,18,50988,1,8,0:0:0:0:
214,57,51130,2,0,L|137:58,1,60.000000298023,2|2,2:0|0:0,0:0:0:0:
62,94,51415,2,0,B|52:128|56:146|75:165|73:186|65:233,1,120.000000596046,4|2,2:3|3:0,0:0:0:0:
66,304,51841,2,0,P|100:309|141:296,1,60.000000298023,4|0,0:3|3:0,0:0:0:0:
218,334,52126,1,8,0:0:0:0:
218,334,52268,6,0,L|363:332,1,120.000000596046,2|2,0:0|2:3,0:0:0:0:
407,260,52694,1,8,0:0:0:0:
407,260,52979,2,0,P|417:202|388:143,1,120.000000596046,2|8,0:0|0:0,0:0:0:0:
302,196,53405,6,0,B|265:195|265:195|220:216|220:216|165:217,1,120.000000596046,2|4,2:0|2:3,0:0:0:0:
89,152,53832,1,8,0:0:0:0:
89,152,53974,2,0,P|58:94|50:76,2,60.000000298023,2|4|2,3:0|0:3|1:0,0:0:0:0:
186,216,54401,1,8,0:0:0:0:
186,216,54543,6,0,P|181:285|179:361,1,120.000000596046,4|2,0:0|2:3,0:0:0:0:
278,286,54969,1,8,0:0:0:0:
278,286,55254,2,0,L|346:308,1,60.000000298023,2|0,0:0|0:0,0:0:0:0:
441,308,55538,1,8,0:0:0:0:
441,308,55680,6,0,P|456:254|429:183,1,120.000000596046,6|4,1:0|2:3,0:0:0:0:
345,166,56107,1,8,0:0:0:0:
345,166,56249,2,0,P|301:169|216:176,1,120.000000596046,2|2,3:0|1:0,0:0:0:0:
130,145,56676,1,8,0:0:0:0:
209,75,56818,6,0,B|240:87|259:81|278:65|296:67|344:74,1,120.000000596046,4|2,0:0|1:0,0:0:0:0:
435,110,57244,2,0,P|445:67|407:1,2,120.000000596046,8|2|8,0:0|0:0|0:0,0:0:0:0:
423,201,57955,6,0,B|393:226|368:222|351:209|331:210|302:217,1,120.000000596046,6|4,1:0|2:3,0:0:0:0:
216,176,58382,1,8,0:0:0:0:
190,318,58666,2,0,P|150:342|74:322,1,120.000000596046,4|8,0:3|0:0,0:0:0:0:
58,236,59093,6,0,L|59:140,1,90.0000038802622,6|6,0:0|3:0,0:0:0:0:
37,53,59519,6,0,B|62:66|89:67|112:46|139:42|164:52,1,120.000000596046,6|2,0:0|0:0,0:0:0:0:
236,130,60088,1,8,0:0:0:0:
236,130,60230,6,0,L|233:200,1,60.000000298023,2|2,2:0|0:0,0:0:0:0:
243,283,60514,2,0,P|301:305|371:276,1,120.000000596046,4|2,2:3|3:0,0:0:0:0:
374,196,60941,1,4,0:3:0:0:
374,196,61083,2,0,L|367:121,1,60.000000298023,0|8,3:0|0:0,0:0:0:0:
468,77,61367,6,0,B|459:116|456:139|479:148|477:193|469:214,1,120.000000596046,2|2,0:0|2:3,0:0:0:0:
485,292,61794,1,8,0:0:0:0:
485,292,62078,2,0,B|442:295|442:295|412:316|412:316|351:315,1,120.000000596046,2|8,0:0|0:0,0:0:0:0:
283,360,62505,6,0,P|269:303|295:251,1,120.000000596046,6|4,2:0|2:3,0:0:0:0:
207,210,62931,2,0,L|119:212,1,60.000000298023,8|2,0:0|3:0,0:0:0:0:
55,227,63216,1,4,0:3:0:0:
121,101,63500,1,8,0:0:0:0:
121,101,63642,6,0,B|145:111|170:110|189:78|230:78|254:98,1,120.000000596046,4|2,0:0|1:0,0:0:0:0:
361,66,64069,2,0,P|355:109|335:149,1,60.000000298023,8|2,0:0|0:0,0:0:0:0:
440,163,64353,2,0,P|433:195|440:240,1,60.000000298023,8|2,0:0|0:0,0:0:0:0:
470,326,64638,1,8,0:0:0:0:
470,326,64780,6,0,L|341:343,1,120.000000596046,4|4,0:0|2:3,0:0:0:0:
255,384,65206,2,0,P|244:341|250:310,1,60.000000298023,8|2,0:0|0:0,0:0:0:0:
194,232,65491,2,0,P|248:232|311:183,1,120.000000596046,4|8,0:3|0:0,0:0:0:0:
361,129,65917,5,2,0:0:0:0:
361,129,67055,6,0,B|411:255,1,120.000000596046,14|2,0:0|0:0,0:0:0:0:
338,304,67481,2,0,L|317:233,1,60.000000298023,8|2,0:0|0:0,0:0:0:0:
246,305,67766,2,0,L|221:373,2,60.000000298023,8|8|8,0:0|0:0|0:0,0:0:0:0:
160,284,68192,1,12,0:0:0:0:
160,284,68476,6,0,P|162:237|221:178,1,120.000000596046,2|12,0:0|0:3,0:0:0:0:
284,143,68903,6,0,L|350:142,2,60.000000298023,8|8|8,0:3|0:3|0:0,0:0:0:0:
209,100,69330,5,6,0:0:0:0:
256,192,78429,5,4,3:0:0:0:
256,192,80704,5,0,3:0:0:0:
256,192,82694,6,0,L|255:254,1,60.000000298023,2|2,0:0|0:3,0:0:0:0:
308,325,82979,6,0,L|440:323,1,120.000000596046,6|2,3:2|0:0,0:0:0:0:
470,244,83405,2,0,P|479:201|443:114,1,120.000000596046,0|2,1:0|0:0,0:0:0:0:
351,57,83974,1,2,0:3:0:0:
351,57,84116,6,0,P|331:111|355:177,1,120.000000596046,6|2,3:2|0:0,0:0:0:0:
258,183,84543,2,0,L|125:183,1,120.000000596046,0|0,1:0|1:0,0:0:0:0:
75,291,85112,1,2,0:3:0:0:
75,291,85254,6,0,B|102:305|134:306|158:276|191:274|215:299,1,120.000000596046,6|2,3:2|0:0,0:0:0:0:
274,298,85680,2,0,L|386:358,1,120.000000596046,0|2,1:0|0:0,0:0:0:0:
457,293,86107,1,0,1:0:0:0:
457,293,86391,6,0,P|470:230|443:167,1,120.000000596046,2|2,3:2|3:0,0:0:0:0:
405,103,86818,2,0,P|366:108|324:115,1,60.000000298023,0|0,1:0|3:0,0:0:0:0:
256,156,87102,1,0,1:0:0:0:
256,156,87244,2,0,L|258:240,1,60.000000298023,12|0,0:3|1:0,0:0:0:0:
132,273,87529,6,0,P|87:291|0:266,1,120.000000596046,6|0,0:0|3:0,0:0:0:0:
73,189,87955,2,0,L|72:120,1,60.000000298023,8|0,0:0|0:0,0:0:0:0:
23,41,88239,2,0,B|52:51|71:49|100:26|120:24|165:34,1,120.000000596046,4|8,0:3|0:0,0:0:0:0:
231,70,88666,6,0,L|231:138,1,60.000000298023,2|2,0:0|1:2,0:0:0:0:
323,189,88950,2,0,B|325:52,1,120.000000596046,2|0,0:0|0:0,0:0:0:0:
412,36,89377,1,2,0:0:0:0:
490,141,89661,1,8,0:0:0:0:
490,141,89803,6,0,B|487:188|487:188|471:230|471:230|469:266,1,120.000000596046,6|0,0:0|3:0,0:0:0:0:
389,350,90230,1,8,0:0:0:0:
389,350,90372,2,0,L|326:350,1,60.000000298023,0|4,0:0|0:3,0:0:0:0:
238,328,90657,2,0,P|235:285|240:261,1,60.000000298023,2|8,1:2|0:0,0:0:0:0:
342,252,90941,6,0,B|352:233|355:194|325:185|331:154|350:116,1,120.000000596046,2|2,0:0|0:0,0:0:0:0:
431,111,91367,2,0,P|430:98|417:48,2,60.000000298023,8|2|4,0:0|0:2|0:3,0:0:0:0:
341,134,91794,2,0,L|267:134,1,60.000000298023,4|8,0:3|0:0,0:0:0:0:
178,185,92078,6,0,P|162:252|168:302,1,120.000000596046,6|0,0:0|3:0,0:0:0:0:
271,338,92505,2,0,L|412:341,1,120.000000596046,8|4,0:0|0:3,0:0:0:0:
486,261,93074,1,8,0:0:0:0:
486,261,93216,6,0,P|487:227|480:185,1,60.000000298023,2|2,0:0|1:2,0:0:0:0:
403,125,93500,2,0,L|323:123,1,60.000000298023,2|8,0:0|0:0,0:0:0:0:
237,158,93785,2,0,B|223:124|225:100|245:80|243:58|235:27,1,120.000000596046,0|2,0:0|0:0,0:0:0:0:
142,54,94211,1,8,0:0:0:0:
142,54,94353,6,0,B|101:58|101:58|68:79|68:79|23:82,1,120.000000596046,6|0,0:0|3:0,0:0:0:0:
0,180,94780,2,0,P|59:179|148:180,1,120.000000596046,8|4,0:0|0:3,0:0:0:0:
247,231,95348,1,8,0:0:0:0:
247,231,95491,6,0,P|308:221|369:227,1,120.000000596046,2|10,0:0|0:0,0:0:0:0:
472,232,95974,6,0,P|470:187|470:142,3,90.0000004470345,10|10|4|6,0:0|0:3|0:3|0:3,0:0:0:0:
365,226,96777,5,6,1:0:0:0:
281,301,97203,1,2,0:0:0:0:
281,301,97345,2,0,B|259:296|234:298|213:315|188:315|151:299,1,120.000000596046,8|2,1:0|0:0,0:0:0:0:
71,261,97772,6,0,L|74:114,1,120.000000596046,2|8,0:0|1:0,0:0:0:0:
121,63,98198,2,0,P|184:64|254:62,1,120.000000596046,0|8,0:0|1:0,0:0:0:0:
372,67,98767,1,0,0:0:0:0:
372,67,99051,6,0,P|402:127|419:192,1,120.000000596046,4|0,3:0|0:0,0:0:0:0:
438,309,99620,2,0,B|417:298|390:298|361:324|334:327|300:294,1,120.000000596046,8|8,1:0|0:0,0:0:0:0:
226,283,100047,1,0,1:0:0:0:
226,283,100189,6,0,L|113:350,1,120.000000596046,2|0,2:0|1:0,0:0:0:0:
61,256,100758,1,0,1:0:0:0:
154,201,101042,1,12,0:3:0:0:
101,111,101326,5,8,0:0:0:0:
101,111,103317,5,12,0:3:0:0:
101,111,103601,6,0,L|127:57,2,60.000000298023,14|8|2,0:0|0:0|0:0,0:0:0:0:
193,119,104028,6,0,L|253:145,2,60.000000298023,10|8|2,0:0|0:0|0:0,0:0:0:0:
149,201,104454,6,0,L|119:261,2,60.000000298023,10|8|2,0:0|0:0|0:0,0:0:0:0:
53,185,104881,6,0,L|-13:152,2,60.000000298023,10|8|2,0:0|0:0|2:0,0:0:0:0:
149,201,105307,6,0,P|214:196|276:213,1,120.000000596046,2|2,2:0|2:0,0:0:0:0:
323,283,105734,6,0,P|350:252|348:173,1,120.000000596046,4|2,0:0|2:3,0:0:0:0:
280,87,106160,2,0,B|311:98|335:95|346:72|384:66|417:93,1,120.000000596046,8|2,0:0|0:0,0:0:0:0:
500,139,106729,6,0,L|510:219,1,60.000000298023,8|2,0:0|2:0,0:0:0:0:
492,306,107013,1,2,0:0:0:0:
492,306,107156,2,0,P|429:303|346:323,1,120.000000596046,4|2,2:3|3:0,0:0:0:0:
278,334,107582,2,0,L|268:265,1,60.000000298023,4|0,0:3|3:0,0:0:0:0:
220,191,107867,1,8,0:0:0:0:
220,191,108009,6,0,L|96:200,1,120.000000596046,2|2,0:0|2:3,0:0:0:0:
38,103,108435,1,8,0:0:0:0:
38,103,108720,2,0,P|99:110|161:77,1,120.000000596046,2|8,0:0|0:0,0:0:0:0:
239,49,109146,6,0,B|251:74|247:100|232:124|234:151|248:192,1,120.000000596046,2|4,2:0|2:3,0:0:0:0:
318,259,109573,1,8,0:0:0:0:
318,259,109715,2,0,L|343:327,2,60.000000298023,2|4|2,3:0|0:3|1:0,0:0:0:0:
204,247,110141,1,8,0:0:0:0:
204,247,110284,6,0,P|135:258|74:247,1,120.000000596046,4|2,0:0|2:3,0:0:0:0:
49,146,110710,1,8,0:0:0:0:
49,146,110995,2,0,L|47:71,1,60.000000298023,2|0,0:0|0:0,0:0:0:0:
158,68,111279,1,8,0:0:0:0:
158,68,111421,6,0,B|193:80|215:77|224:55|250:52|283:60,1,120.000000596046,6|4,1:0|2:3,0:0:0:0:
345,166,111848,1,8,0:0:0:0:
345,166,111990,2,0,P|326:226|355:294,1,120.000000596046,2|2,3:0|1:0,0:0:0:0:
432,225,112416,1,8,0:0:0:0:
432,225,112558,6,0,L|423:94,1,120.000000596046,4|2,0:0|1:0,0:0:0:0:
331,68,112985,2,0,B|308:61|282:57|265:86|245:85|197:66,2,120.000000596046,8|2|8,0:0|0:0|0:0,0:0:0:0:
345,166,113696,6,0,P|332:233|322:296,1,120.000000596046,6|4,1:0|2:3,0:0:0:0:
267,369,114122,1,8,0:0:0:0:
159,314,114407,2,0,P|92:316|17:319,1,120.000000596046,4|8,0:3|0:0,0:0:0:0:
4,215,114833,6,0,L|98:211,1,90.0000038802622,6|6,0:0|3:0,0:0:0:0:
161,148,115260,6,0,B|163:108|163:108|151:75|151:75|157:21,1,120.000000596046,6|2,0:0|0:0,0:0:0:0:
247,85,115686,1,2,2:0:0:0:
247,85,115829,6,0,L|244:155,1,60.000000298023,8|2,0:0|2:0,0:0:0:0:
264,269,116255,2,0,B|244:260|217:264|199:287|173:287|137:271,1,120.000000596046,4|2,2:3|3:0,0:0:0:0:
51,235,116682,1,4,0:3:0:0:
51,235,116824,2,0,L|44:160,1,60.000000298023,0|8,3:0|0:0,0:0:0:0:
93,75,117108,6,0,P|149:84|215:59,1,120.000000596046,2|2,0:0|2:3,0:0:0:0:
314,56,117535,1,8,0:0:0:0:
314,56,117819,2,0,B|317:97|326:112|354:123|366:146|366:180,1,120.000000596046,2|8,0:0|0:0,0:0:0:0:
459,216,118246,6,0,P|448:272|460:345,1,120.000000596046,6|4,2:0|2:3,0:0:0:0:
353,319,118672,2,0,L|275:323,1,60.000000298023,8|2,0:0|3:0,0:0:0:0:
212,358,118957,1,4,0:3:0:0:
167,244,119241,1,8,0:0:0:0:
167,244,119383,6,0,P|184:191|261:156,1,120.000000596046,4|2,0:0|1:0,0:0:0:0:
341,182,119810,2,0,L|345:115,1,60.000000298023,8|2,0:0|0:0,0:0:0:0:
453,86,120094,2,0,L|458:27,2,60.000000298023,8|2|8,0:0|0:0|0:0,0:0:0:0:
438,174,120521,6,0,B|436:219|436:219|452:262|452:262|449:301,1,120.000000596046,4|4,0:0|2:3,0:0:0:0:
362,331,120947,2,0,P|316:344|285:366,1,60.000000298023,8|2,0:0|0:0,0:0:0:0:
215,315,121231,2,0,L|182:195,1,120.000000596046,4|8,0:3|0:0,0:0:0:0:
78,164,121658,5,2,0:0:0:0:
78,164,122795,6,0,B|221:161,1,120.000000596046,14|2,0:0|0:0,0:0:0:0:
295,191,123222,2,0,L|291:275,1,60.000000298023,8|2,0:0|0:0,0:0:0:0:
359,309,123506,2,0,L|405:353,2,60.000000298023,8|8|8,0:0|0:0|0:0,0:0:0:0:
269,341,123933,1,12,0:0:0:0:
269,341,124217,6,0,L|166:276,1,120.000000596046,4|2,0:3|0:0,0:0:0:0:
72,312,124644,6,0,L|42:374,2,60.000000298023,10|8|8,0:0|0:3|0:0,0:0:0:0:
78,216,125070,5,6,0:0:0:0:
209,100,134170,6,0,P|133:98|67:99,1,120.000000596046,4|0,0:0|0:0,0:0:0:0:
99,193,134596,1,2,0:0:0:0:
229,187,134881,1,2,0:0:0:0:
229,187,135023,2,0,P|292:188|362:186,1,120.000000596046,0|0,0:0|0:0,0:0:0:0:
431,145,135449,5,2,0:0:0:0:
450,270,135734,2,0,L|456:336,2,60.000000298023,2|0|2,0:0|0:0|1:0,0:0:0:0:
366,286,136160,1,0,0:0:0:0:
366,286,136303,2,0,B|334:278|312:278|308:307|275:309|234:283,1,120.000000596046,0|0,1:0|3:0,0:0:0:0:
102,288,136871,6,0,L|83:163,1,120.000000596046,0|0,3:0|3:0,0:0:0:0:
174,75,137440,2,0,L|184:205,1,120.000000596046,0|0,3:0|3:0,0:0:0:0:
295,262,138009,2,0,L|286:135,1,120.000000596046,2|2,0:0|0:0,0:0:0:0:
390,63,138577,1,2,3:0:0:0:
390,63,138720,6,0,B|381:98|381:119|407:137|404:163|397:195,1,120.000000596046,0|0,1:0|3:0,0:0:0:0:
451,273,139146,2,0,P|402:288|329:260,1,120.000000596046,2|2,0:0|0:0,0:0:0:0:
247,294,139715,1,2,0:0:0:0:
247,294,139857,6,0,P|211:291|174:294,1,60.000000298023,0|2,0:0|0:0,0:0:0:0:
53,261,140284,2,0,P|36:235|58:149,1,120.000000596046,2|2,0:0|0:0,0:0:0:0:
124,98,140710,1,0,0:0:0:0:
124,98,140852,2,0,P|162:98|207:98,1,60.000000298023,0|0,1:0|0:0,0:0:0:0:
256,192,141137,12,0,142985,3:0:0:0:
337,228,143269,5,2,1:0:0:0:
337,228,143554,2,0,L|306:160,1,60.000000298023,2|2,0:0|0:0,0:0:0:0:
175,228,144407,5,2,1:0:0:0:
175,228,144691,2,0,L|206:160,1,60.000000298023,2|2,0:0|0:0,0:0:0:0:
188,33,145544,5,2,1:0:0:0:
188,33,145829,2,0,L|219:101,1,60.000000298023,2|2,0:0|0:0,0:0:0:0:
325,33,146682,5,2,1:0:0:0:
325,33,146966,2,0,L|294:101,1,60.000000298023,2|2,0:0|0:0,0:0:0:0:
250,267,147819,5,2,1:0:0:0:
250,267,148104,2,0,L|168:270,1,60.000000298023,2|8,0:0|0:0,0:0:0:0:
110,289,148388,6,0,B|93:234|93:234|63:217|49:163,1,120.000000596046,2|2,0:0|0:0,0:0:0:0:
0,100,148814,1,8,0:0:0:0:
90,107,148957,5,2,1:0:0:0:
90,107,149241,2,0,L|168:67,1,60.000000298023,2|8,0:0|0:0,0:0:0:0:
328,71,150094,5,2,1:0:0:0:
328,71,150378,2,0,L|406:111,1,60.000000298023,2|8,0:0|0:0,0:0:0:0:
479,122,151231,6,0,L|490:260,1,120.000000596046,6|2,0:0|0:0,0:0:0:0:
416,300,151658,2,0,L|404:372,2,60.000000298023,8|8|8,0:0|0:0|0:0,0:0:0:0:
329,195,152227,1,8,0:0:0:0:
329,195,152369,6,0,B|299:191|272:188|264:220|228:217|199:213,1,120.000000596046,14|0,0:0|3:0,0:0:0:0:
96,237,152795,2,0,P|84:176|106:114,1,120.000000596046,2|2,0:0|0:0,0:0:0:0:
222,79,153364,1,8,0:0:0:0:
222,79,153506,6,0,B|268:80|268:80|298:102|298:102|359:102,1,120.000000596046,2|0,0:0|3:0,0:0:0:0:
431,97,153933,2,0,P|444:138|447:174,1,60.000000298023,2|2,0:0|2:0,0:0:0:0:
477,253,154217,2,0,P|472:303|464:325,1,60.000000298023,2|2,0:0|3:2,0:0:0:0:
357,337,154502,1,8,0:0:0:0:
357,337,154644,6,0,B|330:348|303:350|291:312|254:314|226:342,1,120.000000596046,2|2,3:2|3:0,0:0:0:0:
127,333,155070,2,0,P|116:286|137:201,1,120.000000596046,2|2,0:0|2:2,0:0:0:0:
25,224,155497,1,2,3:0:0:0:
100,104,155781,6,0,P|129:160|126:226,1,120.000000596046,2|2,3:0|3:0,0:0:0:0:
222,162,156208,2,0,L|306:153,1,60.000000298023,8|0,0:0|3:0,0:0:0:0:
368,103,156492,2,0,L|381:38,2,60.000000298023,8|2|8,0:0|0:0|0:0,0:0:0:0:
411,193,156919,6,0,P|419:248|391:323,1,120.000000596046,14|2,0:0|1:3,0:0:0:0:
303,311,157345,2,0,P|268:333|181:336,1,120.000000596046,2|2,0:0|0:0,0:0:0:0:
91,235,157914,6,0,P|80:195|81:153,1,60.000000298023,8|2,0:0|1:3,0:0:0:0:
142,71,158198,2,0,P|169:108|173:197,1,120.000000596046,2|2,0:0|0:0,0:0:0:0:
277,164,158625,1,2,3:2:0:0:
277,164,158767,2,0,L|302:99,2,60.000000298023,6|4|8,3:0|0:0|0:0,0:0:0:0:
374,202,159194,6,0,L|506:203,1,120.000000596046,14|8,0:0|0:0,0:0:0:0:
434,298,159620,2,0,L|358:298,1,60.000000298023,8|2,0:0|0:0,0:0:0:0:
285,256,159904,2,0,L|267:338,1,60.000000298023,8|2,0:0|0:0,0:0:0:0:
182,357,160189,1,8,0:0:0:0:
182,357,160331,6,0,P|120:338|99:276,1,120.000000596046,6|2,0:3|0:0,0:0:0:0:
114,202,160758,2,0,P|159:166|246:173,1,120.000000596046,8|8,0:0|0:0,0:0:0:0:
344,162,161326,1,8,0:0:0:0:
344,162,161468,6,0,P|342:103|301:43,1,120.000000596046,14|6,1:0|0:3,0:0:0:0:
214,37,161895,2,0,P|172:42|132:34,1,60.000000298023,8|2,0:0|0:3,0:0:0:0:
86,94,162179,2,0,B|71:138|71:138|58:157|58:157|39:222,1,120.000000596046,2|8,0:0|0:0,0:0:0:0:
119,293,162748,6,0,P|161:308|232:354,1,120.000000596046,2|2,0:0|1:0,0:0:0:0:
338,360,163175,1,2,2:0:0:0:
338,360,163317,2,0,P|378:320|405:237,1,120.000000596046,2|8,0:0|0:0,0:0:0:0:
482,201,163743,6,0,P|458:119|457:65,1,120.000000596046,2|2,3:0|3:2,0:0:0:0:
388,14,164170,2,0,P|377:53|380:97,1,60.000000298023,2|2,0:0|3:2,0:0:0:0:
285,133,164454,2,0,L|211:116,1,60.000000298023,2|2,0:0|3:2,0:0:0:0:
128,76,164739,1,8,0:0:0:0:
128,76,164881,6,0,B|135:113|134:130|110:163|114:188|120:213,1,120.000000596046,6|2,0:0|0:0,0:0:0:0:
71,281,165307,1,8,0:0:0:0:
71,281,165449,2,0,P|107:288|154:273,1,60.000000298023,2|8,0:0|0:0,0:0:0:0:
218,250,165734,2,0,P|254:248|290:247,1,60.000000298023,2|8,0:0|0:0,0:0:0:0:
388,233,166018,6,0,B|391:267|391:267|378:304|378:304|380:350,1,120.000000596046,14|6,1:0|0:3,0:0:0:0:
481,295,166445,2,0,L|465:172,1,120.000000596046,8|8,0:0|0:0,0:0:0:0:
496,72,167013,1,8,0:0:0:0:
374,105,167156,6,0,P|311:102|259:129,1,120.000000596046,14|10,0:0|0:0,0:0:0:0:
176,138,167582,1,8,0:0:0:0:
176,138,167724,2,0,P|158:186|158:222,1,60.000000298023,10|8,0:0|0:0,0:0:0:0:
201,278,168009,2,0,P|211:320|238:346,1,60.000000298023,10|8,0:0|0:0,0:0:0:0:
328,311,168293,5,14,0:0:0:0:
328,311,172132,6,0,P|361:273|248:258,1,240.000001192092,2|6,3:0|0:3,0:0:0:0:
145,242,172843,6,0,P|154:189|211:127,1,120.000000596046,6|0,0:0|3:0,0:0:0:0:
269,51,173269,2,0,P|294:92|302:180,1,120.000000596046,10|8,0:0|0:0,0:0:0:0:
364,250,173838,1,8,0:0:0:0:
364,250,173980,6,0,B|335:267|313:262|290:241|274:237|233:256,1,120.000000596046,14|8,0:0|0:0,0:0:0:0:
162,289,174389,2,0,P|160:334|153:368,1,60.000000298023,12|12,0:3|0:3,0:0:0:0:
73,296,174680,2,0,P|63:235|82:171,1,120.000000596046,8|8,0:0|0:0,0:0:0:0:
139,118,175118,5,6,0:0:0:0:
139,118,175390,2,0,L|200:111,1,60.000000298023,2|10,0:0|0:0,0:0:0:0:
278,44,175663,5,6,0:0:0:0:
278,44,175944,2,0,L|306:108,1,60.000000298023,2|10,0:0|0:0,0:0:0:0:
414,87,176231,5,6,0:0:0:0:
414,87,176546,2,0,L|380:149,1,60.000000298023,2|10,0:0|0:0,0:0:0:0:
466,233,176818,5,6,0:0:0:0:
466,233,177110,2,0,L|397:234,1,60.000000298023,2|10,0:0|0:0,0:0:0:0:
305,254,177403,6,0,L|300:335,1,67.5000029101966,4|2,0:3|3:0,0:0:0:0:
191,348,177754,1,2,3:0:0:0:
191,348,177819,6,0,B|145:341|145:341|106:352|106:352|74:342,1,120.000000596046,6|2,0:0|0:0,0:0:0:0:
44,242,178387,1,8,0:0:0:0:
44,242,178529,6,0,L|31:168,1,60.000000298023,2|2,2:0|0:0,0:0:0:0:
119,94,178814,2,0,L|134:223,1,120.000000596046,4|2,2:3|3:0,0:0:0:0:
232,264,179240,1,4,0:3:0:0:
232,264,179382,2,0,P|270:260|309:249,1,60.000000298023,0|8,3:0|0:0,0:0:0:0:
389,284,179667,6,0,P|408:234|378:167,1,120.000000596046,2|2,0:0|2:3,0:0:0:0:
289,132,180093,1,8,0:0:0:0:
289,132,180378,2,0,B|255:129|235:129|216:156|191:159|151:138,1,120.000000596046,2|8,0:0|0:0,0:0:0:0:
72,184,180804,6,0,L|58:332,1,120.000000596046,6|4,2:0|2:3,0:0:0:0:
151,316,181231,2,0,P|185:316|222:316,1,60.000000298023,8|2,0:0|3:0,0:0:0:0:
303,371,181515,2,0,P|338:367|385:366,1,60.000000298023,4|2,0:3|1:0,0:0:0:0:
468,332,181800,1,8,0:0:0:0:
468,332,181942,6,0,B|474:306|471:283|445:260|445:233|465:199,1,120.000000596046,4|2,0:0|1:0,0:0:0:0:
503,128,182368,2,0,P|470:118|420:120,1,60.000000298023,8|2,0:0|0:0,0:0:0:0:
360,74,182653,2,0,P|344:112|322:132,1,60.000000298023,8|2,0:0|0:0,0:0:0:0:
242,96,182937,1,8,0:0:0:0:
267,192,183079,1,6,0:0:0:0:
267,192,183790,6,0,L|287:313,1,120.000000596046,8|8,1:0|0:1,0:0:0:0:
378,361,184217,2,0,P|395:304|379:227,1,120.000000596046,4|2,0:0|2:3,0:0:0:0:
267,192,184643,2,0,B|211:195|211:195|180:214|180:214|139:215,1,120.000000596046,8|2,0:0|0:0,0:0:0:0:
66,96,185212,6,0,L|57:24,1,60.000000298023,8|2,0:0|2:0,0:0:0:0:
179,55,185496,1,2,0:0:0:0:
179,55,185638,2,0,B|212:47|229:46|256:70|284:73|311:58,1,120.000000596046,4|2,2:3|3:0,0:0:0:0:
408,73,186065,2,0,L|416:4,2,60.000000298023,4|0|8,0:3|3:0|0:0,0:0:0:0:
463,175,186491,6,0,L|478:312,1,120.000000596046,2|2,0:0|2:3,0:0:0:0:
365,328,186918,1,8,0:0:0:0:
365,328,187202,2,0,B|312:328|312:328|280:345|280:345|229:348,1,120.000000596046,2|8,0:0|0:0,0:0:0:0:
151,300,187629,6,0,B|144:283|142:256|157:232|161:206|149:181,1,120.000000596046,2|4,2:0|2:3,0:0:0:0:
96,96,188055,1,8,0:0:0:0:
96,96,188198,2,0,L|54:36,2,60.000000298023,2|4|2,3:0|0:3|1:0,0:0:0:0:
211,125,188624,1,8,0:0:0:0:
211,125,188766,6,0,L|339:148,1,120.000000596046,4|2,0:0|2:3,0:0:0:0:
418,91,189193,1,8,0:0:0:0:
418,91,189477,2,0,L|416:16,1,60.000000298023,2|0,0:0|0:0,0:0:0:0:
510,127,189762,1,8,0:0:0:0:
510,127,189904,6,0,P|504:192|513:269,1,120.000000596046,6|4,1:0|2:3,0:0:0:0:
435,333,190330,1,8,0:0:0:0:
435,333,190473,2,0,L|311:318,1,120.000000596046,2|2,3:0|1:0,0:0:0:0:
226,308,190899,1,8,0:0:0:0:
226,308,191041,6,0,B|194:309|178:324|174:361|148:375|113:376,1,120.000000596046,4|2,0:0|1:0,0:0:0:0:
71,296,191468,2,0,P|51:256|70:182,2,120.000000596046,8|2|8,0:0|0:0|0:0,0:0:0:0:
159,240,192179,6,0,P|217:236|299:232,1,120.000000596046,6|4,1:0|2:3,0:0:0:0:
356,286,192605,1,8,0:0:0:0:
391,147,192890,2,0,P|356:150|311:155,2,60.000000298023,4|0|8,0:3|3:0|0:0,0:0:0:0:
496,215,193316,6,0,L|490:121,1,90.0000038802622,6|6,0:0|3:0,0:0:0:0:
378,57,193743,6,0,L|301:61,1,60.000000298023,12|0,0:0|0:0,0:0:0:0:
206,55,194027,2,0,L|210:122,1,60.000000298023,8|2,0:0|0:0,0:0:0:0:
134,182,194311,1,8,0:0:0:0:
134,182,194454,6,0,L|140:317,1,120.000000596046,2|2,0:0|0:0,0:0:0:0:
216,382,194880,2,0,P|266:374|352:391,1,120.000000596046,8|8,0:0|0:0,0:0:0:0:
475,358,195449,1,8,0:0:0:0:
475,358,195591,6,0,L|461:281,1,60.000000298023,2|8,0:0|0:0,0:0:0:0:
474,193,195875,2,0,L|500:132,2,60.000000298023,2|8|2,0:0|0:0|0:0,0:0:0:0:
369,225,196302,2,0,L|242:263,1,120.000000596046,8|8,0:0|0:0,0:0:0:0:
172,329,196728,6,0,B|156:308|148:284|162:259|157:239|138:198,1,120.000000596046,14|2,0:0|0:0,0:0:0:0:
36,177,197155,1,8,0:0:0:0:
137,108,197297,2,0,B|166:122|194:117|205:84|241:84|263:99,1,120.000000596046,2|2,0:0|0:0,0:0:0:0:
338,40,197724,1,8,0:0:0:0:
390,147,197866,6,0,P|404:218|374:284,1,120.000000596046,12|2,0:0|0:0,0:0:0:0:
296,322,198292,2,0,P|231:318|168:313,1,120.000000596046,8|8,0:0|0:0,0:0:0:0:
32,361,198861,1,8,0:0:0:0:
56,252,199003,6,0,B|57:206|57:206|44:179|44:179|46:112,1,120.000000596046,4|8,0:0|0:0,0:0:0:0:
74,52,199430,2,0,P|104:58|148:49,1,60.000000298023,8|2,0:0|0:0,0:0:0:0:
218,42,199714,1,12,0:3:0:0:
279,121,199856,1,2,0:0:0:0:
339,53,199999,1,2,0:0:0:0:
439,98,200141,5,8,0:0:0:0:
439,98,201278,6,0,P|456:143|459:175,1,60.000000298023,14|0,0:0|0:0,0:0:0:0:
463,280,201558,1,2,0:0:0:0:
463,280,201697,2,0,L|523:322,1,60.000000298023,8|2,0:0|0:0,0:0:0:0:
374,344,201975,2,0,P|337:341|313:322,2,60.000000298023,8|8|8,0:0|0:0|0:0,0:0:0:0:
375,250,202392,5,12,0:0:0:0:
375,250,203127,6,0,L|449:299,2,60.000000298023,10|10|10,0:0|0:0|0:0,0:0:0:0:
282,245,203553,6,0,P|294:320|267:381,1,120.000000596046,6|0,0:0|3:0,0:0:0:0:
193,301,203979,2,0,L|193:232,1,60.000000298023,8|0,0:0|0:0,0:0:0:0:
122,159,204263,2,0,B|163:156|163:156|198:122|198:122|252:120,1,120.000000596046,4|8,0:3|0:0,0:0:0:0:
346,112,204690,6,0,P|394:179|403:228,1,120.000000596046,6|2,0:0|0:0,0:0:0:0:
433,326,205116,1,8,0:0:0:0:
433,326,205401,2,0,B|411:342|382:340|364:317|344:317|293:333,1,120.000000596046,2|8,0:0|0:0,0:0:0:0:
217,309,205827,6,0,L|211:174,1,120.000000596046,6|0,0:0|3:0,0:0:0:0:
179,92,206254,2,0,L|107:99,1,60.000000298023,8|0,0:0|0:0,0:0:0:0:
27,154,206538,2,0,P|1:210|24:268,1,120.000000596046,4|8,0:3|0:0,0:0:0:0:
67,349,206965,6,0,B|91:360|117:355|132:332|162:330|198:350,1,120.000000596046,6|2,0:0|0:0,0:0:0:0:
276,320,207391,1,8,0:0:0:0:
276,320,207533,2,0,L|289:393,2,60.000000298023,2|4|4,0:2|0:3|0:3,0:0:0:0:
230,216,207960,1,8,0:0:0:0:
230,216,208102,6,0,P|284:205|368:215,1,120.000000596046,6|0,0:0|3:0,0:0:0:0:
424,267,208529,2,0,L|426:339,1,60.000000298023,8|0,0:0|0:0,0:0:0:0:
509,251,208813,2,0,L|498:111,1,120.000000596046,4|8,0:3|0:0,0:0:0:0:
395,71,209240,6,0,P|327:64|269:89,1,120.000000596046,6|2,0:0|0:0,0:0:0:0:
195,142,209666,1,8,0:0:0:0:
195,142,209950,2,0,B|181:172|181:192|205:220|199:247|184:280,1,120.000000596046,2|8,0:0|0:0,0:0:0:0:
129,352,210377,6,0,P|181:339|260:361,1,120.000000596046,6|0,0:0|3:0,0:0:0:0:
353,353,210804,2,0,P|352:317|342:275,1,60.000000298023,8|0,0:0|0:0,0:0:0:0:
446,247,211088,2,0,L|432:106,1,120.000000596046,4|8,0:3|0:0,0:0:0:0:
400,14,211514,6,0,L|466:10,2,60.000000298023,6|2|2,0:0|0:2|0:0,0:0:0:0:
287,90,211941,1,8,0:0:0:0:
287,90,212083,2,0,B|256:90|256:90|211:104|211:104|154:107,1,120.000000596046,2|4,0:2|0:3,0:0:0:0:
69,147,212510,1,8,0:0:0:0:
69,147,212652,6,0,P|57:208|77:283,1,120.000000596046,6|0,0:0|3:0,0:0:0:0:
168,261,213078,2,0,P|204:257|241:260,1,60.000000298023,8|0,0:0|0:0,0:0:0:0:
322,189,213363,2,0,B|315:202|316:247|343:244|343:283|331:305,1,120.000000596046,4|8,0:3|0:0,0:0:0:0:
435,362,213789,6,0,P|447:312|432:243,1,120.000000596046,6|2,0:0|0:0,0:0:0:0:
458,141,214216,1,8,0:0:0:0:
458,141,214500,2,0,B|443:114|426:95|393:105|375:92|361:59,1,120.000000596046,2|8,0:0|0:0,0:0:0:0:
284,0,214927,6,0,P|257:44|258:114,1,120.000000596046,6|0,0:0|3:0,0:0:0:0:
254,205,215353,2,0,L|169:204,1,60.000000298023,8|0,0:0|0:0,0:0:0:0:
274,305,215638,2,0,B|297:315|331:315|342:286|373:290|403:300,1,120.000000596046,4|8,0:3|0:0,0:0:0:0:
496,360,216064,6,0,P|503:298|484:231,1,120.000000596046,6|2,0:0|0:0,0:0:0:0:
432,160,216491,1,8,0:0:0:0:
432,160,216633,2,0,L|434:89,2,60.000000298023,2|4|4,0:2|0:3|0:3,0:0:0:0:
330,194,217059,1,8,0:0:0:0:
330,194,217202,6,0,B|299:200|291:213|291:213|253:208|253:208|235:225|203:225,1,120.000000596046,6|0,0:0|3:0,0:0:0:0:
146,307,217601,2,0,P|120:277|109:240,1,60.000000298023,8|0,0:0|0:0,0:0:0:0:
11,227,217885,2,0,P|48:176|58:95,1,120.000000596046,4|8,0:3|0:0,0:0:0:0:
40,25,218311,6,0,P|107:40|143:95,1,120.000000596046,6|2,0:0|0:0,0:0:0:0:
226,83,218738,2,0,L|260:142,1,60.000000298023,8|2,0:0|0:0,0:0:0:0:
344,206,219022,2,0,L|349:285,2,60.000000298023,12|2|8,0:3|0:0|0:0,0:0:0:0:
447,152,219449,6,0,L|447:297,1,120.000000596046,6|0,0:0|3:0,0:0:0:0:
357,358,219875,2,0,P|305:353|273:354,1,60.000000298023,8|2,0:0|0:0,0:0:0:0:
235,287,220160,1,12,0:3:0:0:
173,370,220302,1,2,1:2:0:0:
68,347,220459,1,8,0:0:0:0:
68,347,220617,6,0,P|40:315|37:227,1,120.000000596046,6|2,0:0|0:0,0:0:0:0:
54,152,221035,2,0,L|121:155,1,60.000000298023,8|2,0:0|0:2,0:0:0:0:
206,131,221314,2,0,L|275:164,1,60.000000298023,4|4,0:3|0:3,0:0:0:0:
367,173,221593,1,8,0:0:0:0:
420,91,221732,5,4,0:0:0:0:
420,91,222889,6,0,L|457:218,1,120.000000596046,14|14,0:0|0:0,0:0:0:0:
408,303,223315,2,0,L|428:365,2,60.000000298023,8|2|8,0:0|0:0|0:0,0:0:0:0:
319,262,223742,2,0,L|305:195,1,60.000000298023,2|8,0:0|0:0,0:0:0:0:
223,169,224026,5,14,0:0:0:0:
223,169,224311,2,0,L|184:217,1,60.000000298023,2|6,0:0|0:0,0:0:0:0:
90,281,224595,2,0,L|61:150,1,120.000000596046,2|2,0:0|0:0,0:0:0:0:
0,75,225022,1,8,0:0:0:0:
85,20,225164,5,14,0:0:0:0:
146,108,225448,1,14,0:0:0:0:
245,136,225590,2,0,P|290:147|364:126,1,120.000000596046,8|8,0:0|0:0,0:0:0:0:
443,85,226017,1,8,0:0:0:0:
444,180,226159,1,2,0:0:0:0:
359,128,226301,5,14,0:0:0:0:
360,129,228149,6,0,L|366:213,1,60.000000298023,2|8,0:0|0:0,0:0:0:0:
320,263,228434,5,8,0:0:0:0:
389,320,228576,5,12,0:0:0:0:
