osu file format v14

[General]
AudioFilename: Sekishinsei Kamatoto Araryouji.mp3
AudioLeadIn: 0
PreviewTime: 47602
Countdown: 0
SampleSet: Normal
StackLeniency: 0.7
Mode: 0
LetterboxInBreaks: 1
WidescreenStoryboard: 1

[Editor]
DistanceSpacing: 1
BeatDivisor: 2
GridSize: 8
TimelineZoom: 1

[Metadata]
Title:Sekishinsei: Kamatoto Araryouji
TitleUnicode:赤心性:カマトト荒療治
Artist:Suzumu
ArtistUnicode:スズム
Creator:Handryan Bros
Version:Normal
Source:Vocaloid
Tags:鏡音 リン レン kagamine len rin
BeatmapID:768367
BeatmapSetID:347892

[Difficulty]
HPDrainRate:3
CircleSize:3
OverallDifficulty:3
ApproachRate:4
SliderMultiplier:0.9
SliderTickRate:1

[Events]
//Background and Video events
0,0,"BG.jpg",0,0
//Break Periods
2,66534,75258
2,155509,172721
//Storyboard Layer 0 (Background)
//Storyboard Layer 1 (Fail)
//Storyboard Layer 2 (Pass)
//Storyboard Layer 3 (Foreground)
//Storyboard Sound Samples

[TimingPoints]
1301.61894868731,294.117647058824,4,2,1,10,1,0
4831,-100,4,2,1,20,0,0
8360,-100,4,2,1,30,0,0
13066,292.682926829268,4,1,2,80,1,0
22431,-100,4,1,1,80,0,0
24773,-100,4,1,1,80,0,0
43505,-100,4,1,3,80,0,0
48187,-80,4,1,1,80,0,1
66919,-100,4,2,1,80,0,0
76285,-100,4,2,1,50,0,0
85651,-100,4,1,1,80,0,0
95017,-133.333333333333,4,2,1,80,0,0
99700,-100,4,1,1,80,0,0
104383,-80,4,1,1,80,0,1
123114,-100,4,1,2,50,0,0
125456,-100,4,1,2,55,0,0
127797,-100,4,1,2,60,0,0
128968,-100,4,1,2,65,0,0
130139,-100,4,1,2,70,0,0
130724,-100,4,1,2,75,0,0
131309,-100,4,1,2,80,0,0
151212,-100,4,1,2,50,0,0
155602,-100,4,1,1,70,0,0
173748,-100,4,2,1,50,0,0
182236,-100,4,2,1,30,0,0
185163,-80,4,1,1,80,0,1
206236,-100,4,1,2,80,0,0
224968,-100,4,1,1,80,0,0

[Colours]
Combo1 : 0,0,128
Combo2 : 255,0,0
Combo3 : 255,0,128
Combo4 : 0,255,0
Combo5 : 0,255,255
Combo6 : 255,255,0

[HitObjects]
120,192,13066,6,0,P|80:128|96:64,2,135
176,120,14236,2,0,P|216:112|264:128,1,90
336,184,14822,1,0,0:0:0:0:
488,72,15407,2,0,P|448:48|400:56,1,90
424,144,15992,2,0,P|379:148|342:124,1,90
264,64,16578,2,0,L|80:96,1,180
88,296,17748,6,0,P|160:320|264:272,1,180
320,216,18626,1,0,0:0:0:0:
408,170,18919,2,0,L|256:58,1,180
168,88,19797,1,0,0:0:0:0:
128,184,20090,2,0,P|152:240|120:312,2,135
56,248,21261,5,0,0:0:0:0:
24,56,21846,1,0,0:0:0:0:
224,32,22431,2,0,L|288:32,2,45
368,144,23309,2,0,L|312:144,2,45
272,328,24187,5,0,0:0:0:0:
176,304,24480,1,0,0:0:0:0:
104,232,24773,6,0,L|96:128,1,90
160,64,25358,2,0,P|216:48|264:72,1,90
280,80,25797,2,0,P|336:96|376:80,1,90
400,120,26236,2,0,L|448:32,2,90
376,160,26968,1,0,0:0:0:0:
360,296,27407,5,0,0:0:0:0:
280,336,27700,2,0,P|272:280|288:240,1,90
304,160,28285,2,0,L|216:144,1,90
128,120,28870,1,0,0:0:0:0:
40,96,29163,1,0,0:0:0:0:
88,272,29748,5,0,0:0:0:0:
160,328,30041,2,0,P|232:344|296:304,2,135
216,256,31212,2,0,L|200:160,1,90
56,56,32090,5,0,0:0:0:0:
24,144,32383,2,0,P|16:208|32:240,1,90
104,288,32968,1,0,0:0:0:0:
200,296,33261,1,0,0:0:0:0:
272,232,33553,2,0,P|328:216|368:224,1,90
432,288,34139,6,0,P|456:248|456:200,1,90
480,112,34724,2,0,P|444:81|397:73,1,90
312,32,35309,2,0,P|275:61|259:106,1,90
312,184,35895,1,0,0:0:0:0:
160,304,36480,6,0,L|64:320,1,90
88,224,37065,2,0,L|184:208,1,90
272,232,37651,2,0,P|320:248|368:240,1,90
328,152,38236,1,0,0:0:0:0:
160,48,38822,6,0,P|104:120|104:216,1,180
168,272,39700,1,0,0:0:0:0:
256,312,39992,2,0,P|312:320|344:304,1,90
400,224,40578,1,0,0:0:0:0:
288,56,41163,6,0,P|232:80|192:72,1,90
112,48,41748,2,0,P|67:47|28:68,1,90
16,168,42334,1,0,0:0:0:0:
168,288,42919,1,0,0:0:0:0:
224,96,43505,1,0,0:0:0:0:
368,320,44675,5,0,0:0:0:0:
80,248,45553,2,0,L|112:152,1,90
392,80,46724,2,0,L|320:144,1,90
160,64,47602,5,0,0:0:0:0:
80,128,47895,1,0,0:0:0:0:
64,232,48187,2,0,P|112:256|176:248,1,112.5
240,160,48773,2,0,L|360:184,1,112.5
408,280,49358,1,0,0:0:0:0:
480,192,49651,1,0,0:0:0:0:
440,88,49944,1,0,0:0:0:0:
232,16,50529,6,0,P|176:8|64:128,1,225
112,216,51407,1,0,0:0:0:0:
8,264,51700,2,0,P|40:304|112:328,1,112.5
208,320,52285,2,0,P|248:288|264:216,1,112.5
224,128,52870,5,0,0:0:0:0:
432,48,53456,1,0,0:0:0:0:
456,272,54041,2,0,P|408:304|352:304,1,112.5
248,280,54626,1,0,0:0:0:0:
64,152,55212,6,0,L|48:40,1,112.5
160,56,55797,2,0,P|208:72|272:64,1,112.5
368,16,56383,5,0,0:0:0:0:
496,200,56968,1,0,0:0:0:0:
296,96,57553,5,0,0:0:0:0:
272,208,57846,2,0,L|280:328,1,112.5
168,344,58431,1,0,0:0:0:0:
80,280,58724,2,0,P|48:208|112:72,1,225
328,72,59895,6,0,L|456:56,1,112.5
384,152,60480,2,0,L|288:216,1,112.5
256,320,61065,2,0,P|200:296|176:248,1,112.5
168,152,61651,1,0,0:0:0:0:
104,56,61944,1,0,0:0:0:0:
216,32,62236,5,0,0:0:0:0:
304,240,62822,1,0,0:0:0:0:
480,96,63407,2,0,L|496:208,1,112.5
464,312,63992,1,0,0:0:0:0:
360,352,64285,1,0,0:0:0:0:
264,288,64578,6,0,P|192:320|56:264,1,225
8,176,65456,1,0,0:0:0:0:
96,104,65748,2,0,L|104:40,2,56.25
176,184,66334,1,0,0:0:0:0:
96,88,76578,5,0,0:0:0:0:
32,168,76870,2,0,P|16:240|80:336,1,180
168,344,77748,1,0,0:0:0:0:
248,280,78041,2,0,L|336:264,1,90
432,248,78626,5,0,0:0:0:0:
464,152,78919,1,0,0:0:0:0:
416,64,79212,2,0,L|320:40,1,90
344,144,79797,5,0,0:0:0:0:
256,192,80090,1,0,0:0:0:0:
168,152,80383,2,0,L|72:152,1,90
184,320,81261,5,0,0:0:0:0:
280,344,81553,2,0,P|352:352|448:304,1,180
464,208,82431,1,0,0:0:0:0:
376,160,82724,2,0,L|384:64,1,90
192,40,83602,5,0,0:0:0:0:
120,96,83895,2,0,L|96:192,1,90
192,184,84480,2,0,L|208:280,1,90
296,304,85065,2,0,L|344:312,2,45
224,360,85651,6,0,P|184:376|128:360,1,90
72,304,86236,2,0,L|56:208,1,90
112,144,86822,2,0,P|168:144|200:120,1,90
232,48,87407,1,0,0:0:0:0:
408,96,87992,6,0,P|400:144|424:184,1,90
296,192,88578,2,0,P|324:231|369:242,1,90
296,336,89163,2,0,P|344:344|384:320,1,90
448,264,89748,1,0,0:0:0:0:
368,104,90334,6,0,L|304:32,1,90
272,120,90919,2,0,P|208:160|112:136,1,180
48,72,91797,1,0,0:0:0:0:
0,152,92090,1,0,0:0:0:0:
96,304,92675,6,0,P|144:320|192:304,1,90
144,224,93261,2,0,P|187:215|229:230,1,90
304,280,93846,1,0,0:0:0:0:
390,302,94139,1,0,0:0:0:0:
439,227,94431,1,0,0:0:0:0:
382,157,94724,1,0,0:0:0:0:
299,189,95017,5,0,0:0:0:0:
128,88,95895,2,0,L|144:160,1,67.5000025749208
280,304,97065,2,0,L|344:304,2,33.7500012874604
80,304,98236,2,0,L|72:224,1,67.5000025749208
152,48,99407,5,0,0:0:0:0:
184,128,99700,2,0,P|248:144|352:96,1,180
416,32,100578,1,0,0:0:0:0:
480,96,100870,2,0,L|496:200,1,90
424,240,101456,2,0,L|440:344,1,90
352,312,102041,6,0,P|256:344|176:304,1,180
112,272,102919,1,0,0:0:0:0:
80,184,103212,1,0,0:0:0:0:
208,56,103797,5,0,0:0:0:0:
320,24,104090,1,0,0:0:0:0:
424,48,104383,2,0,P|448:112|440:168,1,112.5
336,128,104968,2,0,P|333:183|356:234,1,112.5
456,288,105553,1,0,0:0:0:0:
352,336,105846,1,0,0:0:0:0:
240,320,106139,2,0,P|176:304|80:176,1,225
80,72,107017,5,0,0:0:0:0:
192,56,107309,2,0,L|312:40,1,112.5
392,104,107895,1,0,0:0:0:0:
496,152,108187,1,0,0:0:0:0:
408,200,108480,1,0,0:0:0:0:
304,232,108773,1,0,0:0:0:0:
240,320,109065,6,0,P|184:336|128:320,1,112.5
16,320,109651,2,0,P|30:263|72:223,1,112.5
183,219,110236,2,0,P|168:166|128:128,2,112.5
336,56,111407,6,0,P|392:40|448:56,1,112.5
392,152,111992,2,0,L|432:264,1,112.5
480,360,112578,5,0,0:0:0:0:
280,256,113163,1,0,0:0:0:0:
64,320,113748,5,0,0:0:0:0:
80,208,114041,1,0,0:0:0:0:
64,96,114334,2,0,L|8:64,2,56.25
176,112,114919,1,0,0:0:0:0:
240,208,115212,2,0,P|296:232|352:216,1,112.5
456,24,116090,5,0,0:0:0:0:
408,128,116383,1,0,0:0:0:0:
464,224,116675,2,0,L|432:344,1,112.5
320,344,117261,1,0,0:0:0:0:
224,288,117553,1,0,0:0:0:0:
200,176,117846,1,0,0:0:0:0:
256,80,118139,1,0,0:0:0:0:
360,32,118431,5,0,0:0:0:0:
312,248,119017,1,0,0:0:0:0:
480,168,119602,2,0,P|488:112|464:56,1,112.5
376,128,120187,1,0,0:0:0:0:
168,48,120773,6,0,P|104:128|136:240,1,225
224,304,121651,1,0,0:0:0:0:
312,240,121944,2,0,L|304:176,2,56.25
408,296,122529,1,0,0:0:0:0:
456,104,123114,5,0,0:0:0:0:
368,120,125456,5,0,0:0:0:0:
280,136,127797,5,0,0:0:0:0:
192,152,128968,5,0,0:0:0:0:
96,312,130139,2,0,P|176:336|232:304,1,135
256,272,130724,2,0,P|318:250|379:276,1,135
416,320,131309,1,0,0:0:0:0:
472,224,131602,1,0,0:0:0:0:
432,120,131895,1,0,0:0:0:0:
264,56,132480,6,0,P|184:32|88:96,1,180
56,176,133358,1,0,0:0:0:0:
136,248,133651,2,0,L|160:336,2,90
200,160,134529,1,0,0:0:0:0:
280,88,134822,2,0,P|352:72|432:136,1,180
448,240,135700,1,0,0:0:0:0:
368,312,135992,2,0,L|264:328,3,90
216,240,137163,6,0,P|120:264|32:208,1,180
24,128,138041,1,0,0:0:0:0:
96,48,138334,2,0,P|192:24|280:80,1,180
320,152,139212,1,0,0:0:0:0:
392,232,139505,2,0,L|408:328,1,90
312,376,140090,2,0,P|288:320|296:280,1,90
240,200,140675,2,0,L|152:184,2,90
448,136,141846,6,0,L|432:32,1,90
328,24,142431,2,0,L|344:128,1,90
296,216,143017,2,0,P|248:240|192:224,1,90
152,144,143602,2,0,P|200:120|256:136,1,90
341,112,144187,6,0,P|405:168|405:280,1,180
344,344,145065,1,0,0:0:0:0:
248,288,145358,2,0,L|152:296,3,90
72,360,146529,6,0,P|40:296|104:200,1,180
176,144,147407,1,0,0:0:0:0:
264,80,147700,2,0,P|320:64|360:80,1,90
456,96,148285,2,0,L|448:192,1,90
416,288,148870,5,0,0:0:0:0:
312,320,149163,1,0,0:0:0:0:
208,280,149456,2,0,L|128:304,2,45
272,192,150041,2,0,P|296:144|264:64,2,135
176,240,151212,5,0,0:0:0:0:
96,208,151505,2,0,L|8:224,2,90
136,128,152383,2,0,P|120:80|136:40,1,90
216,80,152968,2,0,P|232:128|216:168,1,90
272,232,153553,1,0,0:0:0:0:
432,152,154139,1,0,0:0:0:0:
392,328,154724,2,0,L|488:368,2,90
80,80,174041,5,0,0:0:0:0:
56,168,174334,1,0,0:0:0:0:
112,240,174626,2,0,P|176:264|272:216,1,180
256,128,175505,1,0,0:0:0:0:
320,64,175797,2,0,L|408:48,2,90
144,80,176968,5,0,0:0:0:0:
73,133,177260,1,0,0:0:0:0:
53,219,177553,1,0,0:0:0:0:
91,298,177846,1,0,0:0:0:0:
171,336,178138,1,4,0:0:0:0:
232,64,179309,5,0,0:0:0:0:
336,312,180187,2,0,L|432:320,1,90
360,128,181651,5,0,0:0:0:0:
280,80,181944,1,0,0:0:0:0:
192,80,182236,2,0,P|136:88|104:120,1,90
256,192,182822,12,0,184870,0:0:0:0:
224,40,185163,6,0,P|168:24|104:48,1,112.5
104,152,185748,2,0,P|160:168|224:144,1,112.5
312,112,186334,1,0,0:0:0:0:
368,208,186626,1,0,0:0:0:0:
344,320,186919,2,0,P|224:344|120:296,1,225
64,216,187797,1,0,0:0:0:0:
64,104,188090,2,0,P|110:72|164:54,1,112.5
272,40,188675,5,0,0:0:0:0:
360,104,188968,1,0,0:0:0:0:
328,216,189261,1,0,0:0:0:0:
216,216,189553,1,0,0:0:0:0:
192,112,189846,5,0,0:0:0:0:
48,280,190431,1,0,0:0:0:0:
272,296,191017,2,0,P|312:344|368:352,1,112.5
368,240,191602,1,0,0:0:0:0:
440,56,192187,6,0,P|328:32|224:80,1,225
168,168,193065,1,0,0:0:0:0:
152,280,193358,5,0,0:0:0:0:
376,320,193944,1,0,0:0:0:0:
424,96,194529,5,0,0:0:0:0:
304,64,194822,2,0,L|192:56,1,112.5
88,104,195407,1,0,0:0:0:0:
56,208,195700,2,0,B|48:256|96:296|96:296|152:248|224:288,1,225
456,208,196870,6,0,B|464:256|416:296|416:296|360:248|288:288,1,225
200,328,197748,1,0,0:0:0:0:
120,248,198041,2,0,P|96:192|120:144,1,112.5
216,96,198626,2,0,P|240:152|216:200,1,112.5
288,288,199212,5,0,0:0:0:0:
440,120,199797,1,0,0:0:0:0:
232,208,200383,2,0,L|112:168,2,112.5
336,256,201261,1,0,0:0:0:0:
440,216,201553,6,0,B|432:152|464:104|464:104|400:96|352:64,1,225
256,112,202431,1,0,0:0:0:0:
160,176,202724,2,0,L|48:184,2,112.5
280,320,203748,5,0,0:0:0:0:
280,320,203895,2,0,P|336:352|440:328,2,168.75
200,240,205065,1,0,0:0:0:0:
176,128,205358,1,0,0:0:0:0:
248,40,205651,1,0,0:0:0:0:
424,80,206236,6,0,P|440:128|400:208,2,135
352,136,207407,2,0,L|256:120,1,90
176,128,207992,2,0,P|128:152|88:144,1,90
32,80,208578,1,0,0:0:0:0:
72,256,209163,1,0,0:0:0:0:
248,216,209748,2,0,L|280:312,2,90
184,48,210919,6,0,P|232:32|312:56,2,135
112,96,212090,2,0,P|144:128|200:128,1,90
264,176,212675,2,0,L|288:272,1,90
360,320,213261,6,0,P|304:352|224:336,2,135
448,344,214431,1,0,0:0:0:0:
488,168,215017,1,0,0:0:0:0:
312,200,215602,5,0,0:0:0:0:
240,256,215895,1,0,0:0:0:0:
240,256,216041,2,0,P|176:272|112:232,1,135
48,184,216773,2,0,L|32:320,2,135
16,96,217944,1,0,0:0:0:0:
192,64,218529,1,0,0:0:0:0:
336,176,219114,2,0,L|384:160,2,45
256,216,219700,1,0,0:0:0:0:
112,328,220285,6,0,L|96:232,1,90
64,208,220724,2,0,P|32:160|56:88,1,135
128,144,221456,1,0,0:0:0:0:
288,56,222041,1,0,0:0:0:0:
432,168,222626,6,0,P|448:216|408:288,2,135
448,80,223797,1,0,0:0:0:0:
280,152,224383,1,0,0:0:0:0:
136,256,224968,6,0,L|128:312,3,45
264,280,225846,6,0,L|272:224,3,45
