osu file format v14

[General]
AudioFilename: audio.mp3
AudioLeadIn: 0
PreviewTime: -1
Countdown: 0
SampleSet: Normal
StackLeniency: 0.7
Mode: 1
LetterboxInBreaks: 0
WidescreenStoryboard: 1

[Editor]
Bookmarks: 15415,27715,56515,75715
DistanceSpacing: 1.2
BeatDivisor: 2
GridSize: 32
TimelineZoom: 1.4

[Metadata]
Title:Kakumeisei ousama densenbyou
TitleUnicode:Kakumeisei ousama densenbyou
Artist:Suzumu
ArtistUnicode:Suzumu
Creator:Tedward765
Version:Futsuu
Source:
Tags:
BeatmapID:1776054
BeatmapSetID:843358

[Difficulty]
HPDrainRate:7
CircleSize:5
OverallDifficulty:4
ApproachRate:5
SliderMultiplier:1.1
SliderTickRate:1

[Events]
//Background and Video events
0,0,"Suzumu - Kakumeisei ousama densenbyou background.jpg",0,0
//Break Periods
//Storyboard Layer 0 (Background)
//Storyboard Layer 1 (Fail)
//Storyboard Layer 2 (Pass)
//Storyboard Layer 3 (Foreground)
//Storyboard Sound Samples

[TimingPoints]
1315,300,4,1,0,100,1,0
15415,-86.7302688638335,4,1,0,100,0,0
27715,-100,4,1,0,100,0,0
56515,-86.9565217391304,4,1,0,100,0,1
66115,-86.9565217391304,4,1,0,100,0,0
68515,-86.9565217391304,4,1,0,100,0,1
75790,-100,4,1,0,100,0,0
94990,-95.2380952380952,4,1,0,100,0,0
104590,-100,4,1,0,100,0,0
114115,-86.9565217391304,4,1,0,100,0,1
123715,-86.9565217391304,4,1,0,100,0,0
126115,-86.9565217391304,4,1,0,100,0,1
133315,-86.9565217391304,4,1,0,100,0,0
153715,-86.9565217391304,4,1,0,100,0,1
163315,-86.9565217391304,4,1,0,100,0,0
165715,-86.9565217391304,4,1,0,100,0,1
172915,-86.9565217391304,4,1,0,100,0,0

[HitObjects]
256,192,1315,5,4,0:0:0:0:
256,192,2515,1,4,0:0:0:0:
256,192,2815,1,4,0:0:0:0:
256,192,3115,1,4,0:0:0:0:
256,192,3715,1,4,0:0:0:0:
256,192,4315,1,4,0:0:0:0:
256,192,4915,1,4,0:0:0:0:
256,192,5215,1,4,0:0:0:0:
256,192,5515,1,4,0:0:0:0:
256,192,6115,1,4,0:0:0:0:
256,192,6715,1,4,0:0:0:0:
256,192,7315,1,4,0:0:0:0:
256,192,7615,1,4,0:0:0:0:
256,192,7915,1,4,0:0:0:0:
256,192,8515,1,4,0:0:0:0:
256,192,9115,1,4,0:0:0:0:
256,192,9715,1,4,0:0:0:0:
256,192,10315,12,0,14215,0:0:0:0:
256,192,15715,5,4,0:0:0:0:
256,192,16015,1,8,0:0:0:0:
256,192,16315,1,0,0:0:0:0:
256,192,16465,1,0,0:0:0:0:
256,192,16615,1,0,0:0:0:0:
256,192,16915,1,0,0:0:0:0:
256,192,17215,1,8,0:0:0:0:
256,192,17515,1,0,0:0:0:0:
256,192,18115,1,0,0:0:0:0:
256,192,18415,1,8,0:0:0:0:
256,192,18715,1,8,0:0:0:0:
256,192,18865,1,8,0:0:0:0:
256,192,19015,1,8,0:0:0:0:
256,192,19315,1,0,0:0:0:0:
256,192,19615,1,8,0:0:0:0:
256,192,19915,1,8,0:0:0:0:
256,192,20515,1,12,0:0:0:0:
256,192,20815,1,0,0:0:0:0:
256,192,21115,1,8,0:0:0:0:
256,192,21415,1,0,0:0:0:0:
256,192,21565,1,0,0:0:0:0:
256,192,21715,1,0,0:0:0:0:
256,192,22015,1,8,0:0:0:0:
256,192,22315,1,0,0:0:0:0:
256,192,22915,1,0,0:0:0:0:
256,192,23215,1,8,0:0:0:0:
256,192,23515,1,0,0:0:0:0:
256,192,23815,1,8,0:0:0:0:
256,192,23965,1,8,0:0:0:0:
256,192,24115,1,8,0:0:0:0:
256,192,24415,1,8,0:0:0:0:
256,192,24715,1,0,0:0:0:0:
256,192,25015,1,0,0:0:0:0:
256,192,25315,1,4,0:0:0:0:
256,192,25915,1,4,0:0:0:0:
256,192,26515,1,4,0:0:0:0:
256,192,26665,1,4,0:0:0:0:
256,192,26965,1,4,0:0:0:0:
256,192,27715,5,0,0:0:0:0:
256,192,28015,1,8,0:0:0:0:
256,192,28315,1,0,0:0:0:0:
256,192,28615,1,8,0:0:0:0:
256,192,28915,1,0,0:0:0:0:
256,192,29515,1,0,0:0:0:0:
256,192,29815,1,8,0:0:0:0:
256,192,30115,1,0,0:0:0:0:
256,192,30715,1,0,0:0:0:0:
256,192,31015,1,8,0:0:0:0:
256,192,31315,1,8,0:0:0:0:
256,192,31615,1,0,0:0:0:0:
256,192,31915,1,0,0:0:0:0:
256,192,32215,1,8,0:0:0:0:
256,192,32365,1,0,0:0:0:0:
256,192,32515,1,0,0:0:0:0:
256,192,33115,1,0,0:0:0:0:
256,192,33415,1,8,0:0:0:0:
256,192,33715,1,0,0:0:0:0:
256,192,34315,1,0,0:0:0:0:
256,192,34615,1,8,0:0:0:0:
256,192,34915,1,0,0:0:0:0:
256,192,35215,1,8,0:0:0:0:
256,192,35365,1,0,0:0:0:0:
256,192,35515,1,0,0:0:0:0:
256,192,35815,1,8,0:0:0:0:
256,192,36115,1,8,0:0:0:0:
256,192,36715,1,8,0:0:0:0:
256,192,36865,1,8,0:0:0:0:
256,192,37015,1,8,0:0:0:0:
256,192,37315,1,12,0:0:0:0:
256,192,37915,1,0,0:0:0:0:
256,192,38515,1,0,0:0:0:0:
256,192,38815,1,8,0:0:0:0:
256,192,39115,1,8,0:0:0:0:
256,192,39415,1,0,0:0:0:0:
256,192,39565,1,0,0:0:0:0:
256,192,39715,1,0,0:0:0:0:
256,192,40315,1,8,0:0:0:0:
256,192,40615,1,0,0:0:0:0:
256,192,40915,1,0,0:0:0:0:
256,192,41215,1,8,0:0:0:0:
256,192,41365,1,8,0:0:0:0:
256,192,41515,1,8,0:0:0:0:
256,192,41815,1,0,0:0:0:0:
256,192,42115,1,12,0:0:0:0:
256,192,42715,1,0,0:0:0:0:
256,192,43015,1,8,0:0:0:0:
256,192,43315,1,8,0:0:0:0:
256,192,43615,1,0,0:0:0:0:
256,192,43915,1,0,0:0:0:0:
256,192,44215,1,0,0:0:0:0:
256,192,44365,1,0,0:0:0:0:
256,192,44515,1,8,0:0:0:0:
256,192,45115,1,8,0:0:0:0:
256,192,45415,1,8,0:0:0:0:
256,192,45715,1,8,0:0:0:0:
256,192,45865,1,8,0:0:0:0:
256,192,46015,1,8,0:0:0:0:
256,192,46315,1,8,0:0:0:0:
256,192,46615,1,8,0:0:0:0:
256,192,46765,1,8,0:0:0:0:
256,192,46915,1,0,0:0:0:0:
256,192,47515,1,8,0:0:0:0:
256,192,48115,1,0,0:0:0:0:
256,192,48715,1,8,0:0:0:0:
256,192,49315,1,0,0:0:0:0:
256,192,49915,1,8,0:0:0:0:
256,192,50515,1,0,0:0:0:0:
256,192,51115,1,8,0:0:0:0:
256,192,51415,1,0,0:0:0:0:
256,192,51715,1,4,0:0:0:0:
256,192,52315,1,8,0:0:0:0:
256,192,52915,1,0,0:0:0:0:
256,192,53515,1,8,0:0:0:0:
256,192,54115,12,0,56215,0:0:0:0:
256,192,56515,5,4,0:0:0:0:
256,192,56815,1,8,0:0:0:0:
256,192,57115,1,0,0:0:0:0:
256,192,57415,1,8,0:0:0:0:
256,192,57565,1,8,0:0:0:0:
256,192,57715,1,8,0:0:0:0:
256,192,58015,1,0,0:0:0:0:
256,192,58315,1,8,0:0:0:0:
256,192,58915,1,0,0:0:0:0:
256,192,59215,1,8,0:0:0:0:
256,192,59515,1,0,0:0:0:0:
256,192,60115,1,0,0:0:0:0:
256,192,60415,1,8,0:0:0:0:
256,192,60565,1,0,0:0:0:0:
256,192,60715,1,0,0:0:0:0:
256,192,61015,1,8,0:0:0:0:
256,192,61315,1,4,0:0:0:0:
256,192,61915,1,0,0:0:0:0:
256,192,62215,1,8,0:0:0:0:
256,192,62515,1,0,0:0:0:0:
256,192,62815,1,8,0:0:0:0:
256,192,62965,1,8,0:0:0:0:
256,192,63115,1,8,0:0:0:0:
256,192,63415,1,0,0:0:0:0:
256,192,63715,1,0,0:0:0:0:
256,192,64315,1,8,0:0:0:0:
256,192,64765,1,0,0:0:0:0:
256,192,65065,1,8,0:0:0:0:
256,192,65215,1,0,0:0:0:0:
256,192,65515,1,0,0:0:0:0:
256,192,65815,1,8,0:0:0:0:
256,192,66115,1,4,0:0:0:0:
256,192,66715,1,0,0:0:0:0:
256,192,67315,1,8,0:0:0:0:
256,192,67915,1,8,0:0:0:0:
256,192,68365,1,0,0:0:0:0:
256,192,68515,1,4,0:0:0:0:
256,192,69115,1,0,0:0:0:0:
256,192,69415,1,8,0:0:0:0:
256,192,69715,1,0,0:0:0:0:
256,192,70015,1,8,0:0:0:0:
256,192,70315,1,0,0:0:0:0:
256,192,70465,1,0,0:0:0:0:
256,192,70615,1,8,0:0:0:0:
256,192,70915,1,4,0:0:0:0:
256,192,71515,1,0,0:0:0:0:
256,192,71815,1,8,0:0:0:0:
256,192,72115,1,0,0:0:0:0:
256,192,72415,1,8,0:0:0:0:
256,192,72715,1,8,0:0:0:0:
256,192,73015,1,0,0:0:0:0:
256,192,73165,1,0,0:0:0:0:
256,192,73315,1,0,0:0:0:0:
256,192,73615,1,8,0:0:0:0:
256,192,73915,1,8,0:0:0:0:
256,192,74215,1,0,0:0:0:0:
256,192,74515,1,0,0:0:0:0:
256,192,75115,1,8,0:0:0:0:
256,192,75265,1,8,0:0:0:0:
256,192,75415,1,8,0:0:0:0:
256,192,75715,1,0,0:0:0:0:
256,192,76315,5,0,0:0:0:0:
256,192,76615,1,8,0:0:0:0:
256,192,76915,1,0,0:0:0:0:
256,192,77215,1,8,0:0:0:0:
256,192,77365,1,8,0:0:0:0:
256,192,77515,1,8,0:0:0:0:
256,192,77815,1,8,0:0:0:0:
256,192,78115,1,0,0:0:0:0:
256,192,78715,1,0,0:0:0:0:
256,192,79015,1,8,0:0:0:0:
256,192,79315,1,0,0:0:0:0:
256,192,79615,1,0,0:0:0:0:
256,192,79765,1,0,0:0:0:0:
256,192,79915,1,8,0:0:0:0:
256,192,80215,1,8,0:0:0:0:
256,192,80515,1,0,0:0:0:0:
256,192,81115,1,8,0:0:0:0:
256,192,81415,1,0,0:0:0:0:
256,192,81715,1,8,0:0:0:0:
256,192,82015,1,0,0:0:0:0:
256,192,82165,1,0,0:0:0:0:
256,192,82315,1,0,0:0:0:0:
256,192,82615,1,8,0:0:0:0:
256,192,82915,1,0,0:0:0:0:
256,192,83515,1,0,0:0:0:0:
256,192,83815,1,8,0:0:0:0:
256,192,84115,1,0,0:0:0:0:
256,192,84415,1,0,0:0:0:0:
256,192,84565,1,8,0:0:0:0:
256,192,84715,1,0,0:0:0:0:
256,192,85015,1,8,0:0:0:0:
256,192,85315,1,4,0:0:0:0:
256,192,85915,1,0,0:0:0:0:
256,192,86215,1,8,0:0:0:0:
256,192,86515,1,8,0:0:0:0:
256,192,86815,1,0,0:0:0:0:
256,192,87115,1,8,0:0:0:0:
256,192,87415,1,0,0:0:0:0:
256,192,87565,1,0,0:0:0:0:
256,192,87715,1,0,0:0:0:0:
256,192,88315,1,0,0:0:0:0:
256,192,88615,1,8,0:0:0:0:
256,192,88915,1,0,0:0:0:0:
256,192,89215,1,8,0:0:0:0:
256,192,89515,1,8,0:0:0:0:
256,192,89665,1,8,0:0:0:0:
256,192,89815,1,8,0:0:0:0:
256,192,90115,1,12,0:0:0:0:
256,192,90715,1,0,0:0:0:0:
256,192,91015,1,8,0:0:0:0:
256,192,91315,1,8,0:0:0:0:
256,192,91615,1,0,0:0:0:0:
256,192,91915,1,8,0:0:0:0:
256,192,92215,1,0,0:0:0:0:
256,192,92365,1,0,0:0:0:0:
256,192,92515,1,8,0:0:0:0:
256,192,93115,1,0,0:0:0:0:
256,192,93415,1,8,0:0:0:0:
256,192,93715,1,0,0:0:0:0:
256,192,94015,1,8,0:0:0:0:
256,192,94315,1,8,0:0:0:0:
256,192,94465,1,8,0:0:0:0:
256,192,94615,1,0,0:0:0:0:
256,192,94915,1,4,0:0:0:0:
256,192,95515,1,0,0:0:0:0:
256,192,95815,1,8,0:0:0:0:
256,192,96115,1,0,0:0:0:0:
256,192,96415,1,8,0:0:0:0:
256,192,96715,1,0,0:0:0:0:
256,192,96865,1,0,0:0:0:0:
256,192,97015,1,8,0:0:0:0:
256,192,97315,1,0,0:0:0:0:
256,192,97915,1,0,0:0:0:0:
256,192,98215,1,8,0:0:0:0:
256,192,98515,1,8,0:0:0:0:
256,192,98815,1,0,0:0:0:0:
256,192,99115,1,8,0:0:0:0:
256,192,99265,1,0,0:0:0:0:
256,192,99415,1,0,0:0:0:0:
256,192,99715,1,4,0:0:0:0:
256,192,100315,1,0,0:0:0:0:
256,192,100615,1,8,0:0:0:0:
256,192,100915,1,8,0:0:0:0:
256,192,101215,1,0,0:0:0:0:
256,192,101515,1,8,0:0:0:0:
256,192,101815,1,0,0:0:0:0:
256,192,101965,1,0,0:0:0:0:
256,192,102115,1,8,0:0:0:0:
256,192,102715,1,8,0:0:0:0:
256,192,103315,1,8,0:0:0:0:
256,192,103465,1,8,0:0:0:0:
256,192,103615,1,8,0:0:0:0:
256,192,103915,1,8,0:0:0:0:
256,192,104215,1,8,0:0:0:0:
256,192,104365,1,8,0:0:0:0:
256,192,104515,1,8,0:0:0:0:
256,192,105115,1,8,0:0:0:0:
256,192,105715,1,0,0:0:0:0:
256,192,106315,1,8,0:0:0:0:
256,192,106915,1,0,0:0:0:0:
256,192,107515,1,8,0:0:0:0:
256,192,108115,1,0,0:0:0:0:
256,192,108415,1,8,0:0:0:0:
256,192,108715,1,0,0:0:0:0:
256,192,109015,1,8,0:0:0:0:
256,192,109315,1,4,0:0:0:0:
256,192,109915,1,8,0:0:0:0:
256,192,110515,1,0,0:0:0:0:
256,192,111115,1,8,0:0:0:0:
256,192,111715,1,0,0:0:0:0:
256,192,112765,1,8,0:0:0:0:
256,192,113065,1,0,0:0:0:0:
256,192,113215,1,8,0:0:0:0:
256,192,113515,1,0,0:0:0:0:
256,192,114115,5,4,0:0:0:0:
256,192,114415,1,8,0:0:0:0:
256,192,114715,1,0,0:0:0:0:
256,192,115015,1,8,0:0:0:0:
256,192,115165,1,8,0:0:0:0:
256,192,115315,1,8,0:0:0:0:
256,192,115615,1,0,0:0:0:0:
256,192,115915,1,8,0:0:0:0:
256,192,116515,1,0,0:0:0:0:
256,192,116815,1,8,0:0:0:0:
256,192,117115,1,8,0:0:0:0:
256,192,117415,1,0,0:0:0:0:
256,192,117715,1,0,0:0:0:0:
256,192,118015,1,8,0:0:0:0:
256,192,118165,1,8,0:0:0:0:
256,192,118315,1,0,0:0:0:0:
256,192,118915,1,4,0:0:0:0:
256,192,119215,1,8,0:0:0:0:
256,192,119515,1,0,0:0:0:0:
256,192,119815,1,8,0:0:0:0:
256,192,120115,1,8,0:0:0:0:
256,192,120415,1,8,0:0:0:0:
256,192,120565,1,0,0:0:0:0:
256,192,120715,1,0,0:0:0:0:
256,192,121015,1,8,0:0:0:0:
256,192,121315,1,0,0:0:0:0:
256,192,121915,1,8,0:0:0:0:
256,192,122365,1,0,0:0:0:0:
256,192,122665,1,8,0:0:0:0:
256,192,122815,1,0,0:0:0:0:
256,192,123115,1,0,0:0:0:0:
256,192,123415,1,8,0:0:0:0:
256,192,123715,1,0,0:0:0:0:
256,192,124315,1,0,0:0:0:0:
256,192,124915,1,8,0:0:0:0:
256,192,125515,1,8,0:0:0:0:
256,192,125965,1,0,0:0:0:0:
256,192,126115,1,8,0:0:0:0:
256,192,126715,1,0,0:0:0:0:
256,192,127015,1,8,0:0:0:0:
256,192,127315,1,0,0:0:0:0:
256,192,127615,1,8,0:0:0:0:
256,192,127915,1,0,0:0:0:0:
256,192,128065,1,0,0:0:0:0:
256,192,128215,1,8,0:0:0:0:
256,192,128515,1,4,0:0:0:0:
256,192,129115,1,0,0:0:0:0:
256,192,129415,1,8,0:0:0:0:
256,192,129715,1,0,0:0:0:0:
256,192,130015,1,8,0:0:0:0:
256,192,130315,1,0,0:0:0:0:
256,192,130615,1,8,0:0:0:0:
256,192,130765,1,0,0:0:0:0:
256,192,130915,1,0,0:0:0:0:
256,192,131215,1,8,0:0:0:0:
256,192,131515,1,8,0:0:0:0:
256,192,131815,1,0,0:0:0:0:
256,192,132115,1,0,0:0:0:0:
256,192,132415,1,8,0:0:0:0:
256,192,132715,1,0,0:0:0:0:
256,192,133015,1,8,0:0:0:0:
256,192,133165,1,8,0:0:0:0:
256,192,133315,1,8,0:0:0:0:
256,192,133765,1,8,0:0:0:0:
256,192,134215,1,8,0:0:0:0:
256,192,134665,1,8,0:0:0:0:
256,192,135115,1,8,0:0:0:0:
256,192,135565,1,8,0:0:0:0:
256,192,135715,1,0,0:0:0:0:
256,192,136015,1,8,0:0:0:0:
256,192,136315,1,0,0:0:0:0:
256,192,136615,1,8,0:0:0:0:
256,192,136915,1,0,0:0:0:0:
256,192,137215,1,8,0:0:0:0:
256,192,137365,1,0,0:0:0:0:
256,192,137515,1,0,0:0:0:0:
256,192,138115,1,4,0:0:0:0:
256,192,138415,1,8,0:0:0:0:
256,192,138715,1,0,0:0:0:0:
256,192,139015,1,8,0:0:0:0:
256,192,139315,1,0,0:0:0:0:
256,192,139465,1,0,0:0:0:0:
256,192,139615,1,0,0:0:0:0:
256,192,139915,1,0,0:0:0:0:
256,192,140215,1,8,0:0:0:0:
256,192,140365,1,8,0:0:0:0:
256,192,140515,1,8,0:0:0:0:
256,192,140815,1,8,0:0:0:0:
256,192,141115,1,0,0:0:0:0:
256,192,141415,1,8,0:0:0:0:
256,192,141565,1,8,0:0:0:0:
256,192,141715,1,8,0:0:0:0:
256,192,142015,1,8,0:0:0:0:
256,192,142315,1,8,0:0:0:0:
256,192,142615,1,8,0:0:0:0:
256,192,142915,1,4,0:0:0:0:
256,192,143515,1,4,0:0:0:0:
256,192,143965,1,4,0:0:0:0:
256,192,144415,1,0,0:0:0:0:
256,192,145315,1,0,0:0:0:0:
256,192,145615,1,8,0:0:0:0:
256,192,145915,1,0,0:0:0:0:
256,192,146065,1,0,0:0:0:0:
256,192,146215,1,0,0:0:0:0:
256,192,146515,1,0,0:0:0:0:
256,192,146815,1,8,0:0:0:0:
256,192,147115,1,0,0:0:0:0:
256,192,147415,1,8,0:0:0:0:
256,192,147565,1,8,0:0:0:0:
256,192,147715,1,12,0:0:0:0:
256,192,148315,1,0,0:0:0:0:
256,192,148615,1,8,0:0:0:0:
256,192,148915,1,0,0:0:0:0:
256,192,149215,1,8,0:0:0:0:
256,192,149515,1,0,0:0:0:0:
256,192,149665,1,0,0:0:0:0:
256,192,149815,1,8,0:0:0:0:
256,192,150115,1,0,0:0:0:0:
256,192,150415,1,8,0:0:0:0:
256,192,150565,1,8,0:0:0:0:
256,192,150715,1,8,0:0:0:0:
256,192,151315,1,0,0:0:0:0:
256,192,151465,1,8,0:0:0:0:
256,192,151765,1,0,0:0:0:0:
256,192,151915,1,8,0:0:0:0:
256,192,152215,1,0,0:0:0:0:
256,192,152365,1,8,0:0:0:0:
256,192,152815,1,8,0:0:0:0:
256,192,153115,1,8,0:0:0:0:
256,192,153415,1,8,0:0:0:0:
256,192,153715,5,4,0:0:0:0:
256,192,154315,1,0,0:0:0:0:
256,192,154615,1,8,0:0:0:0:
256,192,154915,1,0,0:0:0:0:
256,192,155215,1,8,0:0:0:0:
256,192,155515,1,0,0:0:0:0:
256,192,155665,1,0,0:0:0:0:
256,192,155815,1,8,0:0:0:0:
256,192,156115,1,0,0:0:0:0:
256,192,156415,1,8,0:0:0:0:
256,192,156715,1,0,0:0:0:0:
256,192,156865,1,0,0:0:0:0:
256,192,157015,1,8,0:0:0:0:
256,192,157315,1,0,0:0:0:0:
256,192,157615,1,8,0:0:0:0:
256,192,157765,1,0,0:0:0:0:
256,192,157915,1,0,0:0:0:0:
256,192,158215,1,8,0:0:0:0:
256,192,158515,1,4,0:0:0:0:
256,192,159115,1,0,0:0:0:0:
256,192,159415,1,8,0:0:0:0:
256,192,159715,1,0,0:0:0:0:
256,192,160015,1,8,0:0:0:0:
256,192,160165,1,8,0:0:0:0:
256,192,160315,1,8,0:0:0:0:
256,192,160615,1,8,0:0:0:0:
256,192,160915,1,0,0:0:0:0:
256,192,161215,1,8,0:0:0:0:
256,192,161365,1,0,0:0:0:0:
256,192,161515,1,0,0:0:0:0:
256,192,161815,1,8,0:0:0:0:
256,192,162265,1,8,0:0:0:0:
256,192,162415,1,8,0:0:0:0:
256,192,162715,1,8,0:0:0:0:
256,192,163015,1,8,0:0:0:0:
256,192,163315,1,4,0:0:0:0:
256,192,163915,1,0,0:0:0:0:
256,192,164365,1,8,0:0:0:0:
256,192,165115,1,0,0:0:0:0:
256,192,165415,1,8,0:0:0:0:
256,192,165565,1,0,0:0:0:0:
256,192,165715,1,4,0:0:0:0:
256,192,166015,1,8,0:0:0:0:
256,192,166315,1,0,0:0:0:0:
256,192,166615,1,8,0:0:0:0:
256,192,166915,1,0,0:0:0:0:
256,192,167215,1,8,0:0:0:0:
256,192,167365,1,0,0:0:0:0:
256,192,167515,1,0,0:0:0:0:
256,192,167815,1,8,0:0:0:0:
256,192,168115,1,4,0:0:0:0:
256,192,168715,1,4,0:0:0:0:
256,192,169015,1,8,0:0:0:0:
256,192,169315,1,0,0:0:0:0:
256,192,169615,1,8,0:0:0:0:
256,192,169765,1,0,0:0:0:0:
256,192,169915,1,0,0:0:0:0:
256,192,170215,1,8,0:0:0:0:
256,192,170515,1,0,0:0:0:0:
256,192,170815,1,8,0:0:0:0:
256,192,171115,1,0,0:0:0:0:
256,192,171415,1,8,0:0:0:0:
256,192,171715,1,8,0:0:0:0:
256,192,172015,1,8,0:0:0:0:
256,192,172165,1,8,0:0:0:0:
256,192,172315,1,8,0:0:0:0:
256,192,172615,1,8,0:0:0:0:
256,192,172915,1,0,0:0:0:0:
256,192,174715,1,8,0:0:0:0:
256,192,174865,1,8,0:0:0:0:
256,192,175015,1,8,0:0:0:0:
256,192,175315,1,4,0:0:0:0:
256,192,175615,1,8,0:0:0:0:
256,192,175915,1,0,0:0:0:0:
256,192,176215,1,8,0:0:0:0:
256,192,176365,1,0,0:0:0:0:
256,192,176515,1,0,0:0:0:0:
256,192,176815,1,8,0:0:0:0:
256,192,177115,1,0,0:0:0:0:
256,192,177715,1,0,0:0:0:0:
256,192,178015,1,8,0:0:0:0:
256,192,178315,1,8,0:0:0:0:
256,192,178615,1,0,0:0:0:0:
256,192,178915,1,0,0:0:0:0:
256,192,179215,1,8,0:0:0:0:
256,192,179365,1,0,0:0:0:0:
256,192,179515,1,0,0:0:0:0:
256,192,179815,1,8,0:0:0:0:
256,192,180115,1,4,0:0:0:0:
256,192,180715,1,0,0:0:0:0:
256,192,181015,1,8,0:0:0:0:
256,192,181315,1,0,0:0:0:0:
256,192,181615,1,8,0:0:0:0:
256,192,181765,1,0,0:0:0:0:
256,192,181915,1,0,0:0:0:0:
256,192,182215,1,8,0:0:0:0:
256,192,182515,1,0,0:0:0:0:
256,192,183115,1,0,0:0:0:0:
256,192,183415,1,8,0:0:0:0:
256,192,183715,1,0,0:0:0:0:
256,192,184015,1,8,0:0:0:0:
256,192,184165,1,8,0:0:0:0:
256,192,184315,1,8,0:0:0:0:
256,192,184615,1,8,0:0:0:0:
256,192,184915,1,4,0:0:0:0:
256,192,185515,1,0,0:0:0:0:
256,192,185815,1,8,0:0:0:0:
256,192,186115,1,0,0:0:0:0:
256,192,186415,1,8,0:0:0:0:
256,192,186565,1,0,0:0:0:0:
256,192,186715,1,0,0:0:0:0:
256,192,187015,1,8,0:0:0:0:
256,192,187315,1,0,0:0:0:0:
256,192,187615,1,0,0:0:0:0:
256,192,187915,1,8,0:0:0:0:
256,192,188215,1,0,0:0:0:0:
256,192,188515,1,0,0:0:0:0:
256,192,188815,1,0,0:0:0:0:
256,192,188965,1,0,0:0:0:0:
256,192,189115,1,8,0:0:0:0:
256,192,189715,1,4,0:0:0:0:
256,192,190015,1,0,0:0:0:0:
256,192,190315,1,8,0:0:0:0:
256,192,190615,1,0,0:0:0:0:
256,192,190915,1,0,0:0:0:0:
256,192,191215,1,8,0:0:0:0:
256,192,191365,1,0,0:0:0:0:
256,192,191515,1,0,0:0:0:0:
256,192,192115,1,0,0:0:0:0:
256,192,192415,1,0,0:0:0:0:
256,192,192715,1,8,0:0:0:0:
256,192,193015,1,8,0:0:0:0:
256,192,193165,1,8,0:0:0:0:
256,192,193315,1,8,0:0:0:0:
256,192,193615,1,0,0:0:0:0:
256,192,193765,1,0,0:0:0:0:
256,192,193915,1,8,0:0:0:0:
256,192,194515,1,8,0:0:0:0:
256,192,195115,1,8,0:0:0:0:
256,192,196315,1,0,0:0:0:0:
