osu file format v14

[General]
AudioFilename: suzumu - Kakumeisei ousama densenbyou.mp3
AudioLeadIn: 0
PreviewTime: -1
Countdown: 0
SampleSet: Soft
StackLeniency: 0.7
Mode: 2
LetterboxInBreaks: 0
WidescreenStoryboard: 0

[Editor]
DistanceSpacing: 0.9
BeatDivisor: 4
GridSize: 16
TimelineZoom: 1.8

[Metadata]
Title:Kakumeisei : Ousama densenbyo
TitleUnicode:革命性:オウサマ伝染病
Artist:suzumu
ArtistUnicode:スズム
Creator:Spectator
Version:Kingdom
Source:
Tags:japanese pop jpop vocaloid 鏡音レン kagamine rin おればななP 八日目 雨が止む前に
BeatmapID:734255
BeatmapSetID:331453

[Difficulty]
HPDrainRate:5
CircleSize:4
OverallDifficulty:9.5
ApproachRate:9.5
SliderMultiplier:1.9
SliderTickRate:2

[Events]
//Background and Video events
0,0,"BG.jpg",0,0
//Break Periods
2,75915,84790
//Storyboard Layer 0 (Background)
//Storyboard Layer 1 (Fail)
//Storyboard Layer 2 (Pass)
//Storyboard Layer 3 (Foreground)
//Storyboard Layer 4 (Overlay)
//Storyboard Sound Samples

[TimingPoints]
1315,300,4,3,1,30,1,0
15715,-100,4,1,1,60,0,1
15790,-100,4,1,1,100,0,0
19915,-90.9090909090909,4,1,1,100,0,0
20215,-83.3333333333333,4,1,1,100,0,0
20515,-100,4,1,1,100,0,0
27715,-100,4,1,2,75,0,0
33265,-100,4,1,2,40,0,0
33415,-100,4,1,2,75,0,0
37315,-100,4,1,1,100,0,0
40915,-100,4,3,50,100,0,0
41065,-100,4,1,1,100,0,0
45715,-100,4,1,2,80,0,0
51415,-100,4,1,2,60,0,0
51715,-100,4,1,2,80,0,0
54115,-100,4,1,2,50,0,0
55165,-83.3333333333333,4,1,1,75,0,0
56515,-83.3333333333333,4,1,1,100,0,1
75115,-83.3333333333333,4,1,2,100,0,1
75640,-83.3333333333333,4,1,2,100,0,0
75715,-83.3333333333333,4,1,1,100,0,1
75790,-83.3333333333333,4,1,1,100,0,0
85315,-100,4,1,2,85,0,0
94915,-100,4,1,1,100,0,0
96115,-100,4,3,50,100,0,0
96265,-100,4,1,1,100,0,0
98515,-100,4,3,50,100,0,0
98665,-100,4,1,1,100,0,0
100915,-100,4,3,50,100,0,0
101065,-100,4,1,1,100,0,0
103315,-100,4,1,2,100,0,0
104515,-100,4,1,2,80,0,0
111715,-100,4,2,1,55,0,0
112765,-83.3333333333333,4,1,1,75,0,0
113515,-83.3333333333333,4,1,2,75,0,0
114115,-83.3333333333333,4,1,1,100,0,1
132715,-83.3333333333333,4,1,2,100,0,1
133315,-83.3333333333333,4,1,1,75,0,0
150115,-92.5925925925926,4,1,1,75,0,0
151315,-83.3333333333333,4,1,1,75,0,0
152515,-83.3333333333333,4,2,1,75,0,0
153715,-80.6451612903226,4,1,1,100,0,1
172315,-80.6451612903226,4,1,2,100,0,1
172915,-126.582278481013,4,2,1,65,0,0
173215,-126.582278481013,4,2,1,45,0,0
174715,-80.6451612903226,4,1,2,100,0,0
175315,-100,4,1,1,100,0,1
175390,-100,4,1,2,100,0,0
180115,-100,4,1,1,100,0,0
180265,-100,4,1,2,100,0,0
184915,-100,4,1,1,100,0,0
188515,-100,4,3,50,100,0,0
188665,-100,4,1,1,100,0,0
194515,-133.333333333333,4,2,1,61,0,0
196615,-133.333333333333,4,2,1,5,0,0

[Colours]
Combo1 : 158,248,167
Combo2 : 255,128,0
Combo3 : 255,70,70
Combo4 : 91,91,255

[HitObjects]
384,320,1315,5,4,0:0:0:0:
128,64,1915,1,4,0:0:0:0:
384,320,2515,1,4,0:0:0:0:
240,192,2815,1,4,0:0:0:0:
400,144,3115,1,4,0:0:0:0:
415,178,3265,1,4,0:0:0:0:
430,212,3415,1,12,0:0:0:0:
176,320,3715,5,4,0:0:0:0:
463,64,4315,1,4,0:0:0:0:
192,320,4915,1,4,0:0:0:0:
336,192,5215,1,4,0:0:0:0:
144,128,5515,1,4,0:0:0:0:
166,220,5665,1,4,0:0:0:0:
267,211,5815,1,8,0:0:0:0:
289,303,5965,1,0,0:0:0:0:
496,192,6115,5,4,0:0:0:0:
256,192,6715,1,4,0:0:0:0:
16,192,7315,1,4,0:0:0:0:
160,80,7615,1,4,0:0:0:0:
0,32,7915,1,4,0:0:0:0:
15,66,8065,1,4,0:0:0:0:
30,100,8215,1,12,0:0:0:0:
176,192,8515,5,4,0:0:0:0:
352,352,9115,1,4,0:0:0:0:
96,272,9715,1,4,0:0:0:0:
256,192,10015,1,4,0:0:0:0:
416,112,10315,1,14,0:0:0:0:
256,192,10465,12,4,14365,0:0:0:0:
255,170,14515,5,6,3:0:0:0:
12,175,15415,1,8,3:1:0:0:
476,259,15715,6,0,L|353:240,1,95,4|0,0:0|0:0,0:0:0:0:
66,199,16015,2,0,L|186:178,1,95,8|0,0:2|0:0,0:0:0:0:
275,261,16315,1,4,0:3:0:0:
413,178,16465,1,4,0:3:0:0:
356,167,16540,1,0,2:0:0:0:
300,156,16615,1,8,0:2:0:0:
455,70,16765,1,0,0:0:0:0:
117,319,16915,6,0,L|9:300,1,95,4|0,0:3|0:0,0:0:0:0:
238,208,17215,2,0,L|346:189,1,95,8|0,0:2|0:0,0:0:0:0:
175,236,17515,1,0,0:0:0:0:
13,155,17665,1,4,0:3:0:0:
164,64,17815,1,0,0:1:0:0:
315,119,17965,1,0,2:0:0:0:
29,310,18115,6,0,L|60:187,1,95,4|0,1:3|0:0,0:0:0:0:
483,310,18415,2,0,L|452:187,1,95,8|0,0:2|0:0,0:0:0:0:
303,231,18715,1,4,0:3:0:0:
142,161,18865,1,4,0:3:0:0:
199,150,18940,1,0,2:0:0:0:
255,139,19015,1,8,0:2:0:0:
389,77,19165,6,0,P|437:149|389:233,1,190,4|4,0:3|0:3,0:0:0:0:
88,60,19615,2,0,L|184:72,1,95,8|2,0:2|0:3,0:0:0:0:
468,288,19915,2,0,L|356:272,1,104.500003189087,0|2,0:0|0:3,0:0:0:0:
497,109,20215,1,0,0:3:0:0:
333,134,20365,1,2,0:3:0:0:
4,207,20515,6,0,L|34:92,1,95,4|0,0:3|0:0,0:0:0:0:
255,175,20815,1,8,0:2:0:0:
369,98,20965,1,0,0:0:0:0:
84,295,21115,1,4,0:3:0:0:
238,351,21265,1,4,0:3:0:0:
296,331,21340,1,0,2:0:0:0:
353,311,21415,1,8,0:2:0:0:
101,185,21565,6,0,P|183:159|307:195,1,190,4|0,0:3|0:0,0:0:0:0:
434,136,22015,2,0,L|321:126,1,95,8|0,0:2|0:0,0:0:0:0:
110,160,22315,1,0,0:3:0:0:
254,88,22465,1,4,0:3:0:0:
110,160,22615,1,8,0:1:0:0:
254,88,22765,1,0,0:0:0:0:
30,323,22915,6,0,P|6:259|2:195,1,95,4|0,0:3|0:0,0:0:0:0:
168,156,23215,2,0,P|104:128|60:104,1,95,8|0,0:2|0:0,0:0:0:0:
408,212,23515,1,4,0:3:0:0:
276,296,23665,1,4,0:3:0:0:
220,280,23740,1,0,2:2:0:0:
164,264,23815,1,8,0:2:0:0:
308,212,23965,6,0,P|396:176|504:176,1,190,4|2,0:3|0:3,0:0:0:0:
138,186,24415,2,0,L|35:176,1,95,8|2,0:2|0:3,0:0:0:0:
210,111,24715,2,0,L|313:101,1,95,4|4,0:3|0:3,0:0:0:0:
461,159,25015,1,10,0:3:0:0:
27,88,25315,5,8,0:1:0:0:
485,296,25615,1,8,0:1:0:0:
27,88,25915,1,8,0:1:0:0:
257,192,26065,1,8,0:1:0:0:
485,296,26215,1,8,0:1:0:0:
322,331,26515,1,8,0:1:0:0:
190,53,26665,1,8,0:1:0:0:
322,331,26815,1,8,0:1:0:0:
190,53,26965,1,8,0:1:0:0:
306,323,27715,6,0,P|298:266|289:209,1,95,4|0,0:0|0:0,0:0:0:0:
166,231,28015,2,0,P|174:174|183:117,1,95,8|0,0:1|0:0,0:0:0:0:
301,93,28315,2,0,L|76:66,1,190,4|8,0:0|0:1,0:0:0:0:
320,184,28765,6,0,L|545:157,1,190,4|0,0:0|0:0,0:0:0:0:
386,273,29215,2,0,L|279:251,1,95,8|0,0:0|0:0,0:0:0:0:
17,318,29515,1,4,0:0:0:0:
160,216,29665,1,0,0:0:0:0:
160,216,29815,1,8,0:0:0:0:
17,318,29965,1,0,0:0:0:0:
307,297,30115,6,0,L|418:313,1,95,4|0,0:0|0:0,0:0:0:0:
260,226,30415,2,0,L|371:210,1,95,8|0,0:0|0:0,0:0:0:0:
76,96,30715,2,0,P|147:129|274:78,1,190,4|8,0:0|0:0,0:0:0:0:
490,191,31165,6,0,P|402:162|316:197,1,190,4|4,0:0|0:0,0:0:0:0:
333,251,31540,1,0,2:0:0:0:
350,305,31615,1,8,0:0:0:0:
176,356,31765,1,0,0:0:0:0:
341,241,31915,1,4,0:0:0:0:
359,112,32065,1,0,0:0:0:0:
195,130,32215,1,8,0:0:0:0:
392,370,32365,1,0,0:0:0:0:
36,248,32515,6,0,P|92:240|136:240,1,95,4|0,0:0|0:0,0:0:0:0:
292,127,32815,2,0,P|245:135|197:136,1,95,8|0,0:0|0:0,0:0:0:0:
29,153,33115,2,0,L|165:202,1,142.5,4|0,0:0|1:0,0:0:0:0:
305,188,33415,1,8,0:0:0:0:
178,321,33565,6,0,L|1:252,1,190,4|4,0:0|0:0,0:0:0:0:
368,296,34015,2,0,P|376:236|368:180,1,95,8|0,0:0|0:0,0:0:0:0:
148,208,34315,1,4,0:0:0:0:
292,140,34465,1,0,0:0:0:0:
268,33,34615,1,8,0:0:0:0:
124,97,34765,1,0,0:0:0:0:
405,96,34915,6,0,L|418:195,1,95,4|0,0:0|0:0,0:0:0:0:
289,189,35215,2,0,L|276:288,1,95,8|0,0:0|0:0,0:0:0:0:
423,345,35515,1,4,0:0:0:0:
254,365,35665,1,0,0:0:0:0:
198,350,35740,1,0,0:0:0:0:
142,336,35815,1,8,0:0:0:0:
300,250,35965,1,0,0:0:0:0:
29,348,36115,6,0,P|48:291|73:242,1,95,4|0,0:0|0:0,0:0:0:0:
189,253,36415,2,0,P|208:196|233:147,1,95,8|0,0:0|0:0,0:0:0:0:
381,151,36715,2,8,L|372:98,7,47.5
53,324,37315,5,4,0:3:0:0:
187,252,37465,1,0,0:0:0:0:
173,155,37615,1,8,0:3:0:0:
25,89,37765,1,0,0:0:0:0:
334,309,37915,2,0,L|349:145,1,142.5,4|0,0:3|0:3,0:0:0:0:
256,136,38215,2,0,L|247:38,1,95,8|0,0:3|0:0,0:0:0:0:
486,108,38515,6,4,L|466:229,1,95,4|4,0:3|0:3,0:3:0:0:
191,257,38815,2,0,L|171:378,1,95,8|0,0:3|0:0,0:0:0:0:
308,245,39115,2,0,L|328:366,1,95,4|0,0:3|0:3,0:0:0:0:
26,145,39415,2,0,L|46:266,1,95,8|0,0:3|0:0,0:0:0:0:
376,297,39715,5,4,0:3:0:0:
502,191,39865,1,0,0:0:0:0:
476,70,40015,1,8,0:3:0:0:
322,31,40165,1,0,0:0:0:0:
160,121,40315,2,0,L|327:138,1,142.5,4|0,0:3|0:0,0:0:0:0:
226,173,40615,1,8,0:3:0:0:
76,247,40765,6,0,L|285:270,1,190,0|4,0:0|0:3,0:0:0:0:
392,345,41215,1,8,0:3:0:0:
138,216,41365,1,0,0:0:0:0:
353,216,41515,1,0,0:0:0:0:
192,320,41665,1,4,0:3:0:0:
208,204,41815,1,8,0:3:0:0:
448,124,41965,1,0,0:3:0:0:
44,288,42115,6,0,L|32:152,1,95,4|0,0:2|0:0,0:0:0:0:
184,204,42415,2,0,L|196:68,1,95,8|0,0:3|0:0,0:0:0:0:
344,284,42715,2,0,L|312:120,1,142.5,4|0,0:3|0:0,0:0:0:0:
152,80,43015,1,8,0:3:0:0:
288,188,43165,6,0,L|280:304,1,95,0|4,0:3|0:3,0:0:0:0:
40,356,43465,1,4,0:3:0:0:
164,340,43615,1,8,0:3:0:0:
288,324,43765,1,0,0:0:0:0:
8,236,43915,1,4,0:3:0:0:
140,247,44065,1,0,0:3:0:0:
272,258,44215,1,8,0:3:0:0:
64,144,44365,1,0,0:0:0:0:
392,256,44515,5,4,0:3:0:0:
224,324,44665,1,0,1:1:0:0:
216,272,44740,1,0,0:0:0:0:
208,220,44815,1,8,0:3:0:0:
345,169,44965,1,0,0:0:0:0:
43,132,45115,2,0,L|171:104,1,95,4|0,0:3|0:3,0:0:0:0:
402,246,45415,2,0,L|530:218,1,95,8|0,0:3|0:3,0:0:0:0:
248,356,45715,6,8,L|240:292,3,47.5
72,264,46015,2,8,L|80:200,3,47.5
264,132,46315,6,8,L|256:68,3,47.5
24,128,46615,2,8,L|96:124,1,47.5
152,88,46765,2,8,L|224:84,1,47.5
484,193,46915,6,4,L|376:176,1,95,4|4,0:0|1:1,0:0:0:0:
275,278,47215,2,4,L|368:292,1,95,12|4,0:1|1:0,0:0:0:0:
106,344,47515,2,4,P|59:271|89:210,1,142.5
172,209,47815,2,4,L|217:118,1,95,12|4,0:0|0:0,0:0:0:0:
336,192,48115,5,4,0:0:0:0:
457,139,48265,1,4,0:0:0:0:
455,121,48340,1,4,0:0:0:0:
452,97,48415,1,12,0:0:0:0:
512,301,48565,1,4,0:0:0:0:
510,283,48640,1,4,0:0:0:0:
507,259,48715,1,4,0:0:0:0:
334,370,48865,2,4,P|340:315|349:265,1,95,4|12,0:0|0:0,0:0:0:0:
205,209,49165,1,4,0:0:0:0:
394,65,49315,6,4,P|389:112|381:159,1,95
218,309,49615,2,4,P|222:261|230:214,1,95,12|4,0:0|0:0,0:0:0:0:
478,346,49915,2,4,L|493:205,1,142.5
401,204,50215,2,4,L|391:99,1,95,12|4,0:0|0:0,0:0:0:0:
129,108,50515,6,4,L|231:91,1,95,4|4,0:1|0:1,0:1:0:0:
383,276,50815,2,4,L|281:293,1,95,12|4,0:1|0:1,0:1:0:0:
129,108,51115,2,4,L|231:91,1,95,4|4,0:1|0:1,0:1:0:0:
461,155,51415,6,2,L|463:132,6,23.75,2|2|2|2|2|2|2,2:1|2:1|2:1|2:1|2:1|2:1|2:1,2:1:0:0:
189,330,51715,6,4,L|169:223,1,95
50,172,52015,2,4,L|68:79,1,95,12|4,0:0|0:0,0:0:0:0:
236,54,52315,1,4,0:0:0:0:
301,135,52465,1,4,0:0:0:0:
322,237,52615,1,12,0:0:0:0:
296,338,52765,1,4,0:0:0:0:
472,229,52915,5,4,0:0:0:0:
351,176,53065,1,4,0:0:0:0:
353,158,53140,1,4,0:0:0:0:
356,134,53215,1,12,0:0:0:0:
296,338,53365,1,4,0:0:0:0:
298,320,53440,1,4,0:0:0:0:
301,296,53515,1,4,0:0:0:0:
171,272,53665,2,4,L|157:171,1,95,4|12,0:0|0:0,0:0:0:0:
366,174,53965,1,4,0:0:0:0:
44,348,54115,6,0,L|88:252,1,95,2|0,2:0|2:0,2:0:0:0:
207,136,54415,2,0,L|163:232,1,95,2|0,2:0|2:0,2:0:0:0:
44,348,54715,2,0,L|88:252,1,95,2|0,2:0|2:0,2:0:0:0:
214,80,55015,1,2,0:0:0:0:
496,232,55165,6,0,L|264:220,1,227.999993041992,4|8,0:2|0:3,0:0:0:0:
140,340,55615,1,4,0:2:0:0:
392,192,55765,1,4,0:2:0:0:
43,90,55915,1,4,0:2:0:0:
43,90,56215,1,2,2:0:0:0:
43,90,56515,5,4,0:0:0:0:
287,222,56665,1,0,0:0:0:0:
354,209,56740,1,0,0:0:0:0:
421,195,56815,1,8,0:0:0:0:
512,261,56965,1,0,0:0:0:0:
164,299,57115,2,0,L|-1:273,1,113.999996520996
272,160,57415,2,0,L|437:134,1,113.999996520996,8|0,0:0|0:0,0:0:0:0:
39,179,57715,5,2,0:0:0:0:
322,283,57865,1,0,0:0:0:0:
325,220,57940,1,0,0:0:0:0:
329,157,58015,1,8,0:0:0:0:
196,211,58165,2,0,L|186:139,1,56.9999982604981
261,112,58315,2,0,L|268:48,1,56.9999982604981
80,141,58465,2,0,L|95:25,1,113.999996520996,0|8,0:0|0:0,0:0:0:0:
364,152,58765,1,0,0:0:0:0:
508,88,58915,5,2,0:0:0:0:
384,252,59065,1,0,0:0:0:0:
324,240,59140,1,0,0:0:0:0:
264,228,59215,1,8,0:0:0:0:
116,340,59365,1,0,0:0:0:0:
0,201,59515,1,0,0:0:0:0:
169,119,59665,1,0,0:0:0:0:
486,203,59815,1,8,0:0:0:0:
358,321,59965,6,0,L|109:352,1,227.999993041992,2|0,0:0|0:0,0:0:0:0:
253,257,60415,1,8,0:0:0:0:
16,181,60565,1,0,0:0:0:0:
237,146,60715,1,0,0:0:0:0:
0,70,60865,1,8,0:0:0:0:
133,96,61015,2,0,L|191:84,1,56.9999982604981,8|0,0:0|0:0,0:0:0:0:
266,121,61165,2,0,L|343:140,1,56.9999982604981,8|0,0:0|0:0,0:0:0:0:
504,72,61315,5,4,0:2:0:0:
384,141,61465,2,0,L|304:117,2,56.9999982604981,0|0|8,0:0|0:0|0:0,0:0:0:0:
251,225,61765,2,0,P|363:265|496:252,1,227.999993041992,2|0,0:0|0:0,0:0:0:0:
353,359,62215,1,8,0:0:0:0:
504,117,62365,6,0,P|390:112|254:117,1,227.999993041992,2|0,0:0|0:0,0:0:0:0:
127,257,62815,1,8,0:0:0:0:
282,192,62965,1,0,0:0:0:0:
265,85,63115,1,2,0:0:0:0:
21,169,63265,2,0,L|6:103,2,56.9999982604981,0|0|8,0:0|0:0|0:0,0:0:0:0:
178,213,63565,1,0,0:0:0:0:
489,273,63715,5,2,0:0:0:0:
376,204,63865,1,0,0:0:0:0:
388,154,63940,1,0,0:0:0:0:
401,104,64015,1,8,0:0:0:0:
509,69,64165,1,0,0:0:0:0:
232,217,64315,2,0,L|109:209,1,113.999996520996,2|0,0:0|0:0,0:0:0:0:
264,294,64615,1,8,0:0:0:0:
0,115,64765,6,0,P|90:105|228:101,1,227.999993041992,2|0,0:0|0:0,0:0:0:0:
477,42,65215,1,10,0:0:0:0:
236,143,65365,1,0,0:0:0:0:
245,258,65515,1,2,0:0:0:0:
479,362,65665,1,8,0:0:0:0:
498,239,65815,1,10,0:0:0:0:
360,161,65965,1,8,0:0:0:0:
16,241,66115,6,0,L|97:229,1,56.9999982604981,4|0,0:3|0:0,0:0:0:0:
228,146,66265,2,0,L|323:156,1,56.9999982604981
458,101,66415,1,8,0:3:0:0:
512,213,66715,2,0,L|431:225,1,56.9999982604981,4|0,0:3|0:0,0:0:0:0:
300,308,66865,2,0,L|205:298,1,56.9999982604981
70,353,67015,1,8,0:3:0:0:
386,227,67165,6,0,L|504:235,1,113.999996520996,2|0,0:0|0:0,0:0:0:0:
186,305,67465,1,0,0:0:0:0:
47,212,67615,1,8,0:0:0:0:
202,138,67765,1,0,0:0:0:0:
498,288,67915,2,0,L|380:278,1,113.999996520996,8|0,0:0|0:0,0:0:0:0:
447,201,68140,2,0,L|329:191,1,113.999996520996,8|0,0:0|0:0,0:0:0:0:
397,121,68365,1,8,0:0:0:0:
136,132,68515,6,0,L|0:121,1,113.999996520996,4|0,0:2|0:0,0:0:0:0:
230,271,68815,1,8,0:0:0:0:
364,184,68965,1,0,0:0:0:0:
327,64,69115,1,2,0:0:0:0:
163,116,69265,1,0,0:0:0:0:
112,106,69340,1,0,0:0:0:0:
61,96,69415,1,8,0:0:0:0:
276,197,69565,6,0,L|520:147,1,227.999993041992,2|0,0:0|0:0,0:0:0:0:
194,83,70015,2,0,L|307:103,1,113.999996520996,8|0,0:0|0:0,0:0:0:0:
450,238,70315,1,2,0:0:0:0:
221,354,70465,1,0,0:0:0:0:
224,320,70540,1,0,0:0:0:0:
228,286,70615,1,10,0:0:0:0:
474,133,70765,1,0,0:0:0:0:
200,196,70915,6,0,L|72:184,1,113.999996520996,2|0,0:0|0:0,0:0:0:0:
324,108,71215,1,8,0:0:0:0:
468,248,71365,1,0,0:0:0:0:
448,368,71515,1,2,0:0:0:0:
304,216,71665,1,0,0:0:0:0:
500,88,71815,1,8,0:0:0:0:
220,240,71965,6,0,P|120:264|-4:220,1,227.999993041992,2|0,0:0|0:0,0:0:0:0:
148,160,72415,2,0,L|296:128,1,113.999996520996,8|0,0:0|0:0,0:0:0:0:
508,216,72715,1,2,0:0:0:0:
368,312,72865,1,0,0:0:0:0:
375,278,72940,1,0,0:0:0:0:
382,244,73015,1,8,0:0:0:0:
210,213,73165,1,0,0:0:0:0:
228,183,73240,1,0,0:0:0:0:
247,154,73315,1,2,0:0:0:0:
494,145,73465,5,0,0:0:0:0:
179,63,73615,2,0,L|52:79,1,113.999996520996,8|0,0:0|0:0,0:0:0:0:
340,320,73915,1,2,0:0:0:0:
488,272,74065,1,0,0:0:0:0:
476,204,74140,1,0,0:0:0:0:
468,136,74215,1,8,0:0:0:0:
299,72,74365,1,0,0:0:0:0:
12,140,74515,6,0,L|28:390,1,227.999993041992,4|0,0:2|0:0,0:0:0:0:
242,245,75115,2,8,L|227:150,1,56.9999982604981
100,158,75265,2,8,L|115:63,1,56.9999982604981
242,245,75415,2,8,L|227:150,1,56.9999982604981
100,158,75565,2,8,L|115:63,1,56.9999982604981
480,76,75715,1,4,0:0:0:0:
136,300,85315,6,0,L|232:284,1,95,4|0,0:1|0:1,0:1:0:0:
396,180,85615,2,0,L|300:164,1,95,8|0,0:1|0:1,0:1:0:0:
160,220,85915,1,4,0:1:0:0:
307,267,86065,1,4,0:1:0:0:
359,250,86140,1,0,0:1:0:0:
410,233,86215,1,8,0:1:0:0:
278,146,86365,1,0,0:1:0:0:
35,285,86515,6,0,L|23:184,1,95,4|0,0:1|0:1,0:1:0:0:
170,106,86815,2,0,L|181:200,1,95,8|0,0:1|0:1,0:1:0:0:
477,99,87115,2,0,L|489:200,1,95,4|0,0:1|0:1,0:1:0:0:
342,278,87415,2,0,L|330:183,1,95,8|0,0:1|0:1,0:1:0:0:
186,338,87715,5,4,0:1:0:0:
336,272,87865,1,0,0:1:0:0:
318,185,88015,1,8,0:1:0:0:
179,118,88165,1,0,0:1:0:0:
330,233,88315,2,0,L|312:32,1,190,4|8,0:1|0:1,0:1:0:0:
8,348,88765,6,0,L|26:147,1,190,4|4,0:1|0:1,0:1:0:0:
80,143,89140,1,0,0:1:0:0:
135,128,89215,1,8,0:1:0:0:
289,195,89365,1,0,0:1:0:0:
124,236,89515,1,4,0:1:0:0:
144,332,89665,1,0,0:1:0:0:
288,211,89815,1,8,0:1:0:0:
62,108,89965,1,0,0:1:0:0:
391,276,90115,6,0,L|500:276,1,95,4|0,0:1|0:1,0:1:0:0:
370,164,90415,2,0,L|479:164,1,95,8|0,0:1|0:1,0:1:0:0:
245,215,90715,2,0,L|71:262,1,142.5,4|0,0:1|0:1,0:1:0:0:
162,193,91015,1,8,0:1:0:0:
450,234,91165,6,0,P|470:142|438:44,1,190,0|4,0:1|0:1,0:1:0:0:
155,251,91615,2,0,L|142:376,1,95,8|0,0:1|0:1,0:1:0:0:
365,250,91915,2,0,L|378:375,1,95,4|0,0:1|0:1,0:1:0:0:
156,252,92215,1,8,0:1:0:0:
365,250,92365,1,0,0:1:0:0:
251,179,92515,6,0,L|127:151,1,95,4|0,0:1|0:1,0:1:0:0:
408,84,92815,2,0,L|532:56,1,95,8|0,0:1|0:1,0:1:0:0:
392,180,93115,1,4,0:1:0:0:
256,272,93265,1,0,0:1:0:0:
244,216,93340,1,0,0:1:0:0:
236,160,93415,1,8,0:1:0:0:
396,316,93565,1,0,0:1:0:0:
56,264,93715,5,4,0:1:0:0:
160,216,93865,1,0,0:1:0:0:
296,124,94015,1,8,0:1:0:0:
192,76,94165,1,0,0:1:0:0:
40,160,94315,2,8,L|52:224,7,47.5,8|8|8|8|8|8|8|8,0:1|0:1|0:1|0:1|0:1|0:1|0:1|0:1,0:1:0:0:
296,336,94915,5,4,0:3:0:0:
440,252,95065,1,0,0:0:0:0:
428,208,95140,1,0,0:0:0:0:
384,176,95215,1,8,0:3:0:0:
240,144,95365,1,0,0:0:0:0:
88,184,95515,2,0,L|116:12,1,142.5,4|0,0:3|0:0,0:0:0:0:
176,64,95815,1,8,0:3:0:0:
468,192,95965,6,0,L|424:0,1,190,0|4,0:0|0:3,0:0:0:0:
123,74,96415,2,0,L|111:195,1,95,8|0,0:3|0:0,0:0:0:0:
389,74,96715,2,0,L|401:195,1,95,4|0,0:3|0:0,0:0:0:0:
299,193,97015,1,8,0:3:0:0:
466,242,97165,1,0,0:0:0:0:
216,336,97315,5,4,0:3:0:0:
72,252,97465,1,0,0:0:0:0:
84,208,97540,1,0,0:0:0:0:
128,176,97615,1,8,0:3:0:0:
272,144,97765,1,0,0:0:0:0:
148,72,97915,2,0,L|336:94,1,190,4|8,0:3|0:3,0:0:0:0:
465,180,98365,6,0,L|276:202,1,190,0|4,0:0|0:3,0:0:0:0:
120,316,98815,2,0,P|128:251|144:197,1,95,8|0,0:3|0:0,0:0:0:0:
268,198,99115,1,4,0:3:0:0:
492,212,99265,2,0,P|484:147|468:93,1,95,0|8,0:0|0:3,0:0:0:0:
320,96,99565,1,0,0:0:0:0:
24,216,99715,5,4,0:2:0:0:
165,296,99865,1,0,0:0:0:0:
211,262,99940,1,0,0:0:0:0:
257,229,100015,1,8,0:3:0:0:
395,315,100165,1,0,0:0:0:0:
234,27,100315,2,0,L|225:181,1,142.5,4|0,0:3|0:0,0:0:0:0:
301,134,100615,1,8,0:3:0:0:
430,216,100765,6,0,L|236:257,1,190,0|4,0:0|0:3,0:0:0:0:
476,329,101215,1,8,0:3:0:0:
356,296,101365,1,0,0:0:0:0:
237,262,101515,1,4,0:3:0:0:
500,120,101665,1,0,0:0:0:0:
378,142,101815,1,8,0:3:0:0:
256,164,101965,1,0,0:0:0:0:
23,275,102115,5,4,0:3:0:0:
161,325,102265,1,0,0:0:0:0:
165,282,102340,1,0,0:0:0:0:
170,239,102415,1,8,0:3:0:0:
17,185,102565,1,0,0:0:0:0:
7,95,102715,1,4,0:3:0:0:
326,330,102865,2,0,L|339:234,1,95,0|8,0:0|0:3,0:0:0:0:
189,139,103165,1,0,0:0:0:0:
360,56,103315,5,8,0:0:0:0:
396,78,103390,1,8,0:0:0:0:
426,108,103465,1,8,0:0:0:0:
445,145,103540,1,8,0:0:0:0:
451,187,103615,1,8,0:0:0:0:
437,227,103690,1,8,0:0:0:0:
414,263,103765,1,8,0:0:0:0:
381,290,103840,1,8,0:0:0:0:
338,306,103915,6,8,L|292:244,3,47.5
218,249,104215,2,8,L|172:187,3,47.5
100,230,104515,6,0,L|118:101,1,95,4|0,0:0|0:0,0:0:0:0:
265,132,104815,2,0,L|247:3,1,95,8|0,0:0|0:0,0:0:0:0:
88,140,105115,2,0,L|118:347,1,190,4|8,0:0|0:0,0:0:0:0:
259,231,105565,1,0,0:0:0:0:
507,237,105715,5,4,0:0:0:0:
397,226,105865,1,0,0:0:0:0:
384,184,105940,1,0,0:0:0:0:
372,142,106015,1,8,0:0:0:0:
474,381,106165,1,0,0:0:0:0:
461,339,106240,1,0,0:0:0:0:
449,297,106315,1,4,0:0:0:0:
315,331,106465,2,0,L|338:228,1,95,0|8,0:0|0:0,0:0:0:0:
468,179,106765,1,0,0:0:0:0:
148,321,106915,6,0,L|35:308,1,95,4|0,0:0|0:0,0:0:0:0:
177,227,107215,2,0,L|290:214,1,95,8|0,0:0|0:0,0:0:0:0:
385,266,107515,2,0,L|367:86,1,142.5,4|0,0:0|0:0,0:0:0:0:
290,141,107815,2,0,L|279:33,1,95,8|0,0:0|0:0,0:0:0:0:
144,80,108115,5,4,0:0:0:0:
82,139,108265,1,2,0:0:0:0:
62,222,108415,1,8,0:0:0:0:
87,303,108565,1,2,0:0:0:0:
158,349,108715,1,4,0:0:0:0:
284,353,108865,1,2,0:0:0:0:
421,356,109015,6,2,L|423:333,6,23.75,2|2|2|2|2|2|2,2:1|2:1|2:1|2:1|2:1|2:1|2:1,2:1:0:0:
131,384,109315,5,4,0:0:0:0:
66,303,109465,1,0,0:0:0:0:
45,201,109615,1,8,0:0:0:0:
71,100,109765,1,0,0:0:0:0:
212,54,109915,1,4,0:0:0:0:
277,135,110065,1,0,0:0:0:0:
298,237,110215,1,8,0:0:0:0:
272,338,110365,1,0,0:0:0:0:
499,225,110515,5,4,0:0:0:0:
381,323,110665,1,0,0:0:0:0:
378,299,110740,1,0,0:0:0:0:
376,281,110815,1,8,0:0:0:0:
254,127,110965,1,0,0:0:0:0:
251,151,111040,1,0,0:0:0:0:
249,169,111115,1,4,0:0:0:0:
140,296,111265,2,0,L|28:296,2,95,0|8|0,0:0|0:0|0:0,0:0:0:0:
464,356,111715,6,0,L|484:232,1,95,2|0,0:0|0:0,0:0:0:0:
356,252,112015,2,0,L|336:128,1,95,2|0,0:0|0:0,0:0:0:0:
464,356,112315,2,0,L|484:232,1,95,2|0,0:0|0:0,0:0:0:0:
328,76,112615,1,2,0:0:0:0:
496,232,112765,6,0,L|264:220,1,227.999993041992,4|8,0:2|0:3,0:0:0:0:
140,340,113215,1,4,0:2:0:0:
392,192,113365,1,4,0:2:0:0:
98,55,113515,1,8,0:0:0:0:
58,87,113590,1,8,1:0:0:0:
25,127,113665,1,8,0:0:0:0:
9,176,113740,1,8,0:0:0:0:
12,226,113815,1,8,0:0:0:0:
30,273,113890,1,8,0:0:0:0:
63,312,113965,1,8,0:0:0:0:
110,335,114040,1,8,0:0:0:0:
328,297,114115,5,4,0:0:0:0:
490,228,114265,1,0,0:0:0:0:
427,218,114340,1,0,0:0:0:0:
364,209,114415,1,8,0:0:0:0:
229,146,114565,1,0,0:0:0:0:
0,87,114715,2,0,L|119:57,1,113.999996520996
414,281,115015,2,0,L|295:251,1,113.999996520996,8|0,0:0|0:0,0:0:0:0:
40,179,115315,5,2,0:0:0:0:
322,283,115465,1,0,0:0:0:0:
325,220,115540,1,0,0:0:0:0:
329,157,115615,1,8,0:0:0:0:
40,173,115765,1,0,0:0:0:0:
37,110,115840,1,0,0:0:0:0:
33,47,115915,1,0,0:0:0:0:
174,153,116065,1,0,0:0:0:0:
235,142,116140,1,0,0:0:0:0:
297,132,116215,1,8,0:0:0:0:
448,202,116365,1,0,0:0:0:0:
197,333,116515,5,2,0:0:0:0:
42,281,116665,1,0,0:0:0:0:
29,220,116740,1,0,0:0:0:0:
16,158,116815,1,8,0:0:0:0:
193,192,116965,1,0,0:0:0:0:
488,108,117115,2,0,L|351:138,1,113.999996520996
220,76,117415,1,8,0:0:0:0:
474,247,117565,6,0,L|225:278,1,227.999993041992,2|0,0:0|0:0,0:0:0:0:
28,97,118015,1,8,0:0:0:0:
273,173,118165,1,0,0:0:0:0:
44,208,118315,1,2,0:0:0:0:
289,284,118465,1,8,0:0:0:0:
53,333,118615,2,0,L|111:345,1,56.9999982604981,8|0,0:0|0:0,0:0:0:0:
188,309,118765,2,0,L|265:290,1,56.9999982604981,8|0,0:0|0:0,0:0:0:0:
498,72,118915,5,2,0:0:0:0:
404,136,119065,2,0,L|324:112,2,56.9999982604981,0|0|8,0:0|0:0|0:0,0:0:0:0:
264,192,119365,2,0,P|152:212|39:230,1,227.999993041992,2|0,0:0|0:0,0:0:0:0:
288,276,119815,1,8,0:0:0:0:
141,305,119965,6,0,P|243:327|369:344,1,227.999993041992,2|0,0:0|0:0,0:0:0:0:
484,246,120415,1,8,0:0:0:0:
348,204,120565,1,0,0:0:0:0:
213,166,120715,1,2,0:0:0:0:
491,169,120865,2,0,L|503:87,2,56.9999982604981,0|0|8,0:0|0:0|0:0,0:0:0:0:
334,213,121165,1,0,0:0:0:0:
35,277,121315,5,2,0:0:0:0:
184,343,121465,1,0,0:0:0:0:
240,315,121540,1,0,0:0:0:0:
296,288,121615,1,8,0:0:0:0:
154,203,121765,1,0,0:0:0:0:
387,162,121915,1,2,0:0:0:0:
260,85,122065,1,0,0:0:0:0:
384,18,122215,1,8,0:0:0:0:
0,269,122365,6,0,P|90:279|228:283,1,227.999993041992,2|0,0:0|0:0,0:0:0:0:
477,42,122815,1,8,0:0:0:0:
236,143,122965,1,0,0:0:0:0:
245,258,123115,1,0,0:0:0:0:
479,362,123265,1,8,0:1:0:0:
498,239,123415,1,8,0:1:0:0:
360,161,123565,1,8,0:1:0:0:
33,197,123715,6,0,L|127:174,1,56.9999982604981,4|0,0:3|0:0,0:0:0:0:
267,131,123865,2,0,L|173:108,1,56.9999982604981
9,69,124015,2,0,L|127:52,1,113.999996520996,8|0,0:3|0:0,0:0:0:0:
271,90,124315,2,0,L|258:195,1,56.9999982604981,4|0,0:3|0:0,0:0:0:0:
94,187,124465,2,0,L|107:292,1,56.9999982604981
252,308,124615,1,8,0:3:0:0:
13,334,124765,6,0,L|144:304,1,113.999996520996,2|0,0:0|0:0,0:0:0:0:
372,360,125065,1,0,0:0:0:0:
511,267,125215,1,8,0:0:0:0:
356,193,125365,1,0,0:0:0:0:
14,288,125515,2,0,L|132:278,1,113.999996520996,8|0,0:0|0:0,0:0:0:0:
65,201,125740,2,0,L|183:191,1,113.999996520996,8|0,0:0|0:0,0:0:0:0:
115,121,125965,1,8,0:0:0:0:
395,141,126115,6,0,L|531:130,1,113.999996520996,2|0,0:1|0:0,0:0:0:0:
269,271,126415,1,8,0:0:0:0:
132,186,126565,1,0,0:0:0:0:
280,108,126715,1,0,0:0:0:0:
112,132,126865,2,0,L|38:126,2,56.9999982604981,0|0|8,0:0|0:0|0:0,0:0:0:0:
280,192,127165,6,0,L|528:159,1,227.999993041992,2|0,0:0|0:0,0:0:0:0:
290,132,127615,1,8,0:0:0:0:
149,176,127765,1,0,0:0:0:0:
8,228,127915,1,2,0:0:0:0:
289,303,128065,1,0,0:0:0:0:
348,322,128140,1,0,0:0:0:0:
409,333,128215,1,8,0:0:0:0:
255,232,128365,1,0,0:0:0:0:
30,315,128515,6,0,P|19:250|24:165,1,113.999996520996,2|0,0:0|0:0,0:0:0:0:
253,167,128815,1,8,0:0:0:0:
512,345,128965,1,0,0:0:0:0:
388,278,129115,1,0,0:0:0:0:
102,242,129265,1,0,0:0:0:0:
226,89,129415,1,8,0:0:0:0:
436,257,129565,6,0,L|168:236,1,227.999993041992,2|0,0:0|0:0,0:0:0:0:
352,180,130015,2,0,L|500:148,1,113.999996520996,8|0,0:0|0:0,0:0:0:0:
319,99,130315,1,2,0:0:0:0:
112,181,130465,1,0,1:1:0:0:
57,173,130540,1,0,1:1:0:0:
2,166,130615,1,8,1:1:0:0:
158,84,130765,1,0,0:0:0:0:
14,49,130915,6,0,L|145:15,1,113.999996520996,2|0,0:0|0:0,0:0:0:0:
435,205,131215,2,0,L|304:171,1,113.999996520996,8|0,0:0|0:0,0:0:0:0:
174,243,131515,1,2,0:0:0:0:
497,172,131665,1,0,0:0:0:0:
501,119,131740,1,0,0:0:0:0:
504,69,131815,1,8,0:0:0:0:
362,16,131965,1,0,0:0:0:0:
64,130,132115,6,0,L|36:359,1,227.999993041992,4|0,0:2|0:1,0:0:0:0:
487,246,132715,2,8,L|503:160,7,56.9999982604981
437,138,133315,6,0,L|257:117,1,170.999994781494,4|0,0:3|0:0,0:0:0:0:
199,68,133615,2,0,P|176:142|184:205,1,113.999996520996,10|0,0:0|0:0,0:0:0:0:
64,220,133915,2,0,P|78:316|95:349,1,113.999996520996,2|0,0:0|0:0,0:0:0:0:
294,373,134215,1,0,0:0:0:0:
219,357,134290,2,0,L|232:220,1,113.999996520996,2|0,0:0|0:0,0:0:0:0:
316,240,134515,6,0,L|303:103,1,113.999996520996
115,240,134740,2,0,L|126:43,1,170.999994781494,2|0,0:0|0:0,0:0:0:0:
480,324,135115,2,0,P|456:252|360:176,1,170.999994781494,2|0,0:0|0:0,0:0:0:0:
304,248,135415,1,8,0:0:0:0:
273,213,135490,1,0,0:0:0:0:
260,169,135565,1,0,0:0:0:0:
270,122,135640,1,0,0:0:0:0:
306,86,135715,6,0,L|435:58,1,113.999996520996,2|0,0:0|0:0,0:0:0:0:
460,78,135940,1,0,0:0:0:0:
486,115,136015,1,2,0:0:0:0:
500,158,136090,1,0,0:0:0:0:
500,203,136165,1,0,0:0:0:0:
481,244,136240,1,0,0:0:0:0:
445,273,136315,2,0,L|376:287,1,56.9999982604981,2|0,0:0|0:0,0:0:0:0:
228,220,136465,2,0,L|297:234,1,56.9999982604981
445,273,136615,2,0,L|376:287,1,56.9999982604981,2|0,0:0|0:0,0:0:0:0:
228,220,136765,2,0,L|297:234,1,56.9999982604981
447,322,136915,6,0,P|489:234|426:142,1,170.999994781494,2|0,0:0|0:0,0:0:0:0:
384,165,137215,1,8,0:0:0:0:
244,224,137365,2,0,P|161:213|101:99,1,170.999994781494,2|0,0:0|0:0,0:0:0:0:
184,138,137665,1,0,0:0:0:0:
438,92,137815,2,8,L|321:42,1,113.999996520996,8|0,0:0|0:0,0:0:0:0:
44,85,138115,6,0,P|1:166|41:266,1,170.999994781494,4|0,0:2|0:0,0:0:0:0:
103,212,138415,2,0,L|123:346,1,113.999996520996,2|0,0:0|0:0,0:0:0:0:
168,308,138640,1,0,0:0:0:0:
203,271,138715,1,0,0:0:0:0:
218,221,138790,1,0,0:0:0:0:
207,170,138865,1,0,0:0:0:0:
172,132,138940,1,0,0:0:0:0:
122,120,139015,2,0,L|96:50,1,56.9999982604981,10|0,0:0|0:0,0:0:0:0:
324,268,139165,2,0,L|350:198,1,56.9999982604981
261,189,139315,6,0,L|235:95,1,56.9999982604981,2|0,0:0|0:0,0:0:0:0:
458,138,139465,2,0,P|436:67|380:14,1,113.999996520996,0|8,0:0|0:0,0:0:0:0:
152,72,139765,1,2,0:0:0:0:
113,95,139840,1,0,0:0:0:0:
82,129,139915,1,0,0:0:0:0:
71,173,139990,1,0,0:0:0:0:
73,218,140065,1,2,0:0:0:0:
97,256,140140,1,0,0:0:0:0:
135,280,140215,2,0,L|252:297,1,113.999996520996,8|2,0:0|0:0,0:0:0:0:
380,355,140515,6,0,P|393:282|369:217,1,113.999996520996,2|0,0:0|0:0,0:0:0:0:
143,188,140815,1,8,0:0:0:0:
402,368,140965,2,0,P|416:290|390:220,1,113.999996520996,2|0,0:0|0:0,0:0:0:0:
135,196,141265,1,0,0:0:0:0:
362,349,141415,2,0,P|375:276|351:211,1,113.999996520996,10|0,0:0|0:0,0:0:0:0:
40,316,141715,6,0,P|100:328|160:300,1,113.999996520996,2|0,0:0|0:0,0:0:0:0:
404,168,142015,2,0,P|344:156|284:184,1,113.999996520996,2|0,0:0|0:0,0:0:0:0:
80,164,142315,2,0,P|140:152|200:180,1,113.999996520996,2|8,0:0|0:0,0:0:0:0:
480,320,142615,2,0,P|420:332|360:304,1,113.999996520996,10|8,0:0|0:0,0:0:0:0:
148,364,142915,6,0,P|136:276|192:192,1,170.999994781494,4|0,0:2|0:0,0:0:0:0:
258,207,143215,2,0,L|218:85,1,113.999996520996,2|0,0:2|0:0,0:0:0:0:
368,230,143515,2,0,P|380:142|324:58,1,170.999994781494,2|0,0:2|0:0,0:0:0:0:
260,66,143815,1,2,0:2:0:0:
369,122,143965,6,0,L|185:94,1,170.999994781494,2|0,0:2|0:0,0:0:0:0:
115,120,144265,2,0,L|103:184|91:248,1,113.999996520996,2|2,0:2|0:2,0:0:0:0:
217,335,144565,1,0,0:1:0:0:
260,318,144640,1,0,0:0:0:0:
293,287,144715,1,2,0:0:0:0:
315,246,144790,1,0,0:0:0:0:
322,201,144865,1,0,0:0:0:0:
316,156,144940,1,0,0:0:0:0:
295,115,145015,1,10,0:0:0:0:
265,80,145090,1,0,0:0:0:0:
228,52,145165,1,0,0:0:0:0:
183,42,145240,1,0,0:0:0:0:
135,56,145315,6,0,L|62:91,1,56.9999982604981,2|0,0:0|0:0,0:0:0:0:
241,138,145465,2,0,L|314:173,1,56.9999982604981
100,367,145615,1,10,0:0:0:0:
62,341,145690,1,0,0:0:0:0:
41,300,145765,1,0,0:0:0:0:
44,254,145840,1,0,0:0:0:0:
69,215,145915,5,2,0:0:0:0:
104,186,145990,1,0,0:0:0:0:
130,148,146065,1,0,0:0:0:0:
139,103,146140,1,0,0:0:0:0:
132,57,146215,1,10,0:0:0:0:
103,21,146290,1,0,0:0:0:0:
57,15,146365,2,0,L|46:80,1,56.9999982604981
306,349,146515,5,2,0:0:0:0:
345,326,146590,1,0,0:0:0:0:
368,287,146665,1,0,0:0:0:0:
376,242,146740,1,0,0:0:0:0:
364,197,146815,1,2,0:0:0:0:
344,155,146890,1,0,0:0:0:0:
314,119,146965,1,0,0:0:0:0:
277,91,147040,1,0,0:0:0:0:
231,84,147115,6,0,L|219:8,1,56.9999982604981,2|0,0:0|0:0,0:0:0:0:
383,232,147265,2,0,L|395:156,1,56.9999982604981
179,220,147415,2,0,L|167:144,1,56.9999982604981,2|0,0:0|0:0,0:0:0:0:
331,368,147565,2,0,L|343:292,1,56.9999982604981
56,349,147715,6,0,L|34:234,1,113.999996520996,4|0,0:2|0:0,0:0:0:0:
167,244,148015,2,0,P|196:168|136:98,1,170.999994781494,8|0,0:0|0:0,0:0:0:0:
72,97,148315,1,2,0:0:0:0:
218,353,148465,2,0,L|252:137,1,170.999994781494,2|0,0:0|0:0,0:0:0:0:
326,206,148765,6,0,P|354:142|292:65,1,170.999994781494,2|0,0:0|0:0,0:0:0:0:
133,173,149065,2,0,L|115:57,1,113.999996520996,2|8,0:0|0:0,0:0:0:0:
388,243,149365,1,0,0:0:0:0:
99,369,149515,2,0,L|116:256,1,113.999996520996,2|0,0:0|0:0,0:0:0:0:
405,149,149815,2,0,L|387:36,1,113.999996520996,8|0,0:0|0:0,0:0:0:0:
260,90,150115,6,0,L|139:97,1,102.600002504883,2|0,0:0|0:0,0:0:0:0:
319,163,150340,2,0,L|440:170,1,102.600002504883,2|0,0:0|0:0,0:0:0:0:
241,209,150565,2,0,L|120:216,1,102.600002504883,2|0,0:0|0:0,0:0:0:0:
300,282,150790,2,0,L|421:289,1,102.600002504883,2|0,0:0|0:0,0:0:0:0:
224,356,151015,2,0,L|103:363,1,102.600002504883,2|0,0:0|0:0,0:0:0:0:
256,274,151315,6,0,P|264:216|230:153,1,113.999996520996,2|2,0:0|0:2,0:0:0:0:
190,159,151540,1,2,0:0:0:0:
139,152,151615,1,0,0:0:0:0:
87,146,151690,1,0,0:0:0:0:
35,141,151765,1,2,0:0:0:0:
253,88,151915,2,0,P|304:64|373:62,1,113.999996520996,0|2,0:0|0:0,0:0:0:0:
482,164,152215,2,0,P|431:188|362:190,1,113.999996520996,8|0,0:0|0:0,0:0:0:0:
12,320,152515,5,4,1:3:0:0:
119,367,152665,1,2,0:0:0:0:
121,361,152740,1,2,0:0:0:0:
123,355,152815,1,2,0:0:0:0:
408,212,152965,1,2,0:0:0:0:
406,206,153040,1,2,0:0:0:0:
404,200,153115,1,2,0:0:0:0:
96,168,153265,1,2,0:0:0:0:
98,162,153340,1,2,0:0:0:0:
100,156,153415,1,2,1:0:0:0:
428,68,153565,1,2,0:1:0:0:
300,108,153715,6,0,P|160:132|92:104,1,176.699992989807,4|0,0:0|0:0,0:0:0:0:
204,216,154015,2,0,L|56:228,1,117.799995326538,8|0,0:0|0:0,0:0:0:0:
339,322,154315,1,2,0:0:0:0:
486,272,154465,1,0,0:0:0:0:
488,242,154540,1,0,0:0:0:0:
490,212,154615,1,8,0:0:0:0:
327,133,154765,1,0,0:0:0:0:
44,188,154915,5,2,0:0:0:0:
196,248,155065,1,0,0:0:0:0:
247,236,155140,1,0,0:0:0:0:
298,224,155215,1,8,0:0:0:0:
451,157,155365,1,0,0:0:0:0:
400,145,155440,1,0,0:0:0:0:
349,133,155515,1,2,0:0:0:0:
502,64,155665,2,0,P|436:44|374:47,1,117.799995326538,0|8,0:0|0:0,0:0:0:0:
160,116,155965,1,0,0:0:0:0:
17,197,156115,5,2,0:0:0:0:
177,292,156265,1,0,0:0:0:0:
229,286,156340,1,0,0:0:0:0:
281,280,156415,1,8,0:0:0:0:
456,334,156565,1,0,0:0:0:0:
166,364,156715,1,2,0:0:0:0:
14,258,156865,1,0,0:0:0:0:
180,171,157015,1,8,0:0:0:0:
485,168,157165,6,0,L|243:131,1,235.599990653077,2|0,0:0|0:0,0:0:0:0:
14,91,157615,1,8,0:0:0:0:
274,171,157765,1,0,0:0:0:0:
31,208,157915,1,2,0:0:0:0:
290,289,158065,1,8,0:0:0:0:
137,265,158215,2,0,L|195:253,1,58.8999976632691,8|0,0:0|0:0,0:0:0:0:
270,290,158365,2,0,L|347:309,1,58.8999976632691,8|0,0:0|0:0,0:0:0:0:
510,205,158515,5,4,0:3:0:0:
367,260,158665,1,0,0:0:0:0:
314,252,158740,1,0,0:0:0:0:
261,244,158815,1,8,0:0:0:0:
100,336,158965,1,0,0:0:0:0:
334,173,159115,1,2,0:0:0:0:
191,195,159265,1,0,0:0:0:0:
432,28,159415,1,8,0:0:0:0:
304,76,159565,6,0,L|48:44,1,235.599990653077,2|0,0:0|0:0,0:0:0:0:
356,276,160015,1,8,0:0:0:0:
484,172,160165,1,0,0:0:0:0:
324,124,160315,1,2,0:0:0:0:
48,292,160465,1,0,0:0:0:0:
100,276,160540,1,0,0:0:0:0:
152,260,160615,1,8,0:0:0:0:
8,168,160765,1,0,0:0:0:0:
240,336,160915,5,2,0:0:0:0:
392,272,161065,1,0,0:0:0:0:
340,256,161140,1,0,0:0:0:0:
288,240,161215,1,8,0:0:0:0:
432,156,161365,1,0,0:0:0:0:
136,132,161515,2,0,L|-16:160,1,117.799995326538,2|0,0:0|0:0,0:0:0:0:
164,56,161815,1,8,0:0:0:0:
512,269,161965,6,0,P|422:279|284:283,1,227.999993041992,2|0,0:0|0:0,0:0:0:0:
35,42,162415,1,8,0:0:0:0:
276,143,162565,1,0,0:0:0:0:
267,258,162715,1,2,0:0:0:0:
33,362,162865,1,0,0:1:0:0:
14,239,163015,1,8,0:1:0:0:
168,164,163165,1,8,0:1:0:0:
496,241,163315,6,0,L|415:229,1,58.8999976632691,4|0,0:3|0:0,0:0:0:0:
284,146,163465,2,0,L|189:156,1,58.8999976632691
54,101,163615,1,8,0:3:0:0:
0,213,163915,2,0,L|81:225,1,58.8999976632691,4|0,0:3|0:0,0:0:0:0:
212,308,164065,2,0,L|307:298,1,58.8999976632691
442,353,164215,1,8,0:3:0:0:
125,151,164365,6,0,L|-3:174,1,117.799995326538,2|0,0:1|0:0,0:0:0:0:
333,124,164665,1,0,0:0:0:0:
472,192,164815,1,8,0:1:0:0:
328,280,164965,1,0,0:0:0:0:
14,288,165115,2,0,L|132:278,1,117.799995326538,8|0,0:0|0:0,0:0:0:0:
65,201,165340,2,0,L|183:191,1,117.799995326538,8|0,0:0|0:0,0:0:0:0:
115,121,165565,1,8,0:0:0:0:
438,329,165715,5,4,0:3:0:0:
311,292,165865,1,0,0:0:0:0:
172,260,166015,1,8,0:0:0:0:
473,127,166165,1,0,0:0:0:0:
334,157,166315,1,2,0:0:0:0:
195,189,166465,1,0,0:0:0:0:
504,244,166615,1,8,0:0:0:0:
368,320,166765,6,0,P|256:328|128:308,1,235.599990653077,2|0,0:0|0:0,0:0:0:0:
264,244,167215,1,8,0:0:0:0:
20,172,167365,1,0,0:0:0:0:
248,104,167515,1,2,0:0:0:0:
4,32,167665,1,8,0:0:0:0:
132,84,167815,2,0,L|196:68,1,58.8999976632691,8|0,0:0|0:0,0:0:0:0:
270,109,167965,2,0,L|328:124,1,58.8999976632691,8|0,0:0|0:0,0:0:0:0:
499,120,168115,5,12,0:3:0:0:
366,214,168265,1,0,0:0:0:0:
313,209,168340,1,0,0:0:0:0:
260,205,168415,1,8,0:0:0:0:
123,333,168565,1,0,0:0:0:0:
247,266,168715,1,2,0:0:0:0:
512,182,168865,1,0,0:0:0:0:
378,114,169015,1,8,0:0:0:0:
37,152,169165,6,0,P|110:119|288:135,1,235.599990653077,2|0,0:0|0:0,0:0:0:0:
410,211,169615,2,0,P|347:207|264:198,1,117.799995326538,8|0,0:0|0:0,0:0:0:0:
441,124,169915,1,2,0:0:0:0:
233,308,170065,1,0,0:0:0:0:
181,296,170140,1,0,0:0:0:0:
129,284,170215,1,8,0:0:0:0:
276,232,170365,1,0,0:0:0:0:
27,268,170515,5,2,0:0:0:0:
304,121,170665,2,0,L|366:130,2,58.8999976632691,0|0|8,0:0|0:0|0:0,0:0:0:0:
169,203,170965,2,0,L|110:194,2,58.8999976632691,0|0|2,0:0|0:0|0:0,0:0:0:0:
512,293,171265,2,0,L|465:139,1,117.799995326538,0|8,0:0|0:0,0:0:0:0:
34,180,171565,2,0,L|81:26,1,117.799995326538,0|2,0:0|0:0,0:0:0:0:
428,339,171865,5,0,0:0:0:0:
295,288,172015,1,8,0:0:0:0:
162,238,172165,1,0,0:0:0:0:
410,295,172315,1,8,0:0:0:0:
450,271,172390,1,8,0:0:0:0:
476,232,172465,1,8,0:0:0:0:
486,186,172540,1,8,0:0:0:0:
483,138,172615,1,8,0:0:0:0:
466,93,172690,1,8,0:0:0:0:
431,60,172765,1,8,0:0:0:0:
387,42,172840,1,8,0:0:0:0:
340,44,172915,6,0,L|320:130,1,75.0500018322754,2|0,0:0|0:0,0:0:0:0:
183,115,173215,2,0,L|203:201,1,75.0500018322754,2|0,0:0|0:0,0:0:0:0:
343,174,173515,1,2,0:0:0:0:
354,232,173665,1,0,0:0:0:0:
365,290,173815,1,0,0:0:0:0:
246,350,173965,2,0,L|269:167,1,150.100003664551,2|0,0:0|0:0,0:0:0:0:
418,206,174415,2,0,L|401:100,1,75.0500018322754,2|0,0:0|0:0,0:0:0:0:
98,287,174715,6,8,L|87:345,7,58.8999976632691
366,276,175315,6,0,P|411:262|473:276,1,95,4|0,0:0|0:0,0:0:0:0:
321,351,175615,2,0,P|265:365|198:348,1,95,8|0,0:1|0:0,0:0:0:0:
96,337,175915,1,6,0:0:0:0:
215,257,176065,1,0,0:0:0:0:
208,240,176140,1,0,0:0:0:0:
201,223,176215,1,8,0:0:0:0:
64,165,176365,1,0,0:0:0:0:
292,114,176515,6,0,L|396:89,1,95,6|0,0:0|0:0,0:0:0:0:
512,194,176815,2,8,L|408:169,1,95,8|0,0:0|0:0,0:0:0:0:
296,253,177115,2,0,L|311:116,1,95,6|0,0:0|0:0,0:0:0:0:
175,216,177415,2,0,P|141:124|180:22,1,190,8|6,0:1|0:1,0:1:0:0:
278,95,177865,6,0,L|378:86,1,95,0|8,0:0|0:0,0:0:0:0:
215,333,178165,2,0,L|115:324,1,95,0|6,0:0|0:0,0:0:0:0:
359,299,178465,1,0,0:0:0:0:
204,223,178615,1,8,0:0:0:0:
366,133,178765,6,0,L|136:98,1,190,2|0,0:0|0:0,0:0:0:0:
37,106,179215,2,0,P|33:148|61:226,1,95,8|0,0:0|0:0,0:0:0:0:
306,202,179515,2,0,L|415:233,1,95,2|0,0:0|0:0,0:0:0:0:
512,295,179815,2,0,L|403:326,1,95,8|0,0:0|0:0,0:0:0:0:
129,343,180115,6,0,L|14:331,1,95,4|0,0:3|0:0,0:0:0:0:
156,264,180415,2,0,L|264:248,1,95,8|0,0:0|0:0,0:0:0:0:
423,295,180715,1,6,0:0:0:0:
296,179,180865,1,0,0:0:0:0:
302,70,181015,1,8,0:0:0:0:
437,171,181165,6,0,L|221:219,1,190,2|0,0:0|0:0,0:0:0:0:
103,185,181615,2,0,L|80:309,1,95,8|0,0:0|0:0,0:0:0:0:
382,335,181915,1,6,0:0:0:0:
261,308,182065,1,0,0:0:0:0:
140,281,182215,1,8,0:0:0:0:
498,253,182515,6,0,L|466:163,1,95,6|0,0:0|0:0,0:0:0:0:
321,150,182815,2,0,L|353:60,1,95,8|0,0:0|0:0,0:0:0:0:
237,279,183115,1,6,0:0:0:0:
116,215,183265,1,0,0:0:0:0:
215,117,183415,1,8,0:0:0:0:
476,318,183565,6,0,L|498:109,1,190,6|0,0:0|0:0,0:0:0:0:
264,186,184015,2,0,L|248:79,1,95,8|0,0:0|0:0,0:0:0:0:
87,309,184315,2,0,L|103:202,1,95,6|0,0:0|0:0,0:0:0:0:
251,242,184615,2,0,L|379:201,1,95,8|0,0:0|0:0,0:0:0:0:
490,183,184915,6,0,L|473:71,1,95,4|0,0:3|0:0,0:0:0:0:
344,237,185215,2,0,L|451:266,1,95,8|0,0:3|0:0,0:0:0:0:
22,201,185515,2,0,L|39:313,1,95,4|4,0:3|0:3,0:0:0:0:
168,147,185815,2,0,L|61:118,1,95,8|0,0:3|0:0,0:0:0:0:
393,302,186115,6,0,L|499:277,1,95,0|4,0:3|0:3,0:0:0:0:
348,223,186415,2,0,L|254:195,1,95,8|0,0:3|0:0,0:0:0:0:
504,117,186715,2,0,L|305:65,1,190,4|8,0:3|0:3,0:0:0:0:
25,223,187165,2,0,L|20:159,2,47.5,0|0|4,0:3|0:0|0:3,0:0:0:0:
174,187,187465,6,0,L|294:164,1,95,0|8,0:0|0:3,0:0:0:0:
418,259,187765,1,0,0:0:0:0:
155,286,187915,2,0,L|275:309,1,95,4|0,0:3|0:3,0:0:0:0:
399,214,188215,1,8,0:3:0:0:
143,352,188365,6,0,P|79:304|31:176,1,190,0|4,0:3|0:3,0:0:0:0:
260,271,188815,1,8,0:3:0:0:
389,169,188965,1,0,0:0:0:0:
252,74,189115,1,4,0:3:0:0:
123,176,189265,1,0,0:0:0:0:
461,266,189415,2,0,L|333:245,1,95,8|0,0:3|0:0,0:0:0:0:
32,335,189715,6,4,L|45:229,1,95,4|0,0:3|0:3,0:3:0:0:
153,167,190015,2,0,L|141:261,1,95,8|0,0:3|0:3,0:0:0:0:
480,335,190315,2,4,L|467:229,1,95,4|0,0:3|0:3,0:3:0:0:
355,169,190615,2,0,L|366:263,1,95,8|0,0:3|0:3,0:0:0:0:
25,153,190915,6,0,L|128:135,1,95,4|4,0:3|0:3,0:0:0:0:
340,284,191215,2,0,L|237:266,1,95,8|4,0:3|0:3,0:0:0:0:
17,262,191515,2,0,L|225:211,1,190,4|8,0:3|0:3,0:0:0:0:
484,183,191965,2,0,L|495:93,2,47.5,0|0|4,0:0|0:0|0:3,0:0:0:0:
233,325,192265,6,0,L|109:306,1,95,0|8,0:0|0:3,0:0:0:0:
280,254,192565,2,0,L|404:235,1,95,0|4,0:0|0:3,0:0:0:0:
150,194,192865,1,4,0:3:0:0:
368,130,193015,1,8,0:3:0:0:
147,106,193165,1,0,0:0:0:0:
365,42,193315,1,4,0:3:0:0:
44,299,193465,6,0,L|67:182,1,95,6|8,0:3|0:3,0:0:0:0:
311,236,193765,1,6,0:3:0:0:
480,239,193915,2,0,L|457:122,1,95,0|6,0:3|1:3,0:0:0:0:
201,148,194215,2,0,L|177:258,1,95,8|0,0:0|0:0,0:0:0:0:
300,256,194515,5,0,0:0:0:0:
306,266,194590,1,0,0:0:0:0:
312,276,194665,1,2,0:0:0:0:
409,224,194815,1,2,0:0:0:0:
403,215,194890,1,0,0:0:0:0:
397,206,194965,1,0,0:0:0:0:
263,104,195115,2,0,L|298:174,1,71.2500027179719,2|0,0:0|0:0,0:0:0:0:
177,195,195415,1,2,0:0:0:0:
325,330,195565,6,0,L|246:189,1,142.500005435944,2|0,0:0|0:0,0:0:0:0:
399,117,196015,2,0,L|364:187,1,71.2500027179719,2|0,0:0|0:0,0:0:0:0:
48,304,196315,2,2,L|42:138,1,142.500005435944
