osu file format v14

[General]
AudioFilename: audio.mp3
AudioLeadIn: -2000
PreviewTime: 213729
Countdown: 0
SampleSet: Soft
StackLeniency: 0.7
Mode: 0
LetterboxInBreaks: 0
WidescreenStoryboard: 1

[Editor]
Bookmarks: 629,15029,27829,40629,53429,66229,95029,107829,120629,120729,120829,120929,121029,121129,121229,121329,121429,121529,121629,121729,121829,121929,122029,122129,122229,122329,122429,122529,122629,122729,122829,122929,123029,123129,123229,123329,123429,123529,123629,123729,123829,123929,124029,124129,124229,124329,124429,124529,124629,124729,124829,124929,125029,125129,125229,125329,125429,125529,125629,125729,125829,125929,126029,126129,126229,126329,126429,126529,126629,126729,126829,126929,127029,127129,127229,127329,127429,127529,127629,127729,127829,127929,128029,128129,128229,128329,128429,128529,128629,128729,128829,128929,129029,129129,129229,129329,129429,129529,129629,129729,129829,129929,130029,130129,130229,130329,130429,130529,130629,130729,130829,130929,131029,131129,131229,131329,131429,131529,131629,131729,131829,131929,132029,132129,132229,132329,132429,132529,132629,132729,132829,132929,133029,133129,133229,133329,133429,146229,159029,187829,200629,216629,229429,245429,258229,276129
DistanceSpacing: 0.8
BeatDivisor: 4
GridSize: 4
TimelineZoom: 4.399998

[Metadata]
Title:God knows...
TitleUnicode:God knows...
Artist:Suzumiya Haruhi(C.V.Hirano Aya)
ArtistUnicode:涼宮ハルヒ(C.V.平野綾)
Creator:ShiraKai
Version:Collab
Source:涼宮ハルヒの憂鬱
Tags:kacha nasya n_a_s_y_a suzumiya haruhi no yuuutsu
BeatmapID:1508137
BeatmapSetID:713542

[Difficulty]
HPDrainRate:6
CircleSize:3.8
OverallDifficulty:7.5
ApproachRate:9
SliderMultiplier:1.7
SliderTickRate:1

[Events]
//Background and Video events
0,0,"BG.jpg",0,0
//Break Periods
2,120829,132679
//Storyboard Layer 0 (Background)
//Storyboard Layer 1 (Fail)
//Storyboard Layer 2 (Pass)
//Storyboard Layer 3 (Foreground)
//Storyboard Sound Samples

[TimingPoints]
629,400,4,2,1,70,1,0
1429,-76.9230769230769,4,2,1,70,0,0
2229,-100,4,2,1,80,0,0
2529,-66.6666666666667,4,2,1,80,0,0
3829,-100,4,2,1,80,0,0
4129,-66.6666666666667,4,2,1,80,0,0
5429,-100,4,2,1,80,0,0
5729,-66.6666666666667,4,2,1,80,0,0
7629,-100,4,2,1,80,0,0
8929,-66.6666666666667,4,2,1,80,0,0
10229,-100,4,2,1,80,0,0
10529,-66.6666666666667,4,2,1,80,0,0
11829,-100,4,2,1,80,0,0
14629,-66.6666666666667,4,2,1,80,0,0
14729,-100,4,2,1,80,0,0
18229,-55.5555555555556,4,2,1,80,0,0
19029,-100,4,2,1,80,0,0
27429,-200,4,2,1,80,0,0
27729,-200,4,2,1,5,0,0
27829,-100,4,2,1,40,0,0
33829,-133.333333333333,4,2,1,40,0,0
34229,-100,4,2,1,40,0,0
39029,-100,4,2,1,50,0,0
40629,-100,4,2,1,60,0,0
45029,-100,4,2,1,30,0,0
45429,-100,4,2,1,35,0,0
45829,-100,4,2,1,40,0,0
46229,-100,4,2,1,45,0,0
46629,-76.9230769230769,4,2,1,55,0,0
47029,-100,4,2,1,60,0,0
50629,-142.857142857143,4,2,1,50,0,0
51029,-125,4,2,1,55,0,0
51429,-111.111111111111,4,2,1,60,0,0
51829,-90.9090909090909,4,2,1,65,0,0
52229,-76.9230769230769,4,2,1,70,0,0
52629,-66.6666666666667,4,2,1,75,0,0
53029,-55.5555555555556,4,2,1,80,0,0
53329,-100,4,2,1,5,0,0
53429,-100,4,2,1,70,0,0
64629,-66.6666666666667,4,2,1,75,0,0
66229,-90.9090909090909,4,2,1,85,0,1
78929,-90.9090909090909,4,2,1,85,0,0
79029,-90.9090909090909,4,2,1,85,0,1
95029,-100,4,2,1,80,0,0
95329,-66.6666666666667,4,2,1,80,0,0
99829,-100,4,2,1,80,0,0
101729,-66.6666666666667,4,2,1,80,0,0
104629,-100,4,2,1,80,0,0
107429,-66.6666666666667,4,2,1,80,0,0
107629,-90.9090909090909,4,2,1,80,0,0
107829,-100,4,2,1,80,0,0
111029,-55.5555555555556,4,2,1,80,0,0
111829,-100,4,2,1,80,0,0
113029,-76.9230769230769,4,2,1,80,0,0
113829,-100,4,2,1,80,0,0
117429,-66.6666666666667,4,2,1,80,0,0
119029,-55.5555555555556,4,2,1,80,0,0
119429,-76.9230769230769,4,2,1,80,0,0
133429,-100,4,2,1,60,0,0
138229,-100,4,2,1,40,0,0
138629,-100,4,2,1,45,0,0
139029,-100,4,2,1,50,0,0
139429,-100,4,2,1,55,0,0
139829,-100,4,2,1,60,0,0
143829,-100,4,2,1,50,0,0
144229,-100,4,2,1,55,0,0
144629,-90.9090909090909,4,2,1,60,0,0
145029,-83.3333333333333,4,2,1,65,0,0
145429,-76.9230769230769,4,2,1,70,0,0
145829,-76.9230769230769,4,2,1,80,0,0
146229,-100,4,2,1,70,0,0
156029,-100,4,2,1,80,0,0
156629,-83.3333333333333,4,2,1,80,0,0
157029,-71.4285714285714,4,2,1,80,0,0
157429,-58.8235294117647,4,2,1,80,0,0
158629,-76.9230769230769,4,2,1,80,0,0
159029,-90.9090909090909,4,2,1,85,0,1
171529,-90.9090909090909,4,2,1,85,0,0
171629,-90.9090909090909,4,2,1,85,0,1
187829,-142.857142857143,4,2,1,60,0,0
199029,-111.111111111111,4,2,1,70,0,0
200229,-50,4,2,1,70,0,0
200629,-111.111111111111,4,2,1,60,0,0
209029,-142.857142857143,4,2,1,70,0,0
209329,-142.857142857143,4,2,1,5,0,0
209429,-166.666666666666,4,2,1,75,0,0
209729,-166.666666666666,4,2,1,5,0,0
209829,-200,4,2,1,80,0,0
210129,-200,4,2,1,5,0,0
210229,-200,4,2,1,30,0,0
210629,-200,4,2,1,40,0,0
211029,-100,4,2,1,50,0,0
211829,-100,4,2,1,70,0,0
212629,-100,4,2,1,90,0,0
213429,-100,4,2,1,100,0,0
214629,-100,4,2,1,70,0,0
214829,-66.6666666666667,4,2,1,85,0,0
214929,-66.6666666666667,4,2,1,5,0,0
215029,-200,4,2,1,85,0,0
216429,-76.9230769230769,4,2,1,85,0,0
216629,-83.3333333333333,4,2,1,90,0,1
221229,-100,4,2,1,90,0,1
221629,-125,4,2,1,90,0,1
222029,-166.666666666667,4,2,1,90,0,1
222429,-50,4,2,1,90,0,1
222629,-62.5,4,2,1,90,0,1
222829,-83.3333333333333,4,2,1,90,0,1
223029,-83.3333333333333,4,2,1,90,0,1
229329,-83.3333333333333,4,2,1,90,0,0
229429,-58.8235294117647,4,2,1,90,0,1
230229,-66.6666666666667,4,2,1,90,0,1
230829,-58.8235294117647,4,2,1,90,0,1
232429,-50,4,2,1,90,0,1
234029,-66.6666666666667,4,2,1,90,0,1
235829,-66.6666666666667,4,2,1,90,0,1
236629,-55.5555555555556,4,2,1,90,0,1
239629,-58.8235294117647,4,2,1,90,0,1
239829,-66.6666666666667,4,2,1,90,0,1
240629,-66.6666666666667,4,2,1,90,0,1
241229,-58.8235294117647,4,2,1,90,0,1
241429,-55.5555555555556,4,2,1,90,0,1
241729,-52.6315789473684,4,2,1,90,0,1
242029,-50,4,2,1,90,0,1
245429,-33.3333333333333,4,2,1,90,0,0
245829,-52.6315789473684,4,2,1,90,0,0
246229,-71.4285714285714,4,2,1,90,0,0
246629,-50,4,2,1,90,0,0
247029,-62.5,4,2,1,90,0,0
247829,-50,4,2,1,90,0,0
248429,-41.6666666666667,4,2,1,90,0,0
249029,-55.5555555555556,4,2,1,90,0,0
249429,-76.9230769230769,4,2,1,90,0,0
249829,-33.3333333333333,4,2,1,90,0,0
250229,-62.5,4,2,1,90,0,0
251229,-166.666666666667,4,2,1,90,0,0
251629,-71.4285714285714,4,2,1,90,0,0
252029,-50,4,2,1,90,0,0
252229,-58.8235294117647,4,2,1,90,0,0
252629,-83.3333333333333,4,2,1,90,0,0
254229,-41.6666666666667,4,2,1,90,0,0
254629,-37.037037037037,4,2,1,90,0,0
255029,-33.3333333333333,4,2,1,90,0,0
256229,-66.6666666666667,4,2,1,90,0,0
256629,-33.3333333333333,4,2,1,90,0,0
257429,-37.037037037037,4,2,1,90,0,0
258029,-45.4545454545455,4,2,1,90,0,0
258829,-30.4545454545455,4,2,1,90,0,0
259229,-66.6666666666667,4,2,1,90,0,0
259429,-55.5555555555556,4,2,1,90,0,0
260029,-66.6666666666667,4,2,1,90,0,0
261429,-50,4,2,1,90,0,0
261829,-45,4,2,1,90,0,0
262229,-50,4,2,1,90,0,0
262429,-47,4,2,1,90,0,0
262629,-45,4,2,1,90,0,0
262829,-50,4,2,1,90,0,0
263429,-45,4,2,1,90,0,0
263829,-66.6666666666667,4,2,1,90,0,0
264229,-45,4,2,1,90,0,0

[HitObjects]
252,64,629,5,0,3:0:0:0:
252,64,1029,1,0,3:0:0:0:
408,132,1429,2,0,P|376:144|300:92,1,110.499994941712,8|0,0:3|0:0,0:0:0:0:
318,121,1729,1,8,0:0:0:0:
318,121,1829,2,0,L|398:97,1,55.2499974708558,8|8,0:0|0:0,0:0:0:0:
432,228,2029,1,8,0:3:0:0:
264,296,2229,6,0,L|152:272,1,85,6|0,0:1|0:0,0:0:0:0:
32,228,2529,2,0,P|96:240|156:172,1,127.500004863739,2|0,0:1|0:1,0:0:0:0:
188,132,2829,1,2,0:1:0:0:
264,296,3029,6,0,L|252:360,2,63.7500024318696,2|0|0,0:1|0:0|0:0,0:0:0:0:
296,224,3329,1,0,0:0:0:0:
362,258,3429,2,0,P|367:199|298:149,1,127.500004863739,10|2,0:1|0:1,0:0:0:0:
159,104,3829,6,0,L|75:128,1,85,2|0,0:1|0:0,0:0:0:0:
16,224,4129,2,0,L|168:260,1,127.500004863739,2|0,0:1|0:0,0:0:0:0:
0,144,4429,1,2,0:1:0:0:
244,116,4629,6,0,P|236:76|220:24,2,63.7500024318696,2|0|0,0:1|0:0|0:1,0:0:0:0:
220,263,4929,1,0,0:0:0:0:
180,200,5029,2,0,P|256:196|288:264,1,127.500004863739,10|2,0:1|0:1,0:0:0:0:
451,279,5429,6,0,L|364:303,1,85,2|0,0:1|0:0,0:0:0:0:
290,357,5729,2,0,P|298:301|315:201,1,127.500004863739,2|0,0:1|0:0,0:0:0:0:
325,157,6029,1,2,0:1:0:0:
165,190,6229,6,0,L|189:113,1,63.7500024318696,2|0,0:1|0:0,0:0:0:0:
76,251,6429,2,0,L|61:175,1,63.7500024318696,0|0,0:1|0:0,0:0:0:0:
13,126,6629,1,10,0:1:0:0:
43,334,6829,1,2,0:1:0:0:
224,184,7029,6,0,P|264:224|249:295,1,127.500004863739,2|0,0:1|0:0,0:0:0:0:
160,260,7429,1,8,0:0:0:0:
333,293,7629,6,0,P|295:264|307:147,1,170,2|2,0:1|0:1,0:0:0:0:
381,78,8229,1,10,0:1:0:0:
245,3,8429,1,2,0:1:0:0:
112,160,8629,6,0,L|208:180,1,85,2|0,0:1|0:0,0:0:0:0:
306,228,8929,2,0,L|170:268,1,127.500004863739,2|0,0:1|0:0,0:0:0:0:
240,104,9229,1,2,0:1:0:0:
416,232,9429,6,0,L|384:320,2,63.7500024318696,2|0|0,0:1|0:0|0:0,0:0:0:0:
248,340,9729,1,0,0:0:0:0:
316,364,9829,2,0,P|308:300|236:264,1,127.500004863739,10|2,0:1|0:1,0:0:0:0:
64,148,10229,6,0,P|112:144|164:116,1,85,2|0,0:1|0:0,0:0:0:0:
248,80,10529,2,0,P|224:148|216:220,1,127.500004863739,2|0,0:1|0:0,0:0:0:0:
248,340,10829,1,2,0:1:0:0:
368,238,11029,6,0,L|291:211,1,63.7500024318696,2|0,0:1|0:0,0:0:0:0:
240,152,11229,2,0,P|268:132|324:128,1,63.7500024318696
396,310,11429,1,10,0:1:0:0:
441,179,11629,1,2,0:1:0:0:
300,264,11829,6,0,L|309:290,2,28.3333333333333,2|0|0,0:1|0:1|0:1,0:1:0:0:
225,171,12029,2,0,L|189:167,2,28.3333333333333,2|0|0,0:1|0:0|0:0,0:0:0:0:
300,264,12229,6,0,L|309:290,2,28.3333333333333,10|0|0,0:1|0:0|0:0,0:0:0:0:
225,171,12429,2,0,L|189:167,2,28.3333333333333,2|0|0,0:1|0:0|0:0,0:0:0:0:
300,264,12629,6,0,L|309:290,2,28.3333333333333,2|0|0,0:1|0:0|0:0,0:0:0:0:
225,171,12829,2,0,L|189:167,2,28.3333333333333,2|0|0,0:1|0:0|0:0,0:0:0:0:
300,264,13029,6,0,L|309:290,2,28.3333333333333,10|0|0,0:1|0:0|0:0,0:0:0:0:
225,171,13229,2,0,L|189:167,2,28.3333333333333,2|0|0,0:1|0:0|0:0,0:0:0:0:
112,112,13429,6,2,P|140:96|172:84,1,42.5,2|0,0:1|0:0,0:1:0:0:
216,256,13629,2,0,P|180:240|164:228,1,42.5,2|0,0:1|0:0,0:0:0:0:
296,156,13829,6,0,L|312:224,1,42.5,10|0,0:1|0:0,0:0:0:0:
172,256,14029,2,0,L|160:192,1,42.5,2|0,0:1|0:0,0:0:0:0:
328,204,14229,6,2,P|316:240|296:264,1,42.5,2|0,0:1|0:0,0:1:0:0:
168,128,14429,2,0,P|200:112|224:104,1,42.5,2|0,0:1|0:0,0:0:0:0:
360,240,14629,6,0,L|272:224,1,63.7500024318696,10|0,0:1|0:0,0:0:0:0:
96,196,14829,1,4,0:3:0:0:
264,237,15029,5,6,0:1:0:0:
344,66,15229,1,2,0:0:0:0:
344,66,15329,2,2,P|332:106|325:148,1,85,2|0,0:1|0:0,0:1:0:0:
296,156,15629,1,2,0:1:0:0:
65,227,15829,5,2,0:0:0:0:
92,238,15929,1,2,0:1:0:0:
121,233,16029,1,2,0:0:0:0:
145,215,16129,1,0,0:0:0:0:
152,186,16229,2,0,P|144:144|133:103,1,85,10|2,0:1|0:1,0:0:0:0:
50,198,16629,5,2,0:1:0:0:
214,273,16829,1,2,0:0:0:0:
214,273,16929,2,2,P|252:254|293:246,1,85,2|0,0:1|0:0,0:1:0:0:
320,259,17229,1,2,0:1:0:0:
152,351,17429,5,2,0:0:0:0:
122,351,17529,1,2,0:1:0:0:
94,340,17629,1,2,0:0:0:0:
64,339,17729,1,0,0:0:0:0:
36,350,17829,1,10,0:1:0:0:
320,259,18029,1,2,0:1:0:0:
245,358,18229,6,2,B|266:354|286:366|286:366|294:344|294:344|308:362|308:362|339:361|374:375,1,152.999995330811,6|0,0:1|0:0,0:1:0:0:
320,259,18529,2,2,B|336:245|359:245|359:245|355:222|355:222|376:230|376:230|402:214|440:208,1,152.999995330811,2|0,0:1|0:0,0:1:0:0:
329,139,18829,1,2,0:1:0:0:
186,251,19029,5,2,0:1:0:0:
186,251,19129,2,2,L|74:233,1,85,0|0,0:0|0:0,0:1:0:0:
73,228,19429,2,0,P|80:247|85:268,1,42.5,10|0,0:1|0:0,0:0:0:0:
127,109,19629,2,0,P|119:128|114:149,1,42.5,2|0,0:1|0:0,0:0:0:0:
78,33,19829,5,2,0:1:0:0:
208,152,20029,1,2,0:0:0:0:
208,152,20129,2,2,L|320:134,1,85,2|0,0:1|0:0,0:1:0:0:
310,115,20429,1,2,0:1:0:0:
275,351,20629,6,0,P|276:329|281:309,3,42.5,2|2|2|0,0:0|0:1|0:0|0:0,0:0:0:0:
177,330,21029,2,0,P|156:333|134:334,1,42.5,10|0,0:1|0:0,0:0:0:0:
351,244,21229,2,0,P|372:244|393:248,1,42.5,2|0,0:1|0:0,0:0:0:0:
176,137,21429,5,6,0:1:0:0:
265,287,21629,1,2,0:0:0:0:
265,287,21729,2,2,P|258:245|257:202,1,85,2|0,0:1|0:0,0:1:0:0:
284,189,22029,1,2,0:1:0:0:
69,280,22229,5,2,0:0:0:0:
41,269,22329,1,2,0:1:0:0:
30,241,22429,1,2,0:0:0:0:
35,211,22529,1,0,0:0:0:0:
57,192,22629,2,0,P|97:206|138:212,1,85,10|2,0:1|0:1,0:0:0:0:
284,189,23029,5,2,0:1:0:0:
255,60,23229,1,2,0:0:0:0:
255,60,23329,2,2,P|213:66|173:80,1,85,2|0,0:1|0:0,0:1:0:0:
143,73,23629,2,0,L|151:114,1,42.5,2|0,0:1|0:0,0:0:0:0:
284,189,23829,5,2,0:0:0:0:
314,189,23929,1,2,0:1:0:0:
342,178,24029,1,2,0:0:0:0:
372,177,24129,1,0,0:0:0:0:
400,188,24229,1,10,0:1:0:0:
265,287,24429,1,2,0:1:0:0:
441,310,24629,6,0,P|443:296|446:282,2,28.3333333333333,2|0|0,0:1|0:0|0:0,0:0:0:0:
359,369,24829,2,0,P|356:355|353:342,2,28.3333333333333,2|0|0,0:1|0:0|0:0,0:0:0:0:
259,314,25029,6,0,P|262:300|265:287,2,28.3333333333333,10|0|0,0:1|0:0|0:0,0:0:0:0:
350,370,25229,2,0,L|347:356|344:342,2,28.3333333333333,2|0|0,0:1|0:0|0:0,0:0:0:0:
246,313,25429,6,0,P|248:299|251:285,2,28.3333333333333,2|0|0,0:1|0:0|0:0,0:0:0:0:
164,372,25629,2,0,P|161:358|158:345,2,28.3333333333333,2|0|0,0:1|0:0|0:0,0:0:0:0:
64,317,25829,6,0,P|67:303|70:290,2,28.3333333333333,10|0|0,0:1|0:0|0:0,0:0:0:0:
155,373,26029,2,0,L|152:359|149:345,2,28.3333333333333,2|0|0,0:1|0:0|0:0,0:0:0:0:
162,244,26229,5,6,0:1:0:0:
53,205,26429,2,2,P|94:212|133:230,1,85,2|8,0:0|0:0,0:1:0:0:
209,73,26829,1,2,0:1:0:0:
209,73,26929,1,2,0:0:0:0:
209,73,27029,2,0,P|204:115|195:156,1,85,2|2,0:0|0:1,0:0:0:0:
97,111,27429,6,2,P|103:142|107:174,1,63.75,8|0,0:0|0:0,0:1:0:0:
36,200,27829,5,4,0:0:0:0:
36,200,28229,1,2,0:0:0:0:
36,200,28629,1,2,0:0:0:0:
36,200,29029,1,2,0:0:0:0:
36,200,29429,1,2,0:0:0:0:
36,200,29829,1,2,0:0:0:0:
36,200,30229,1,2,0:0:0:0:
36,200,30629,6,2,P|64:224|68:264,1,42.5,2|0,0:0|0:0,0:1:0:0:
56,280,30829,1,0,3:1:0:0:
136,340,31029,6,0,P|160:256|200:148,1,170,4|2,0:3|0:0,0:0:0:0:
291,83,31629,1,0,0:0:0:0:
291,83,31729,1,0,0:0:0:0:
291,83,31829,2,0,P|303:135|315:179,1,85,2|0,0:0|0:0,0:0:0:0:
228,156,32229,1,2,0:0:0:0:
312,166,32429,6,2,L|203:152,1,85,0|2,0:0|0:0,0:1:0:0:
480,196,32829,2,2,L|371:210,1,85,0|2,0:0|0:0,0:1:0:0:
296,256,33229,1,0,0:0:0:0:
280,244,33329,1,0,0:0:0:0:
276,224,33429,1,2,0:0:0:0:
296,112,33629,1,0,0:0:0:0:
376,252,33829,6,0,P|364:292|352:316,1,63.7500024318696,0|0,3:0|0:0,0:0:0:0:
354,311,34229,6,0,P|282:251|194:279,1,170,4|2,0:3|0:0,0:0:0:0:
112,332,34829,1,0,0:0:0:0:
112,332,34929,1,0,0:0:0:0:
116,336,35029,2,0,P|96:280|84:224,1,85,2|0,0:0|0:0,0:0:0:0:
144,68,35429,1,2,0:0:0:0:
32,176,35629,1,0,0:0:0:0:
32,176,35729,1,0,0:0:0:0:
36,180,35829,6,0,P|80:168|232:132,1,170,4|2,0:3|0:0,0:0:0:0:
300,260,36429,1,0,0:0:0:0:
432,168,36629,2,0,L|316:140,1,85,2|0,0:0|0:0,0:0:0:0:
264,48,37029,1,2,0:0:0:0:
256,256,37229,5,0,0:0:0:0:
256,256,37329,1,0,0:0:0:0:
256,256,37429,2,0,L|236:147,1,85,4|0,0:3|0:0,0:0:0:0:
98,156,37829,2,0,L|118:55,1,85,2|0,0:0|0:0,0:0:0:0:
263,171,38229,1,2,0:0:0:0:
256,256,38429,1,2,0:1:0:0:
197,118,38629,2,0,P|239:93|289:92,1,85,2|2,0:0|0:1,0:0:0:0:
368,232,39029,6,2,P|460:216|488:152,1,170,2|0,0:1|0:1,0:1:0:0:
424,40,39629,1,0,3:0:0:0:
332,144,39829,2,2,P|260:212|288:284,1,170,2|2,0:1|3:1,0:1:0:0:
352,360,40429,1,0,0:0:0:0:
343,222,40629,6,0,P|259:237|174:240,1,170,0|2,3:0|3:0,0:0:0:0:
88,172,41229,1,0,0:0:0:0:
68,166,41329,1,0,0:0:0:0:
47,167,41429,1,0,3:0:0:0:
58,290,41629,1,0,0:0:0:0:
175,257,41829,2,0,P|170:299|162:341,1,85,0|0,3:0|0:0,0:0:0:0:
50,276,42229,5,0,3:0:0:0:
174,240,42429,1,0,0:0:0:0:
68,166,42629,1,0,3:0:0:0:
175,257,42829,5,0,0:0:0:0:
249,187,43029,1,0,3:0:0:0:
229,86,43229,1,0,0:0:0:0:
154,155,43429,5,0,3:0:0:0:
337,221,43629,1,0,0:0:0:0:
315,120,43829,6,0,B|358:105|358:105|391:108|391:108|436:89,1,127.5,0|0,3:0|0:0,0:0:0:0:
420,119,44229,1,2,3:0:0:0:
234,65,44429,1,0,0:0:0:0:
234,65,44529,1,0,0:0:0:0:
234,65,44629,2,0,B|203:54|203:54|180:56|180:56|153:44,1,85,0|0,3:0|0:0,0:0:0:0:
296,231,45029,6,2,P|317:227|337:220,1,42.5,0|0,3:0|0:0,0:1:0:0:
365,188,45229,2,2,P|368:209|375:229,1,42.5,0|0,0:0|0:0,0:1:0:0:
409,254,45429,2,2,P|387:257|367:264,1,42.5,0|0,3:0|0:0,0:1:0:0:
343,298,45629,2,2,P|339:276|332:256,1,42.5,0|0,0:0|0:0,0:1:0:0:
337,220,45829,6,2,P|317:227|296:231,1,42.5,0|0,3:0|0:0,0:1:0:0:
297,273,46029,2,2,P|276:265|255:262,1,42.5,0|0,0:0|0:0,0:1:0:0:
257,220,46229,2,2,P|236:227|215:230,1,42.5,0|0,3:0|0:0,0:1:0:0:
215,272,46429,2,2,P|194:264|173:261,1,42.5,0|0,0:0|0:0,0:1:0:0:
144,228,46629,6,2,P|141:255|137:282,1,55.2499974708558,0|0,3:0|0:0,0:1:0:0:
4,175,46829,2,2,P|31:172|58:168,1,55.2499974708558,0|0,0:0|0:0,0:1:0:0:
78,45,47029,6,0,P|82:123|160:128,1,170,0|2,3:0|3:0,0:0:0:0:
221,56,47629,1,0,0:0:0:0:
226,36,47729,1,0,0:0:0:0:
229,19,47829,1,0,3:0:0:0:
307,90,48029,1,0,0:0:0:0:
379,19,48229,2,0,P|411:45|451:61,1,85,0|0,3:0|0:0,0:0:0:0:
258,177,48629,5,0,3:0:0:0:
394,130,48829,1,0,0:0:0:0:
241,183,49029,1,0,3:0:0:0:
368,296,49229,5,0,0:0:0:0:
439,221,49429,1,0,3:0:0:0:
394,130,49629,1,0,0:0:0:0:
336,209,49829,5,0,3:0:0:0:
469,313,50029,1,0,0:0:0:0:
368,296,50229,2,0,P|343:331|330:371,1,85,0|0,3:0|0:0,0:0:0:0:
170,358,50629,6,2,L|198:350,1,29.7499990921021,0|0,3:0|0:0,0:1:0:0:
241,338,50829,2,2,L|213:346,1,29.7499990921021,0|0,0:0|0:0,0:1:0:0:
15,266,51029,6,2,L|48:275,1,34,0|0,3:0|0:0,0:1:0:0:
100,290,51229,2,2,L|67:281,1,34,0|0,0:0|0:0,0:1:0:0:
321,225,51429,6,2,L|283:234,1,38.2499988327027,0|0,3:0|0:0,0:1:0:0:
224,251,51629,2,2,L|261:241,1,38.2499988327027,0|0,0:0|0:0,0:1:0:0:
72,159,51829,6,2,L|85:212,1,46.7500014266968,0|0,3:0|0:0,0:1:0:0:
198,131,52029,2,2,L|186:176,1,46.7500014266968,0|0,0:0|0:0,0:1:0:0:
37,125,52229,6,2,P|63:132|86:147,1,55.2499974708558,0|0,3:0|0:0,0:1:0:0:
234,101,52429,2,2,P|207:108|184:123,1,55.2499974708558,0|0,0:0|0:0,0:1:0:0:
25,81,52629,6,2,P|23:112|14:143,1,63.7500024318696,0|0,3:0|0:0,0:1:0:0:
248,60,52829,2,2,P|249:91|258:122,1,63.7500024318696,0|0,0:0|0:0,0:1:0:0:
132,4,53029,6,2,B|128:35|115:62|115:62|139:46|139:46|128:95|128:95|142:136|142:183,1,229.499992996216,6|0,3:0|0:0,0:1:0:0:
286,193,53429,6,0,L|466:125,2,170,4|8|2,3:0|0:0|3:0,0:0:0:0:
268,315,54429,1,2,0:0:0:0:
167,256,54629,2,0,P|147:184|135:152,1,85,8|0,3:2|0:0,0:0:0:0:
48,32,55029,6,0,P|120:80|220:76,1,170,2|8,3:0|0:0,0:0:0:0:
324,24,55629,1,0,0:0:0:0:
268,192,55829,1,2,3:2:0:0:
324,24,56029,1,2,0:0:0:0:
200,112,56229,1,8,0:0:0:0:
336,164,56429,1,0,0:0:0:0:
168,296,56629,6,0,P|160:240|136:104,1,170,2|8,0:0|0:0,0:0:0:0:
236,64,57229,1,0,0:0:0:0:
223,243,57429,2,0,P|275:223|319:203,2,85,2|2|8,0:0|0:0|0:0,0:0:0:0:
88,180,58029,1,0,0:0:0:0:
240,327,58229,6,0,P|224:247|220:223,1,85,2|0,0:0|0:0,0:0:0:0:
352,132,58629,2,0,P|345:173|340:216,1,85,8|0,0:0|0:0,0:0:0:0:
472,20,59029,2,0,P|484:116|504:212,1,170,2|8,0:0|0:0,0:0:0:0:
424,296,59629,1,0,0:0:0:0:
296,284,59829,6,0,P|232:268|204:256,1,85,2|0,0:0|0:0,0:0:0:0:
88,160,60229,2,0,L|204:128,1,85,8|0,0:0|0:0,0:0:0:0:
212,128,60529,1,0,0:0:0:0:
212,128,60629,2,0,P|184:48|176:16,2,85,2|2|8,0:0|0:0|0:0,0:0:0:0:
336,176,61229,1,0,0:0:0:0:
216,268,61429,6,0,P|156:264|116:248,1,85,2|0,0:0|0:0,0:0:0:0:
292,160,61829,2,0,P|312:228|320:264,1,85,8|0,0:0|0:0,0:0:0:0:
315,241,62129,1,0,0:0:0:0:
315,241,62229,1,2,0:0:0:0:
192,188,62429,1,2,0:0:0:0:
368,92,62629,2,0,P|320:72|260:64,1,85,8|0,0:0|0:0,0:0:0:0:
304,336,63029,6,0,P|348:324|404:316,2,85,2|0|8,0:0|0:0|0:0,0:0:0:0:
180,236,63629,2,0,P|104:240|28:168,1,170,0|2,0:0|0:0,0:0:0:0:
152,164,64229,2,0,P|96:224|104:284,1,127.5,8|0,0:0|0:0,0:0:0:0:
180,236,64629,6,2,P|256:224|312:328,1,191.250007295609,4|8,0:3|0:0,0:1:0:0:
296,384,65029,1,8,0:0:0:0:
308,180,65229,5,8,0:0:0:0:
316,160,65329,1,8,0:0:0:0:
192,300,65529,1,8,0:0:0:0:
180,316,65629,1,8,0:0:0:0:
356,272,65829,6,0,L|284:292,1,63.7500024318696,8|8,0:0|0:0,0:0:0:0:
128,204,66029,2,0,L|204:216,1,63.7500024318696,8|8,0:0|0:0,0:0:0:0:
316,160,66229,6,0,B|338:88|318:35|318:35|311:68|290:87,1,187.000005706787,12|8,0:0|0:0,0:0:0:0:
137,8,66829,1,2,0:0:0:0:
137,8,66929,2,0,P|182:2|224:21,1,93.5000028533936,10|0,0:0|0:0,0:0:0:0:
224,21,67229,1,2,0:0:0:0:
112,31,67429,1,8,0:0:0:0:
215,114,67629,6,0,L|401:95,1,187.000005706787,0|2,0:0|0:0,0:0:0:0:
480,258,68229,1,8,0:0:0:0:
497,174,68429,1,2,0:0:0:0:
497,174,68529,2,0,P|426:183|404:207,1,93.5000028533936,8|0,0:0|0:0,0:0:0:0:
412,195,68829,1,2,0:0:0:0:
512,145,69029,1,8,0:0:0:0:
480,258,69229,6,0,L|294:239,1,187.000005706787,0|2,0:0|0:0,0:0:0:0:
88,316,69829,1,8,0:0:0:0:
177,266,70029,2,0,P|188:245|191:222,2,46.7500014266968,2|8|2,0:0|0:0|0:0,0:0:0:0:
101,313,70429,5,2,0:0:0:0:
230,359,70629,1,8,0:0:0:0:
328,325,70829,2,0,P|283:338|236:343,1,93.5000028533936,0|2,0:0|0:0,0:0:0:0:
59,227,71229,2,0,P|80:269|87:315,1,93.5000028533936,2|8,0:0|0:0,0:0:0:0:
7,96,71629,5,2,0:0:0:0:
7,96,71729,2,0,P|53:101|98:114,1,93.5000028533936,8|0,0:0|0:0,0:0:0:0:
115,91,72029,2,0,P|129:47|169:25,2,93.5000028533936,2|8|0,0:0|0:0|0:0,0:0:0:0:
325,142,72629,5,2,0:0:0:0:
194,104,72829,1,2,0:0:0:0:
357,41,73029,1,8,0:0:0:0:
247,181,73229,1,2,0:0:0:0:
247,181,73329,1,8,0:0:0:0:
247,181,73429,2,0,P|233:136|232:89,2,93.5000028533936,2|2|8,0:0|0:0|0:0,0:0:0:0:
393,213,74029,1,0,0:0:0:0:
325,142,74229,6,0,L|427:120,1,93.5000028533936,2|2,0:0|0:0,0:0:0:0:
178,241,74629,2,0,L|76:219,1,93.5000028533936,8|2,0:0|0:0,0:0:0:0:
86,221,74929,1,8,0:0:0:0:
86,221,75029,1,2,0:0:0:0:
211,265,75229,1,2,0:0:0:0:
393,213,75429,2,0,P|388:259|381:305,1,93.5000028533936,8|0,0:0|0:0,0:0:0:0:
416,120,75829,6,0,P|494:160|477:249,1,187.000005706787,2|8,0:0|0:0,0:0:0:0:
298,379,76429,1,2,0:0:0:0:
286,353,76529,1,8,0:0:0:0:
286,324,76629,1,2,0:0:0:0:
163,353,76829,5,2,0:0:0:0:
299,230,77029,1,8,0:0:0:0:
73,235,77229,2,2,L|211:265,1,140.25000428009,4|2,0:1|0:0,0:1:0:0:
210,264,77629,1,2,0:0:0:0:
0,131,77829,6,2,L|137:101,1,140.25000428009,8|0,0:0|0:0,0:1:0:0:
137,101,78229,2,2,P|141:123|148:146,1,46.7500014266968,2|8,0:0|0:0,0:1:0:0:
268,31,78429,2,2,P|259:76|246:121,1,93.5000028533936,0|8,0:0|0:0,0:1:0:0:
342,158,78829,5,2,0:0:0:0:
342,158,78929,1,10,0:0:0:0:
342,158,79029,2,0,P|388:156|431:138,1,93.5000028533936,4|2,0:0|0:0,0:0:0:0:
168,46,79429,2,0,P|125:27|78:25,1,93.5000028533936,8|2,0:0|0:0,0:0:0:0:
54,9,79729,2,0,P|61:78|26:137,1,140.25000428009,8|2,0:0|0:0,0:0:0:0:
174,130,80229,1,8,0:0:0:0:
8,113,80429,6,0,B|19:194|19:194|9:220|9:220|22:297,1,187.000005706787,0|2,0:0|0:0,0:0:0:0:
211,265,81029,1,8,0:0:0:0:
113,245,81229,1,2,0:0:0:0:
113,245,81329,2,0,P|119:291|140:332,1,93.5000028533936,8|0,0:0|0:0,0:0:0:0:
139,360,81629,2,0,L|231:347,1,93.5000028533936,2|8,0:0|0:0,0:0:0:0:
457,206,82029,6,0,B|434:205|403:215|403:215|365:188|365:188|329:200|281:201,1,187.000005706787,0|2,0:0|0:0,0:0:0:0:
424,120,82629,1,8,0:0:0:0:
346,287,82829,1,2,0:0:0:0:
346,287,82929,1,8,0:0:0:0:
346,287,83029,1,2,0:0:0:0:
457,206,83229,5,2,0:0:0:0:
308,114,83429,1,8,0:0:0:0:
403,29,83629,2,2,P|418:73|424:120,1,93.5000028533936,0|2,0:0|0:0,0:1:0:0:
327,376,84029,2,2,P|341:332|346:286,1,93.5000028533936,2|8,0:0|0:0,0:1:0:0:
457,206,84429,6,2,B|434:205|403:215|403:215|365:188|365:188|329:200|281:201,1,187.000005706787,2|2,0:0|0:0,0:1:0:0:
346,285,85029,1,8,0:0:0:0:
173,167,85229,1,2,0:0:0:0:
308,114,85429,5,2,0:0:0:0:
177,182,85629,1,2,0:0:0:0:
296,122,85829,1,8,0:0:0:0:
211,265,86029,5,2,0:0:0:0:
211,265,86129,1,8,0:0:0:0:
211,265,86229,1,2,0:0:0:0:
346,285,86429,1,2,0:0:0:0:
173,167,86629,1,8,0:0:0:0:
296,122,86829,5,2,0:0:0:0:
296,122,86929,1,2,0:0:0:0:
296,122,87029,2,0,P|300:75|309:29,1,93.5000028533936,2|2,0:0|0:0,0:0:0:0:
124,5,87429,2,0,P|129:51|138:97,1,93.5000028533936,8|2,0:0|0:0,0:0:0:0:
173,167,87729,1,8,0:0:0:0:
173,167,87829,2,0,P|131:147|85:151,1,93.5000028533936,2|2,0:0|0:0,0:0:0:0:
390,86,88229,2,0,P|431:66|477:70,1,93.5000028533936,8|0,0:0|0:0,0:0:0:0:
281,201,88629,5,4,0:1:0:0:
449,156,88829,1,2,0:0:0:0:
449,156,88929,1,2,0:0:0:0:
449,156,89029,2,2,P|461:202|472:247,1,93.5000028533936,8|2,0:0|0:0,0:1:0:0:
374,246,89329,5,8,0:0:0:0:
374,246,89429,2,2,L|361:291|348:336,1,93.5000028533936,2|2,0:0|0:0,0:1:0:0:
266,289,89729,5,2,0:0:0:0:
266,289,89829,2,2,P|232:322|198:354,1,93.5000028533936,8|2,0:0|0:0,0:1:0:0:
144,276,90129,5,2,0:0:0:0:
144,276,90229,2,2,P|98:288|53:299,1,93.5000028533936,2|2,0:0|0:0,0:1:0:0:
90,190,90529,5,0,0:0:0:0:
90,190,90629,2,2,P|44:177|0:164,1,93.5000028533936,8|2,0:0|0:0,0:1:0:0:
54,85,90929,5,8,0:0:0:0:
54,85,91029,2,2,P|37:68|21:51,1,46.7500014266968,2|0,0:0|0:0,0:1:0:0:
107,9,91229,5,2,0:0:0:0:
193,188,91429,2,2,P|200:141|210:96,1,93.5000028533936,8|0,0:0|0:0,0:1:0:0:
350,20,91829,5,2,0:0:0:0:
468,204,92029,1,2,0:0:0:0:
281,153,92229,1,8,0:0:0:0:
362,108,92429,1,2,0:0:0:0:
362,108,92529,1,8,0:0:0:0:
362,108,92629,2,0,P|372:153|378:199,1,93.5000028533936,2|2,0:0|0:0,0:0:0:0:
495,114,93029,1,8,0:0:0:0:
468,204,93229,5,2,0:0:0:0:
468,204,93329,1,2,0:0:0:0:
468,204,93429,2,0,P|461:250|452:296,1,93.5000028533936,2|2,0:0|0:0,0:0:0:0:
209,328,93829,2,0,P|275:310|334:344,1,140.25000428009,8|0,0:0|0:0,0:0:0:0:
320,367,94229,1,2,0:0:0:0:
116,307,94429,1,2,0:0:0:0:
252,208,94629,5,8,0:0:0:0:
263,176,94729,1,8,0:0:0:0:
271,139,94829,1,8,0:0:0:0:
276,102,94929,1,8,0:0:0:0:
276,64,95029,6,0,P|184:44|160:32,1,85,6|0,0:1|0:0,0:0:0:0:
320,144,95329,2,0,P|352:120|436:108,1,127.500004863739,2|0,0:1|0:0,0:0:0:0:
436,108,95629,1,2,0:1:0:0:
416,276,95829,5,2,0:1:0:0:
416,276,95929,1,0,0:0:0:0:
416,276,96029,2,0,L|320:296,1,63.7500024318696
264,316,96229,2,0,P|152:292|116:280,1,127.500004863739,10|2,0:1|0:1,0:0:0:0:
32,256,96629,5,2,0:1:0:0:
168,164,96829,1,0,0:0:0:0:
144,152,96929,1,2,0:1:0:0:
24,72,97129,1,0,0:0:0:0:
48,56,97229,1,2,0:1:0:0:
188,224,97429,6,0,P|228:184|204:108,1,127.500004863739,2|0,0:1|0:0,0:0:0:0:
264,56,97729,1,0,0:0:0:0:
292,132,97829,2,0,P|348:124|400:56,1,127.500004863739,10|2,0:1|0:1,0:0:0:0:
432,8,98229,5,2,0:1:0:0:
424,216,98429,1,0,0:0:0:0:
424,216,98529,2,0,P|352:192|288:192,1,127.500004863739,2|0,0:1|0:0,0:0:0:0:
224,196,98829,1,2,0:1:0:0:
64,224,99029,5,2,0:1:0:0:
88,244,99129,1,0,0:0:0:0:
104,280,99229,1,0,0:0:0:0:
112,316,99329,1,0,0:0:0:0:
132,344,99429,2,0,P|148:252|176:204,1,127.500004863739,10|2,0:1|0:1,0:0:0:0:
344,76,99829,6,0,P|280:112|232:104,1,85,2|2,0:1|0:1,0:0:0:0:
192,56,100229,1,10,0:1:0:0:
80,132,100429,6,0,L|96:24,1,85,2|0,0:1|0:0,0:0:0:0:
104,16,100729,2,0,L|116:88,1,42.5,8|2,0:0|0:1,0:0:0:0:
420,176,101029,1,10,0:1:0:0:
368,104,101229,1,2,0:1:0:0:
480,24,101429,6,0,P|460:52|456:132,1,85,2|0,0:1|0:0,0:0:0:0:
509,201,101729,2,0,P|501:145|413:97,1,127.500004863739,2|0,0:1|0:0,0:0:0:0:
372,72,102029,1,2,0:1:0:0:
276,168,102229,6,0,B|264:248,1,63.7500024318696,2|0,0:1|0:0,0:0:0:0:
216,108,102429,1,0,0:0:0:0:
212,96,102529,1,0,0:0:0:0:
188,188,102629,2,0,P|260:164|324:148,1,127.500004863739,10|2,0:1|0:1,0:0:0:0:
404,44,103029,6,0,P|352:32|244:12,1,127.500004863739,2|0,0:1|0:0,0:0:0:0:
129,94,103329,2,0,P|181:126|181:202,1,127.500004863739,2|0,0:1|0:0,0:0:0:0:
160,260,103629,1,2,0:1:0:0:
328,228,103829,5,2,0:1:0:0:
316,212,103929,2,0,P|328:160|344:124,1,63.7500024318696
280,68,104129,1,0,0:0:0:0:
272,56,104229,1,10,0:1:0:0:
184,184,104429,1,2,0:1:0:0:
108,144,104629,6,0,L|120:108,2,28.3333333333333,2|0|0,0:1|0:0|0:0,0:0:0:0:
44,240,104829,2,0,L|4:248,2,28.3333333333333,2|0|0,0:1|0:0|0:0,0:0:0:0:
108,144,105029,6,0,L|120:108,2,28.3333333333333,10|0|0,0:1|0:0|0:0,0:0:0:0:
44,240,105229,2,0,L|4:248,2,28.3333333333333,2|0|0,0:1|0:0|0:0,0:0:0:0:
108,144,105429,6,0,L|120:108,2,28.3333333333333,2|0|0,0:1|0:0|0:0,0:0:0:0:
44,240,105629,2,0,L|4:248,2,28.3333333333333,2|0|0,0:1|0:0|0:0,0:0:0:0:
108,144,105829,6,0,L|120:108,2,28.3333333333333,10|0|0,0:1|0:0|0:0,0:0:0:0:
44,240,106029,2,0,L|4:248,2,28.3333333333333,2|0|0,0:1|0:0|0:0,0:0:0:0:
169,223,106229,6,2,L|222:204,1,42.5,2|0,0:1|0:0,0:1:0:0:
167,82,106429,2,0,L|95:62,1,42.5,2|0,0:1|0:0,0:0:0:0:
66,200,106629,6,0,L|95:261,1,42.5,10|0,0:1|0:0,0:0:0:0:
244,155,106829,2,0,L|200:131,1,42.5,2|0,0:1|0:0,0:0:0:0:
70,97,107029,6,2,L|65:139,1,42.5,2|8,0:1|0:0,0:1:0:0:
152,261,107229,2,0,L|212:230,1,42.5,2|0,0:1|0:0,0:0:0:0:
283,113,107429,6,0,L|212:136,1,63.7500024318696,10|0,0:1|0:0,0:0:0:0:
21,185,107629,2,0,L|66:200,1,46.7500014266968,4|8,0:3|0:0,0:0:0:0:
161,351,107829,5,6,0:1:0:0:
287,226,108029,1,2,0:0:0:0:
287,226,108129,2,2,P|274:267|269:309,1,85,2|0,0:1|0:0,0:1:0:0:
288,337,108429,1,2,0:1:0:0:
456,266,108629,5,2,0:0:0:0:
456,266,108729,1,2,0:1:0:0:
456,265,108829,2,2,P|433:270|413:282,1,42.5,2|0,0:0|0:0,0:1:0:0:
305,138,109029,2,0,P|340:160|381:173,1,85,10|2,0:1|0:1,0:0:0:0:
172,235,109429,6,0,L|79:245,1,85,2|2,0:1|0:0,0:0:0:0:
0,123,109729,2,2,P|42:123|79:143,1,85,2|0,0:1|0:0,0:1:0:0:
61,172,110029,1,2,0:1:0:0:
111,42,110229,5,2,0:0:0:0:
132,15,110329,1,2,0:1:0:0:
165,14,110429,1,2,0:0:0:0:
198,18,110529,1,0,0:0:0:0:
217,45,110629,2,0,P|216:87|209:129,1,85,10|2,0:1|0:1,0:0:0:0:
367,14,111029,6,2,B|368:59|381:83|381:83|381:112|381:112|407:157,1,152.999995330811,6|0,0:1|0:0,0:1:0:0:
423,73,111329,2,2,B|421:118|408:142|408:142|408:171|408:171|382:216,1,152.999995330811,2|0,0:1|0:0,0:1:0:0:
367,130,111629,2,2,B|368:175|381:199|381:199|381:228|381:228|407:273,1,152.999995330811,2|2,0:1|0:0,0:1:0:0:
427,338,111929,1,2,0:1:0:0:
427,304,112029,1,2,0:0:0:0:
449,278,112129,1,0,0:0:0:0:
483,272,112229,1,10,0:1:0:0:
285,183,112429,1,2,0:1:0:0:
337,335,112629,5,2,0:1:0:0:
292,202,112829,1,2,0:0:0:0:
345,354,113029,2,2,B|328:356|315:364|315:364|299:351|299:351|273:357|241:353,1,110.499994941712,8|2,0:0|0:1,0:1:0:0:
209,343,113329,1,2,0:0:0:0:
209,343,113429,1,2,0:0:0:0:
299,220,113629,1,2,0:1:0:0:
110,319,113829,2,0,P|103:276|96:235,1,85,8|2,0:0|0:1,0:0:0:0:
119,210,114129,5,2,0:0:0:0:
119,210,114229,2,0,P|76:204|35:197,1,85,2|2,0:1|0:0,0:0:0:0:
206,192,114529,1,2,0:1:0:0:
143,82,114729,1,0,0:0:0:0:
143,82,114829,1,2,0:1:0:0:
4,104,115029,5,2,0:0:0:0:
29,98,115129,1,2,0:1:0:0:
49,81,115229,1,2,0:0:0:0:
54,55,115329,1,0,0:0:0:0:
47,30,115429,2,0,P|40:71|35:113,1,85,10|2,0:1|0:1,0:0:0:0:
310,64,115829,6,0,P|269:50|227:46,1,85,2|2,0:1|0:0,0:0:0:0:
321,21,116129,2,2,P|361:7|403:3,1,85,2|0,0:1|0:0,0:1:0:0:
317,108,116429,1,2,0:1:0:0:
458,201,116629,6,0,P|477:191|497:186,1,42.5,2|2,0:0|0:1,0:0:0:0:
432,165,116829,2,0,P|412:155|392:150,1,42.5,2|0,0:0|0:0,0:0:0:0:
490,104,117029,1,10,0:1:0:0:
457,250,117229,1,2,0:1:0:0:
332,214,117429,6,0,P|311:216|292:224,2,42.5000016212464,2|0|0,0:1|0:0|0:0,0:0:0:0:
335,224,117629,2,0,P|315:232|294:235,2,42.5000016212464,2|0|0,0:1|0:0|0:0,0:0:0:0:
305,354,117829,6,0,P|283:351|264:343,2,42.5000016212464,10|0|0,0:1|0:0|0:0,0:0:0:0:
308,343,118029,2,0,P|288:334|267:332,2,42.5000016212464,2|0|0,0:1|0:0|0:0,0:0:0:0:
200,172,118229,6,0,L|194:214,2,42.5000016212464,2|0|0,0:1|0:0|0:0,0:0:0:0:
186,214,118429,2,0,L|191:256,2,42.5000016212464,2|0|0,0:1|0:0|0:0,0:0:0:0:
0,260,118629,6,0,L|5:302,2,42.5000016212464,10|0|0,0:1|0:0|0:0,0:0:0:0:
14,302,118829,2,0,L|8:344,2,42.5000016212464,2|0|0,0:1|0:0|0:0,0:0:0:0:
139,318,119029,6,2,B|121:300|121:300|96:306,5,50.9999984436036,2|0|0|0|0|0,0:1|0:0|0:0|0:0|0:0|0:0,0:1:0:0:
81,225,119429,6,2,P|83:211|88:198,3,27.6249987354279,10|0|0|2,0:1|0:0|0:0|0:1,0:1:0:0:
102,178,119629,2,2,P|99:164|94:151,3,27.6249987354279,2|0|0|2,0:1|0:0|0:0|0:1,0:1:0:0:
77,65,119829,6,2,B|83:45|83:45|80:33|80:33|87:12,2,55.2499974708558,8|2|2,0:0|0:0|0:0,0:1:0:0:
11,168,120229,1,8,0:0:0:0:
185,103,120429,1,2,0:0:0:0:
174,99,120529,1,2,0:0:0:0:
163,95,120629,5,12,0:1:0:0:
152,228,133429,6,0,P|224:204|252:196,1,85,2|0,0:0|0:0,0:0:0:0:
368,144,133829,1,2,0:0:0:0:
320,256,134029,1,0,0:0:0:0:
316,276,134129,1,0,0:0:0:0:
324,296,134229,1,2,0:0:0:0:
428,260,134429,5,0,3:0:0:0:
348,88,134629,1,2,0:0:0:0:
428,260,134829,1,0,3:0:0:0:
510,137,135029,2,0,L|428:160,1,85,2|0,0:0|0:0,0:0:0:0:
312,124,135429,6,2,P|328:200|340:236,1,85,2|0,3:2|0:0,0:1:0:0:
224,188,135829,1,2,0:0:0:0:
328,252,136029,2,2,P|340:188|344:156,2,85,0|2|0,3:0|3:2|3:0,0:1:0:0:
232,320,136629,6,0,P|144:296|120:292,1,85,2|0,0:0|0:0,0:0:0:0:
56,236,137029,1,2,0:0:0:0:
240,116,137229,1,0,3:0:0:0:
156,188,137429,6,0,L|256:208,1,85,2|0,3:2|3:0,0:0:0:0:
239,204,137829,2,0,L|255:308,1,85,2|0,3:2|3:0,0:0:0:0:
251,288,138229,6,0,L|300:300,1,42.5,2|2,0:0|0:1,0:1:0:0:
409,329,138429,2,0,L|349:313,1,42.5,2|2,0:0|0:1,0:0:0:0:
162,266,138629,2,0,L|95:247,3,42.5,2|2|2|2,0:0|0:1|0:0|0:1,0:0:0:0:
222,140,139029,6,0,L|206:76,1,42.5,2|2,0:0|0:1,0:0:0:0:
82,193,139229,2,0,L|92:262,1,42.5,2|2,0:0|0:1,0:0:0:0:
43,326,139429,6,0,L|35:278,1,42.5,2|2,0:0|0:1,0:0:0:0:
148,160,139629,2,0,L|160:208,1,42.5,2|2,0:0|0:1,0:0:0:0:
200,288,139829,6,0,P|256:312|316:320,1,85,2|0,0:0|0:0,0:0:0:0:
456,180,140229,2,0,L|360:204,1,85,2|0,0:0|0:0,0:0:0:0:
336,212,140529,1,0,0:0:0:0:
336,212,140629,1,2,0:0:0:0:
164,368,140829,1,0,3:0:0:0:
256,184,141029,1,2,0:0:0:0:
180,280,141229,1,0,3:0:0:0:
164,192,141429,5,2,0:0:0:0:
264,272,141629,1,2,3:2:0:0:
164,192,141829,1,2,0:0:0:0:
256,96,142029,5,0,3:2:0:0:
28,96,142229,2,0,P|100:112|132:120,1,85,2|0,0:0|3:0,0:0:0:0:
396,0,142629,2,0,P|357:17|317:33,1,85,2|0,0:0|3:0,0:0:0:0:
181,139,143029,6,0,P|134:180|72:176,2,127.5,2|0|0,0:0|0:0|0:0,0:0:0:0:
196,32,143829,2,2,L|268:8,1,42.5,2|0,0:0|0:0,0:1:0:0:
328,63,144029,2,2,L|316:111,1,42.5,0|0,0:0|0:0,0:1:0:0:
176,28,144229,2,2,L|248:0,1,42.5,2|0,0:0|0:1,0:1:0:0:
343,95,144429,2,2,L|327:155,1,42.5,0|0,0:0|0:0,0:1:0:0:
144,160,144629,6,2,L|96:172,1,46.7500014266968,2|0,0:0|0:0,0:1:0:0:
188,292,144829,2,2,L|126:313,1,46.7500014266968,0|0,0:0|0:0,0:1:0:0:
92,156,145029,6,2,L|138:135,1,50.9999984436036,2|0,0:0|0:0,0:1:0:0:
152,315,145229,2,2,L|199:296,1,50.9999984436036,0|0,0:0|0:0,0:1:0:0:
132,120,145429,6,2,L|68:144,1,55.2499974708558,2|0,0:0|0:0,0:1:0:0:
212,312,145629,2,2,L|116:344,1,55.2499974708558,0|0,0:0|0:0,0:1:0:0:
304,243,145829,6,2,B|320:239|320:239|336:255|336:255|424:279|424:143,1,165.749992412568,0|0,3:0|0:0,0:1:0:0:
393,281,146229,6,0,P|410:339|470:351,1,127.5,4|0,0:1|0:0,0:0:0:0:
417,178,146629,2,0,P|458:179|494:157,1,85,8|0,0:0|0:0,0:0:0:0:
368,88,147029,2,0,P|398:59|408:18,2,85,2|2|8,0:0|0:0|0:0,0:0:0:0:
299,209,147629,6,0,B|250:169|185:171|185:171|208:189|212:208,1,170
269,99,148229,2,0,P|269:57|247:21,1,85,8|0,0:0|0:0,0:0:0:0:
74,128,148629,1,2,0:0:0:0:
182,80,148829,1,2,0:0:0:0:
44,47,149029,1,8,0:0:0:0:
166,165,149229,1,0,0:0:0:0:
31,214,149429,6,0,B|41:160|41:160|31:115|31:115|44:47,2,170,2|8|2,0:0|0:0|0:0,0:0:0:0:
123,341,150429,1,2,0:0:0:0:
3,201,150629,2,0,L|13:285,1,85,8|0,0:0|0:0,0:0:0:0:
242,166,151029,5,2,0:0:0:0:
138,327,151229,1,0,0:0:0:0:
271,269,151429,1,8,0:0:0:0:
155,318,151629,1,0,0:0:0:0:
158,174,151829,5,2,0:0:0:0:
242,358,152029,1,2,0:0:0:0:
166,198,152229,1,8,0:0:0:0:
286,276,152429,1,0,0:0:0:0:
242,166,152629,6,0,P|247:123|254:82,1,85,2|0,0:0|0:0,0:0:0:0:
445,234,153029,2,0,P|439:191|432:150,1,85,8|0,0:0|0:0,0:0:0:0:
346,108,153329,1,0,0:0:0:0:
346,108,153429,2,0,L|352:13,1,85,2|2,0:0|0:0,0:0:0:0:
197,261,153829,1,8,0:0:0:0:
270,166,154029,5,0,0:0:0:0:
270,166,154129,1,0,0:0:0:0:
270,166,154229,2,0,P|264:123|257:82,1,85,2|0,0:0|0:0,0:0:0:0:
67,234,154629,2,0,P|72:191|79:150,1,85,8|0,0:0|0:0,0:0:0:0:
166,108,154929,1,0,0:0:0:0:
166,108,155029,2,0,L|160:13,1,85,2|2,0:0|0:0,0:0:0:0:
346,108,155429,2,0,L|351:23,1,85,8|0,0:0|0:0,0:0:0:0:
255,182,155829,5,2,0:0:0:0:
402,288,156029,1,2,0:1:0:0:
402,288,156129,1,0,0:0:0:0:
402,288,156229,2,2,P|421:280|442:277,1,42.5,8|0,0:0|0:0,0:1:0:0:
511,254,156429,2,2,P|490:250|470:243,1,42.5,0|0,0:0|0:0,0:1:0:0:
333,187,156629,6,2,L|341:237,1,50.9999984436036,0|0,0:0|0:0,0:1:0:0:
278,349,156829,2,2,L|286:298,1,50.9999984436036,0|0,0:0|0:0,0:1:0:0:
148,190,157029,6,2,P|169:210|183:236,1,59.4999981842042,8|0,0:0|0:0,0:1:0:0:
128,384,157229,2,2,P|149:363|163:337,1,59.4999981842042,0|0,0:0|0:0,0:1:0:0:
3,245,157429,5,10,0:1:0:0:
3,245,157529,2,2,B|41:211|41:211|85:241|99:284,1,144.500002756119,8|8,0:0|0:0,0:1:0:0:
172,95,157829,2,2,B|133:61|133:61|89:91|75:134,1,144.500002756119,8|8,0:0|0:0,0:1:0:0:
76,132,158129,1,10,0:1:0:0:
183,236,158329,1,8,0:0:0:0:
183,236,158429,1,10,0:1:0:0:
247,59,158629,5,10,0:1:0:0:
247,59,158729,1,10,0:1:0:0:
247,59,158829,2,2,P|260:83|279:102,1,55.2499974708558,8|8,0:0|0:0,0:1:0:0:
272,16,159029,6,0,L|168:44,1,93.5000028533936,12|0,0:0|0:0,0:0:0:0:
64,40,159429,1,8,0:0:0:0:
136,188,159629,1,0,0:0:0:0:
136,188,159729,1,8,0:0:0:0:
136,188,159829,2,0,P|156:128|152:80,2,93.5000028533936,2|2|8,0:0|0:0|0:0,0:0:0:0:
90,298,160429,6,0,P|178:229|264:262,1,187.000005706787,0|2,0:0|0:0,0:0:0:0:
412,108,161029,2,0,P|400:184|400:228,1,93.5000028533936,8|0,0:0|0:0,0:0:0:0:
404,252,161329,1,8,0:0:0:0:
404,252,161429,2,0,L|290:222,1,93.5000028533936,2|2,0:0|0:0,0:0:0:0:
167,148,161829,1,8,0:0:0:0:
222,296,162029,6,0,L|425:246,1,187.000005706787,0|2,0:0|0:0,0:0:0:0:
222,176,162629,1,8,0:0:0:0:
321,77,162829,6,0,P|273:89|257:101,1,46.7500014266968,0|8,0:0|0:0,0:0:0:0:
64,166,163029,1,2,0:0:0:0:
134,233,163229,2,0,P|166:157|166:129,1,93.5000028533936,2|8,0:0|0:0,0:0:0:0:
315,150,163629,6,0,P|364:136|455:224,2,187.000005706787
315,150,164529,1,8,0:0:0:0:
315,150,164629,1,2,0:0:0:0:
140,198,164829,1,2,0:0:0:0:
370,227,165029,1,8,0:0:0:0:
147,172,165229,1,0,0:0:0:0:
236,362,165429,6,0,P|310:298|306:209,1,187.000005706787,2|8,0:0|0:0,0:0:0:0:
180,251,166029,1,0,0:0:0:0:
180,251,166129,1,8,0:0:0:0:
180,251,166229,5,2,0:0:0:0:
274,131,166429,1,2,0:0:0:0:
362,247,166629,2,0,P|432:234|476:193,1,93.5000028533936,8|0,0:0|0:0,0:0:0:0:
380,68,167029,6,0,P|400:104|404:160,1,93.5000028533936,2|2,0:0|0:0,0:0:0:0:
276,136,167429,2,0,L|172:104,1,93.5000028533936,8|0,0:0|0:0,0:0:0:0:
186,108,167729,1,8,0:0:0:0:
186,108,167829,1,2,0:0:0:0:
123,234,168029,1,2,0:0:0:0:
288,272,168229,2,0,P|336:240|368:224,1,93.5000028533936,8|0,0:0|0:0,0:0:0:0:
448,108,168629,6,0,P|352:148|232:172,2,187.000005706787,2|8|2,0:0|0:0|0:0,0:0:0:0:
334,76,169629,1,2,0:0:0:0:
420,203,169829,1,8,0:0:0:0:
272,268,170029,6,0,P|188:244|112:232,1,140.25000428009,2|0,0:0|0:0,0:0:0:0:
135,234,170429,1,2,0:0:0:0:
76,316,170629,2,0,P|48:240|44:208,1,93.5000028533936,8|0,0:0|0:0,0:0:0:0:
177,378,171029,1,2,0:0:0:0:
177,378,171129,1,8,0:0:0:0:
177,378,171229,1,0,0:0:0:0:
82,157,171429,1,8,0:0:0:0:
191,276,171629,6,0,P|239:280|315:204,1,140.25000428009,4|0,0:0|0:0,0:0:0:0:
360,160,172029,2,0,P|384:204|376:264,1,93.5000028533936,0|8,0:0|0:0,0:0:0:0:
235,69,172429,1,0,0:0:0:0:
235,69,172529,1,8,0:0:0:0:
235,69,172629,1,2,0:0:0:0:
226,206,172829,1,2,0:0:0:0:
428,104,173029,1,8,0:0:0:0:
360,160,173229,6,0,P|341:116|336:68,1,93.5000028533936,0|2,0:0|0:0,0:0:0:0:
240,180,173629,1,2,0:0:0:0:
384,256,173829,1,8,0:0:0:0:
184,319,174029,2,0,L|244:287,1,46.7500014266968,0|8,0:0|0:0,0:0:0:0:
476,267,174229,2,0,L|352:251,1,93.5000028533936,2|2,0:0|0:0,0:0:0:0:
288,248,174629,1,8,0:0:0:0:
256,68,174829,6,0,L|272:168,2,93.5000028533936,0|2|2,0:0|0:0|0:0,0:0:0:0:
160,16,175429,1,8,0:0:0:0:
264,200,175629,2,0,L|276:136,1,46.7500014266968,0|8,0:0|0:0,0:0:0:0:
328,76,175829,2,0,L|232:60,2,93.5000028533936,2|2|8,0:0|0:0|0:0,0:0:0:0:
400,208,176429,6,0,P|392:272|380:312,1,93.5000028533936,0|2,0:0|0:0,0:0:0:0:
91,191,176829,2,0,L|251:219,1,140.25000428009
230,216,177229,2,0,L|240:296,1,46.7500014266968
288,184,177429,2,0,L|224:200,1,46.7500014266968,2|0,0:0|0:0,0:0:0:0:
40,136,177629,5,2,0:0:0:0:
108,264,177829,1,8,0:0:0:0:
60,116,178029,1,0,0:0:0:0:
92,288,178229,6,0,P|196:252|212:252,1,93.5000028533936,2|0,0:0|0:0,0:0:0:0:
364,160,178629,1,8,0:0:0:0:
400,248,178829,2,0,P|324:268|256:196,1,187.000005706787
255,195,179429,2,0,P|277:269|285:301,1,93.5000028533936,8|0,0:0|0:0,0:0:0:0:
490,272,179829,6,0,P|434:256|386:244,1,93.5000028533936,2|0,0:0|0:0,0:0:0:0:
180,252,180229,1,8,0:0:0:0:
308,136,180429,2,0,L|320:208,1,46.7500014266968,0|8,0:0|0:0,0:0:0:0:
332,224,180629,1,2,0:0:0:0:
136,116,180829,1,2,0:0:0:0:
200,264,181029,2,0,L|216:160,1,93.5000028533936,8|0,0:0|0:0,0:0:0:0:
264,32,181429,1,2,3:2:0:0:
264,32,181629,6,0,L|188:56,1,46.7500014266968
60,152,181829,1,8,3:2:0:0:
60,152,182029,6,0,L|40:100,1,46.7500014266968
208,128,182229,1,2,3:2:0:0:
208,128,182429,6,0,L|288:148,1,46.7500014266968
148,268,182629,1,8,3:2:0:0:
148,268,182729,1,0,0:0:0:0:
148,268,182829,1,0,3:0:0:0:
148,268,182929,1,0,3:0:0:0:
148,268,183029,6,0,B|92:248|92:248|-4:300,1,140.25000428009,2|0,3:2|0:0,0:0:0:0:
20,286,183429,2,0,L|40:184,1,93.5000028533936,8|0,3:2|0:0,0:0:0:0:
216,216,183829,2,0,P|264:208|332:292,2,140.25000428009,2|0|0,0:0|0:0|0:0,0:0:0:0:
392,160,184629,6,0,P|464:136|488:104,2,93.5000028533936,2|2|8,0:0|0:0|0:0,0:0:0:0:
264,292,185229,5,0,0:0:0:0:
264,292,185329,1,8,0:0:0:0:
264,292,185429,2,0,P|312:296|368:328,2,93.5000028533936,2|2|8,0:0|0:0|0:0,0:0:0:0:
152,224,186029,6,0,L|96:240,1,46.7500014266968
28,276,186229,6,0,P|44:228|48:160,1,93.5000028533936,2|2,0:0|0:0,0:0:0:0:
36,56,186629,1,8,0:0:0:0:
152,160,186829,1,8,0:0:0:0:
152,160,186929,1,8,0:0:0:0:
152,160,187029,2,0,P|196:152|248:124,1,93.5000028533936,2|2,0:0|0:0,0:0:0:0:
312,32,187429,2,0,L|304:88,1,46.7500014266968,8|8,0:3|0:0,0:0:0:0:
152,160,187629,2,0,L|176:232,1,46.7500014266968,8|8,0:0|0:0,0:0:0:0:
304,216,187829,6,0,P|294:274|291:334,1,118.999996368408,4|2,0:1|0:0,0:0:0:0:
282,356,188429,2,0,L|400:344,1,118.999996368408
276,377,189029,1,2,0:0:0:0:
205,290,189229,5,0,3:0:0:0:
205,290,189329,1,0,3:0:0:0:
205,290,189429,2,0,L|86:278,1,118.999996368408,2|2,0:0|0:0,0:0:0:0:
73,298,190029,2,0,P|69:238|60:179,1,118.999996368408
62,318,190629,1,2,0:0:0:0:
180,193,190829,5,0,3:0:0:0:
180,193,190929,1,0,3:0:0:0:
180,193,191029,2,0,P|183:133|192:74,1,118.999996368408,2|2,0:0|0:0,0:0:0:0:
176,57,191629,2,0,P|121:45|75:102,2,118.999996368408
191,74,192829,6,0,P|218:83|248:88,1,59.4999981842042,0|2,0:0|0:0,0:0:0:0:
299,163,193229,2,0,B|357:123|349:148|406:110,1,118.999996368408
455,185,193829,2,0,P|482:194|512:196,1,59.4999981842042,2|0,0:0|0:0,0:0:0:0:
510,213,194229,6,2,P|480:210|452:201,1,59.4999981842042,2|0,0:0|0:0,0:1:0:0:
371,232,194629,2,2,P|379:260|382:289,1,59.4999981842042,2|0,0:0|0:0,0:1:0:0:
322,352,195029,2,2,P|292:354|264:363,1,59.4999981842042,2|0,0:0|0:0,0:1:0:0:
185,323,195429,1,2,0:0:0:0:
280,249,195629,5,0,3:0:0:0:
280,249,195729,1,0,3:0:0:0:
280,249,195829,2,0,P|220:243|163:226,1,118.999996368408,2|2,0:0|0:0,0:0:0:0:
97,309,196429,2,2,P|98:338|107:366,1,59.4999981842042,0|2,0:0|0:0,0:1:0:0:
44,160,196829,2,2,P|42:189|34:218,1,59.4999981842042,0|2,0:0|0:0,0:1:0:0:
148,109,197229,5,0,3:0:0:0:
148,109,197329,1,0,3:0:0:0:
148,109,197429,2,0,B|151:161|151:161|159:177|159:177|163:226,2,118.999996368408,2|2|2,0:0|0:0|0:0,0:0:0:0:
280,153,198429,1,0,0:0:0:0:
257,67,198629,2,2,L|249:126,1,59.4999981842042,2|0,0:0|0:0,0:1:0:0:
356,10,199029,6,0,L|366:86,1,76.4999976654053,2|0,0:0|3:0,0:0:0:0:
399,103,199329,1,0,3:0:0:0:
399,103,199429,2,2,P|417:108|436:110,1,38.2499988327027,2|0,0:0|0:0,0:1:0:0:
475,195,199629,2,2,P|494:193|512:187,1,38.2499988327027,0|0,0:0|0:0,0:1:0:0:
440,312,199829,5,2,0:1:0:0:
436,305,199929,1,0,0:0:0:0:
433,297,200029,1,2,0:1:0:0:
443,301,200129,1,0,0:0:0:0:
423,310,200229,2,2,B|403:320|384:344|384:344|379:311|379:311|351:339|351:339|332:344|311:357,1,170,2|0,0:0|3:0,0:1:0:0:
295,276,200529,1,0,3:0:0:0:
306,268,200629,6,0,P|246:270|146:242,1,152.999995330811,2|2,0:0|0:0,0:0:0:0:
140,152,201229,2,0,P|28:168|16:216,2,152.999995330811,2|2|2,0:1|0:1|0:1,0:0:0:0:
248,156,202229,6,0,P|240:184|200:244,1,76.4999976654053,2|0,0:0|0:1,0:1:0:0:
216,64,202629,1,2,0:0:0:0:
139,152,202829,2,0,P|111:52|107:-16,2,152.999995330811,2|2|2,0:1|0:1|0:1,0:1:0:0:
248,156,203829,5,2,0:0:0:0:
159,256,204029,1,0,0:0:0:0:
196,88,204229,1,2,0:0:0:0:
336,172,204429,2,0,P|432:160|456:104,2,152.999995330811,2|2|2,0:1|0:1|0:1,0:0:0:0:
220,104,205429,1,2,0:0:0:0:
296,280,205629,5,2,0:1:0:0:
304,288,206029,1,2,0:1:0:0:
304,288,206429,1,2,0:1:0:0:
176,192,206629,1,2,0:1:0:0:
388,236,206829,1,2,0:1:0:0:
272,216,207029,6,2,P|256:156|236:48,1,152.999995330811,2|0,0:0|0:0,0:1:0:0:
319,107,207629,2,2,P|260:153|185:152,1,152.999995330811,2|0,0:0|0:0,0:1:0:0:
100,92,208229,2,2,P|56:96|12:140,1,76.4999976654053,2|0,0:0|0:0,0:1:0:0:
189,168,208629,5,2,0:0:0:0:
185,152,209029,6,0,P|170:193|164:238,1,89.2499972763062,0|0,3:0|0:0,0:0:0:0:
167,248,209429,2,0,L|85:237,1,76.4999976654053,0|0,3:0|0:0,0:0:0:0:
81,233,209829,2,0,P|92:262|98:294,1,63.75,0|0,3:0|0:0,0:0:0:0:
96,306,210229,5,2,0:0:0:0:
91,312,210429,1,2,0:0:0:0:
83,316,210629,1,2,0:0:0:0:
74,318,210829,1,2,0:0:0:0:
65,317,211029,1,10,0:0:0:0:
56,315,211229,5,10,0:0:0:0:
171,384,211429,1,10,0:0:0:0:
254,254,211629,1,10,0:0:0:0:
236,264,211829,5,8,0:0:0:0:
440,290,212029,1,8,0:0:0:0:
265,167,212229,1,8,0:0:0:0:
356,354,212429,1,8,0:0:0:0:
367,337,212629,5,8,0:0:0:0:
235,342,212829,1,8,0:0:0:0:
380,215,213029,1,8,0:0:0:0:
157,123,213229,1,8,0:0:0:0:
374,12,213429,1,8,0:0:0:0:
272,220,214629,5,0,0:0:0:0:
260,320,214829,6,0,L|156:300,1,63.7500024318696,8|0,0:0|0:0,0:0:0:0:
272,220,215029,6,0,P|320:208|360:192,1,85,8|0,0:0|0:0,0:0:0:0:
176,72,215829,1,8,0:3:0:0:
272,220,216029,1,0,0:0:0:0:
272,220,216129,1,8,0:0:0:0:
272,220,216229,1,8,0:0:0:0:
68,180,216429,2,0,P|88:200|99:225,1,55.2499974708558,8|8,0:0|0:0,0:0:0:0:
173,159,216629,6,0,P|221:143|271:135,1,101.999996887207,4|0,0:0|0:0,0:0:0:0:
437,230,217029,1,8,0:0:0:0:
369,45,217229,1,2,0:0:0:0:
369,45,217329,2,0,P|366:93|408:119,1,101.999996887207,8|8,0:0|0:0,0:0:0:0:
435,105,217629,2,0,P|422:154|420:205,1,101.999996887207,2|8,0:0|0:0,0:0:0:0:
146,41,218029,6,0,P|170:140|177:241,1,203.999993774414,4|2,0:1|0:0,0:0:0:0:
340,176,218629,1,8,0:0:0:0:
189,108,218829,1,2,0:0:0:0:
189,108,218929,2,0,P|231:133|247:181,1,101.999996887207,8|8,0:0|0:0,0:0:0:0:
247,181,219229,1,2,0:0:0:0:
158,259,219429,1,8,0:0:0:0:
146,41,219629,6,0,P|171:141|178:242,1,203.999993774414,4|2,0:1|0:0,0:0:0:0:
28,160,220229,1,8,0:0:0:0:
83,306,220429,1,2,0:0:0:0:
83,306,220529,1,8,0:0:0:0:
83,306,220629,1,2,0:0:0:0:
189,108,220829,5,2,0:0:0:0:
82,220,221029,1,8,0:0:0:0:
324,311,221229,2,2,P|304:274|265:259,1,85,0|2,0:0|0:0,0:1:0:0:
189,367,221629,2,2,P|222:365|244:340,1,68,0|8,0:0|0:0,0:1:0:0:
178,241,222029,2,2,P|166:262|175:286,1,50.9999984436036,0|2,0:0|0:0,0:1:0:0:
324,311,222429,6,2,P|304:274|265:259,1,85,0|0,0:0|0:0,0:1:0:0:
189,367,222629,2,2,P|222:365|244:340,1,68,8|0,0:0|0:0,0:1:0:0:
178,241,222829,2,2,P|166:262|175:286,1,50.9999984436036,0|0,0:0|0:0,0:1:0:0:
286,350,223029,6,0,B|350:339|350:339|371:345|371:345|435:328,1,152.999995330811,4|0,0:1|0:0,0:0:0:0:
456,342,223429,1,8,0:0:0:0:
365,219,223629,1,2,0:0:0:0:
365,219,223729,1,8,0:0:0:0:
365,219,223829,2,0,P|405:188|454:175,1,101.999996887207,2|2,0:0|0:0,0:0:0:0:
269,100,224229,1,8,0:0:0:0:
388,39,224429,2,0,P|390:64|395:89,1,50.9999984436036
377,6,224629,6,0,P|366:55|365:106,1,101.999996887207,2|2,0:0|0:0,0:0:0:0:
133,52,225029,2,0,P|83:60|33:70,1,101.999996887207,8|2,0:0|0:0,0:0:0:0:
218,24,225329,1,8,0:0:0:0:
218,24,225429,2,0,P|167:16|117:7,1,101.999996887207,2|2,0:0|0:0,0:0:0:0:
23,221,225829,2,0,P|97:231|117:160,1,152.999995330811,8|0,0:0|0:0,0:0:0:0:
8,187,226229,6,0,P|8:238|23:287,1,101.999996887207,4|2,0:1|0:0,0:0:0:0:
265,209,226629,1,8,0:0:0:0:
141,368,226829,1,2,0:0:0:0:
152,334,226929,1,8,0:0:0:0:
151,298,227029,1,2,0:0:0:0:
346,375,227229,5,2,0:0:0:0:
265,209,227429,1,8,0:0:0:0:
434,273,227629,2,2,B|381:293|381:293|340:285|340:285|288:300,1,152.999995330811,4|2,0:1|0:0,0:1:0:0:
264,308,228029,1,2,0:0:0:0:
464,244,228229,6,0,P|467:295|451:343,1,101.999996887207,8|2,0:0|0:0,0:0:0:0:
451,343,228529,1,8,0:0:0:0:
451,343,228629,1,8,0:0:0:0:
265,209,228829,5,2,0:0:0:0:
265,209,228929,1,8,0:0:0:0:
265,209,229029,1,8,0:0:0:0:
453,45,229229,5,2,0:0:0:0:
453,45,229329,1,8,0:0:0:0:
453,45,229429,2,0,P|401:105|417:213,1,144.500002756119,12|0,0:0|0:0,0:0:0:0:
280,48,229829,1,8,0:0:0:0:
443,265,230029,1,0,0:0:0:0:
438,298,230129,1,0,0:0:0:0:
431,330,230229,6,0,P|378:336|298:256,1,127.500004863739,2|2,0:0|0:0,0:0:0:0:
254,186,230629,1,8,0:0:0:0:
119,368,230829,6,0,B|256:369|202:271|355:304,1,216.750004134178,4|0,0:0|0:0,0:0:0:0:
396,272,231229,1,2,0:0:0:0:
152,152,231429,1,8,0:0:0:0:
248,296,231629,2,0,P|272:344|268:380,1,72.2500013780594,0|8,0:0|0:0,0:0:0:0:
176,344,231829,6,0,P|176:252|248:212,2,144.500002756119,2|2|8,0:0|0:0|0:0,0:0:0:0:
80,208,232429,6,2,B|108:156|104:100|48:56|-28:72,1,170,4|0,0:0|0:0,0:1:0:0:
133,6,232829,1,2,0:0:0:0:
0,180,233029,6,2,P|63:117|181:180,1,170,12|0,0:0|0:0,0:1:0:0:
276,203,233329,1,8,0:0:0:0:
230,211,233429,6,0,P|265:148|355:93,2,170,2|2|8,0:0|0:0|0:0,0:0:0:0:
355,4,234029,1,0,0:0:0:0:
492,228,234229,6,0,P|436:180|352:184,1,127.500004863739,4|0,0:0|0:0,0:0:0:0:
392,372,234629,1,8,0:0:0:0:
328,280,234829,6,0,L|408:256,1,63.7500024318696,0|8,0:0|0:0,0:0:0:0:
440,108,235029,1,2,0:0:0:0:
440,108,235229,1,2,0:0:0:0:
156,32,235429,2,0,P|232:72|240:128,1,127.500004863739,8|0,0:0|0:0,0:0:0:0:
240,248,235729,1,8,0:0:0:0:
248,268,235829,6,0,P|284:204|424:232,1,191.250007295609,4|0,0:0|0:0,0:0:0:0:
448,256,236229,1,8,0:0:0:0:
248,268,236429,2,0,P|232:212|224:180,1,63.7500024318696,0|8,0:0|0:0,0:0:0:0:
336,264,236629,6,0,P|308:332|224:348,2,152.999995330811,2|2|8,0:0|0:0|0:0,0:0:0:0:
256,184,237229,1,0,0:0:0:0:
40,200,237429,6,0,B|167:180|105:296|275:263,1,229.499992996216,6|0,0:0|0:0,0:0:0:0:
336,264,237829,1,8,0:0:0:0:
468,128,238029,1,0,0:0:0:0:
468,128,238129,1,8,0:0:0:0:
468,128,238229,6,0,P|368:164|316:88,1,152.999995330811,2|0,0:0|0:0,0:0:0:0:
288,72,238529,1,0,0:0:0:0:
272,68,238629,6,0,P|248:116|256:156,1,76.4999976654053,8|0,0:0|0:0,0:0:0:0:
356,56,238829,2,0,P|324:8|292:4,1,76.4999976654053,8|0,0:0|0:0,0:0:0:0:
160,240,239029,6,0,P|124:124|96:88,1,152.999995330811,4|0,0:0|0:0,0:0:0:0:
56,24,239429,1,8,0:0:0:0:
160,240,239629,6,0,P|128:244|92:216,1,72.2500013780594,0|8,0:0|0:0,0:0:0:0:
8,160,239829,6,0,P|28:124|128:120,1,127.500004863739,2|2,0:0|0:0,0:0:0:0:
52,16,240229,1,8,0:0:0:0:
236,196,240429,1,0,0:0:0:0:
236,196,240529,1,0,0:0:0:0:
236,196,240629,6,0,P|328:232|440:248,1,191.250007295609,4|0,0:0|0:0,0:0:0:0:
492,223,241029,6,0,P|484:287|460:315,1,63.7500024318696,8|0,0:0|0:0,0:0:0:0:
424,144,241229,2,0,B|460:120|536:124,1,72.2500013780594,0|8,0:0|0:0,0:0:0:0:
303,217,241429,6,0,P|322:143|243:133,1,152.999995330811,4|0,0:0|0:0,0:0:0:0:
174,168,241729,2,0,P|46:136|14:80,1,161.499995687485,4|0,0:0|0:0,0:0:0:0:
68,14,242029,2,0,P|120:38|140:74,1,85,4|0,0:0|0:0,0:0:0:0:
256,188,242229,6,0,B|460:202,2,170,4|2|8,0:0|0:0|0:0,0:0:0:0:
96,296,242829,2,0,P|40:264|0:272,1,85,0|8,0:0|0:0,0:0:0:0:
261,220,243029,6,0,B|309:196|357:184|433:164,2,170,4|2|8,0:0|0:0|0:0,0:0:0:0:
91,212,243629,2,0,P|39:248|47:296,1,85,0|8,0:0|0:0,0:0:0:0:
269,202,243829,6,0,P|398:147|406:123,2,170,6|2|8,0:0|0:0|0:0,0:0:0:0:
60,136,244429,2,0,L|38:53,1,85,2|0,0:0|0:0,0:0:0:0:
116,0,244629,1,4,0:0:0:0:
144,28,244729,1,8,0:0:0:0:
188,48,244829,1,8,0:0:0:0:
228,40,244929,1,8,0:0:0:0:
268,32,245029,5,8,0:0:0:0:
324,72,245129,1,8,0:0:0:0:
360,136,245229,1,8,0:0:0:0:
432,152,245329,1,8,0:0:0:0:
489,95,245429,6,2,B|437:120|436:188|473:225|530:214|543:163|543:163|523:177|501:178,1,255.000009727478,12|2,0:0|0:0,0:1:0:0:
75,282,245829,6,2,B|119:264|119:264|148:295|148:295|175:273|215:276,1,161.499995687485,8|0,0:0|0:0,0:1:0:0:
423,376,246129,5,8,0:0:0:0:
442,352,246229,2,2,P|437:319|425:287,1,59.4999981842042,2|0,0:0|0:0,0:1:0:0:
341,215,246429,2,2,P|330:242|324:271,1,59.4999981842042,2|0,0:0|0:0,0:1:0:0:
168,373,246629,6,2,P|192:303|255:346,1,170,12|0,0:0|0:0,0:1:0:0:
75,282,247029,5,2,0:0:0:0:
252,193,247229,1,2,0:0:0:0:
118,167,247429,6,2,B|104:75|104:75|134:105,1,136,8|0,0:0|0:0,0:1:0:0:
118,200,247729,5,8,0:0:0:0:
93,192,247829,2,2,B|51:123|84:116|65:38|65:38|105:80|105:80|159:66|159:66|222:86,1,340,2|8,0:0|0:0,0:1:0:0:
467,76,248429,6,2,B|449:17|381:-4|381:-4|395:16|395:16|348:1|311:19|311:19|350:45|350:45|344:95|344:95|380:110|401:146,1,407.999987548829,2|2,0:1|0:0,0:1:0:0:
474,202,248929,5,0,0:0:0:0:
439,116,249029,2,2,L|424:268,1,152.999995330811,8|0,0:0|0:0,0:1:0:0:
322,194,249329,5,8,0:0:0:0:
296,171,249429,2,2,P|298:198|303:225,1,55.2499974708558,2|0,0:0|0:0,0:1:0:0:
342,373,249629,2,2,P|346:345|349:318,1,55.2499974708558,2|0,0:0|0:0,0:1:0:0:
424,268,249829,6,2,B|378:295|378:295|363:281|363:281|339:273|339:273|323:257|323:257|285:260|266:286|266:286|237:266|203:264,1,255,8|2,0:0|0:0,0:1:0:0:
215,286,250129,1,2,0:0:0:0:
96,354,250229,6,2,B|41:310|41:234|41:234|65:270|111:279|111:279|110:233|137:201|137:201|88:125|88:125|79:64|79:64|48:100|56:143,1,544,4|2,0:1|0:0,0:1:0:0:
76,156,251229,6,2,P|75:143|73:130,1,25.4999992218018,2|0,0:0|0:0,0:1:0:0:
55,143,251429,2,2,P|57:155|58:168,1,25.4999992218018,8|0,0:0|0:0,0:1:0:0:
171,91,251629,6,2,B|172:66|190:46|190:46|193:62|193:62|233:22|298:44,1,178.499994552612,4|0,0:0|0:0,0:1:0:0:
304,20,252029,6,2,P|334:50|339:91,1,85,2|0,0:0|0:0,0:1:0:0:
503,60,252229,2,2,P|456:113|456:183,1,144.500002756119,8|2,0:0|0:1,0:1:0:0:
253,136,252629,6,2,P|254:161|262:185,1,50.9999984436036,2|0,0:0|0:0,0:1:0:0:
291,207,252829,2,2,P|289:232|281:256,1,50.9999984436036,2|0,0:0|0:0,0:1:0:0:
231,355,253029,1,8,0:0:0:0:
499,279,253229,1,2,0:1:0:0:
375,181,253429,6,2,P|376:206|384:230,1,50.9999984436036,2|0,0:0|0:0,0:1:0:0:
413,252,253629,2,2,P|411:277|403:301,1,50.9999984436036,2|0,0:0|0:0,0:1:0:0:
330,356,253829,1,8,0:0:0:0:
62,280,254029,1,2,0:1:0:0:
231,355,254229,6,2,B|184:356|184:356|180:363|180:363|133:365,1,101.999996887207,2|0,0:0|0:0,0:1:0:0:
4,167,254429,2,2,B|51:168|51:168|55:175|55:175|101:177,1,101.999996887207,2|0,0:0|0:0,0:1:0:0:
208,264,254629,6,2,B|169:203|189:139|219:177|238:103|204:46,1,229.500000875473,12|0,0:0|0:0,0:1:0:0:
182,53,254929,1,8,0:0:0:0:
239,148,255029,6,2,P|350:114|329:0,1,255.000009727478,6|2,0:0|0:0,0:1:0:0:
319,7,255329,2,2,P|352:118|467:97,1,255.000009727478,4|0,0:0|0:0,0:1:0:0:
461,86,255629,2,2,P|349:119|370:234,1,255.000009727478,6|0,0:0|0:0,0:1:0:0:
380,226,255929,2,2,P|346:114|231:135,1,255.000009727478,4|0,0:0|0:0,0:1:0:0:
238,147,256229,6,2,P|247:178|252:210,1,63.7500024318696,12|0,0:0|0:0,0:1:0:0:
412,309,256429,2,2,P|403:339|398:371,1,63.7500024318696,6|0,0:0|0:0,0:1:0:0:
224,358,256629,5,6,0:1:0:0:
311,303,256729,2,2,B|267:308|267:308|228:326|228:326|195:290|195:290|150:321|80:317,1,255.000009727478,4|0,0:0|0:0,0:1:0:0:
52,205,257029,6,2,P|148:243|61:299,1,255.000009727478,12|0,0:0|0:0,0:1:0:0:
81,317,257329,1,8,0:0:0:0:
27,189,257429,6,2,P|28:134|76:106,1,114.750000437737,6|0,0:0|0:0,0:1:0:0:
82,72,257629,2,2,P|188:90|246:-1,1,229.500000875473,2|8,0:0|0:0,0:1:0:0:
499,165,258029,6,2,P|461:139|415:142,1,93.5000028533936,2|0,0:0|0:0,0:1:0:0:
247,260,258229,6,2,L|455:220,1,187.000005706787,4|2,0:0|0:0,0:1:0:0:
431,225,258629,2,0,B|404:189|404:189|420:117,1,93.5000028533936,8|0,0:0|0:0,0:0:0:0:
500,164,258829,1,2,0:1:0:0:
384,336,259029,6,2,P|284:353|221:266,1,139.552236422316,4|2,0:0|0:1,0:1:0:0:
152,204,259229,2,0,L|72:184,1,63.7500024318696
135,355,259429,6,0,L|150:191,1,152.999995330811,8|2,0:0|0:1,0:0:0:0:
0,274,259829,6,2,P|76:250|176:222,1,152.999995330811,4|2,0:0|0:0,0:1:0:0:
331,176,260129,1,0,0:0:0:0:
331,176,260229,2,2,P|335:208|267:224,1,63.7500024318696,8|0,0:1|0:1,0:1:0:0:
209,241,260429,2,2,L|137:229,1,63.7500024318696,8|8,0:0|0:0,0:1:0:0:
0,200,260629,5,2,0:1:0:0:
168,152,260829,1,2,0:0:0:0:
28,124,261029,2,2,P|68:168|56:268,1,127.500004863739,10|0,0:1|0:0,0:1:0:0:
108,308,261329,1,0,0:0:0:0:
152,236,261429,6,0,L|168:140,1,85,6|0,0:1|0:0,0:0:0:0:
80,8,261629,2,0,P|36:16|12:28,2,56.6666666666667,2|0|2,0:1|0:0|0:1,0:0:0:0:
72,88,261829,6,0,L|296:120,1,188.888888888889,10|2,0:1|0:1,0:0:0:0:
368,108,262129,1,0,0:0:0:0:
392,199,262229,6,0,P|328:183|296:123,1,85,2|0,0:1|0:0,0:0:0:0:
350,20,262429,6,0,L|374:132,1,90.4255319148936,2|0,0:1|0:0,0:0:0:0:
462,122,262629,6,2,L|366:107,1,94.4444444444444,8|0,0:0|0:0,0:1:0:0:
240,91,262829,1,2,0:1:0:0:
24,52,263029,5,2,0:1:0:0:
231,176,263229,2,2,L|243:72,1,85,2|0,0:0|0:0,0:1:0:0:
64,133,263429,6,2,B|173:89|232:177,1,188.888888888889,14|0,0:1|0:0,0:1:0:0:
303,228,263729,1,2,0:1:0:0:
303,228,263829,6,0,P|319:196|319:152,1,63.7500024318696,2|2,0:0|0:1,0:0:0:0:
440,56,264029,2,0,P|424:80|416:136,1,63.7500024318696,2|2,0:0|0:1,0:0:0:0:
207,320,264229,6,2,L|407:276,1,188.888888888889,10|0,0:1|0:0,0:1:0:0:
464,252,264529,1,0,0:0:0:0:
392,280,264629,5,6,0:1:0:0:
392,280,264729,1,0,0:0:0:0:
328,340,264829,2,0,L|300:224,1,94.4444444444444
464,252,265029,5,10,0:1:0:0:
239,318,265229,6,2,P|318:341|371:318,1,94.4444444444444,0|2,0:0|0:1,0:1:0:0:
468,164,265429,1,2,0:0:0:0:
432,124,265529,6,0,P|344:124|368:256,1,188.888888888889,2|0,0:1|0:0,0:0:0:0:
356,336,265829,2,0,P|408:304|476:304,2,94.4444444444444,8|0|0,3:2|3:2|3:2,3:2:0:0:
68,240,266229,5,2,0:1:0:0:
68,240,266329,1,0,0:0:0:0:
140,176,266429,2,0,L|32:148,1,94.4444444444444
40,320,266629,5,8,0:0:0:0:
96,28,266829,6,0,P|22:49|8:101,1,94.4444444444444,0|0,0:0|0:1,0:0:0:0:
48,152,267029,1,0,0:0:0:0:
92,200,267129,6,0,P|195:197|234:126,1,188.888888888889,0|2,0:1|0:1,0:0:0:0:
340,56,267429,6,0,P|424:84|444:132,2,94.4444444444444,8|0|0,3:2|3:2|3:2,3:2:0:0:
272,224,267729,1,2,0:1:0:0:
300,248,267829,6,0,P|308:204|272:148,1,94.4444444444444,2|2,0:1|0:1,0:0:0:0:
356,0,268029,6,2,P|292:80|304:196,2,188.888888888889,2|8|0,0:0|0:0|0:0,0:1:0:0:
184,256,268629,6,0,P|202:240|192:156,1,94.4444444444444,8|0,0:0|0:0,0:0:0:0:
144,132,268829,1,0,0:0:0:0:
142,202,268929,1,8,0:0:0:0:
184,256,269029,6,0,P|234:246|285:181,1,94.4444444444444,8|0,0:0|0:0,0:0:0:0:
309,156,269229,1,0,0:0:0:0:
346,87,269329,1,8,0:0:0:0:
358,7,269429,5,6,0:1:0:0:
256,192,269529,12,2,276129,0:0:0:0:
