osu file format v14

[General]
AudioFilename: audio.mp3
AudioLeadIn: 0
PreviewTime: 64750
Countdown: 0
SampleSet: Soft
StackLeniency: 0.7
Mode: 0
LetterboxInBreaks: 0
WidescreenStoryboard: 0

[Editor]
Bookmarks: 27809,40625,95009,120609,133409,146209,159009,187825,200625,216625
DistanceSpacing: 0.7
BeatDivisor: 4
GridSize: 32
TimelineZoom: 3.299999

[Metadata]
Title:God knows...
TitleUnicode:God knows...
Artist:Suzumiya Haruhi (CV: Hirano Aya)
ArtistUnicode:涼宮ハルヒ (CV: 平野綾)
Creator:Luscent
Version:Insane
Source:涼宮ハルヒの憂鬱
Tags:The Melancholy of Haruhi Suzumiya no yuuutsu yuutsu anime japanese rock pop kowari
BeatmapID:3367803
BeatmapSetID:1650000

[Difficulty]
HPDrainRate:5
CircleSize:4
OverallDifficulty:7.5
ApproachRate:8
SliderMultiplier:1.7
SliderTickRate:1

[Events]
//Background and Video events
0,0,"bg.jpg",0,0
//Break Periods
2,188025,199875
//Storyboard Layer 0 (Background)
//Storyboard Layer 1 (Fail)
//Storyboard Layer 2 (Pass)
//Storyboard Layer 3 (Foreground)
//Storyboard Layer 4 (Overlay)
//Storyboard Sound Samples

[TimingPoints]
625,400,4,2,0,60,1,0
625,-100,4,2,0,60,0,0
2225,400,4,2,0,70,1,0
27825,-111.111111111111,4,2,0,50,0,0
40625,-100,4,2,0,60,0,0
53425,-100,4,2,0,70,0,0
66225,-100,4,2,0,90,0,1
95025,-100,4,2,0,70,0,0
120625,-111.111111111111,4,2,0,60,0,0
133425,-100,4,2,0,60,0,0
146225,-100,4,2,0,70,0,0
159025,-100,4,2,0,90,0,1
187825,-100,4,2,0,90,0,0
200625,-133.333333333333,4,2,0,60,0,0
210225,-133.333333333333,4,2,0,60,0,0
211025,-133.333333333333,4,2,0,70,0,0
211825,-133.333333333333,4,2,0,80,0,0
212625,-133.333333333333,4,2,0,90,0,0
213425,-133.333333333333,4,2,0,80,0,0
216625,-100,4,2,0,100,0,1
245425,-100,4,2,0,80,0,0
269625,-100,4,2,0,80,0,0
271025,-100,4,2,0,70,0,0
272625,-100,4,2,0,60,0,0
274225,-100,4,2,0,50,0,0
275825,-100,4,2,0,40,0,0

[Colours]
Combo1 : 255,94,55
Combo2 : 173,255,95
Combo3 : 17,254,176
Combo4 : 255,88,100

[HitObjects]
256,192,625,5,2,0:3:0:0:
256,192,1025,1,2,0:3:0:0:
72,195,1425,5,4,0:3:0:0:
61,235,1525,1,4,0:3:0:0:
74,276,1625,1,0,1:0:0:0:
102,307,1725,1,0,1:0:0:0:
144,315,1825,2,0,P|172:308|195:305,2,42.5,0|8|4,1:0|0:3|0:3,0:0:0:0:
263,359,2225,5,6,3:2:0:0:
392,292,2425,1,0,0:1:0:0:
392,292,2525,1,2,0:2:0:0:
392,291,2625,2,0,P|396:249|391:207,1,85,8|2,1:2|0:0,0:0:0:0:
269,73,3025,1,0,3:0:0:0:
269,73,3125,2,0,P|271:123|287:178,1,85,2|0,1:2|0:0,0:0:0:0:
303,192,3425,1,10,1:2:0:0:
215,289,3625,1,2,0:0:0:0:
37,228,3825,5,2,3:2:0:0:
103,146,4025,1,0,0:0:0:0:
103,146,4125,1,2,0:0:0:0:
103,146,4225,2,0,P|163:138|206:136,1,85,8|2,1:2|0:0,0:0:0:0:
3,14,4625,1,0,3:0:0:0:
3,14,4725,2,0,P|2:77|14:130,1,85,2|0,1:2|0:0,0:0:0:0:
20,133,5025,1,10,1:2:0:0:
126,41,5225,1,2,0:0:0:0:
251,84,5425,5,2,3:2:0:0:
365,39,5625,1,0,0:0:0:0:
365,39,5725,1,2,0:0:0:0:
365,39,5825,2,0,P|376:89|381:145,1,85,8|2,1:2|0:0,0:0:0:0:
481,158,6225,1,0,3:0:0:0:
481,158,6325,2,0,P|445:210|428:256,1,85,2|0,1:2|0:0,0:0:0:0:
420,267,6625,1,10,1:2:0:0:
265,342,6825,6,0,P|317:297|316:181,1,170,2|2,3:2|0:0,0:0:0:0:
218,40,7425,1,10,1:2:0:0:
137,108,7625,1,2,0:0:0:0:
137,108,7725,1,0,1:0:0:0:
137,108,7825,2,0,P|141:156|149:208,1,85,0|2,3:0|1:2,0:0:0:0:
102,356,8225,1,8,1:2:0:0:
7,298,8425,5,2,0:0:0:0:
7,298,8525,1,2,0:0:0:0:
7,298,8625,2,0,P|12:240|21:198,1,85,4|0,3:2|0:0,0:0:0:0:
16,183,8925,1,2,0:0:0:0:
3,155,9025,2,0,P|51:178|103:179,1,85,8|2,1:2|0:0,0:0:0:0:
187,227,9425,1,0,3:0:0:0:
187,227,9525,1,2,1:2:0:0:
275,130,9725,1,2,0:2:0:0:
275,130,9825,1,8,1:2:0:0:
159,73,10025,1,0,0:0:0:0:
82,181,10225,6,0,P|80:232|87:281,1,85,2|0,3:2|0:0,0:0:0:0:
76,294,10525,1,2,0:0:0:0:
57,317,10625,2,0,P|123:335|170:358,1,85,8|2,1:2|0:0,0:0:0:0:
253,242,11025,1,0,3:0:0:0:
253,242,11125,1,2,1:2:0:0:
329,384,11325,1,2,0:0:0:0:
329,384,11425,2,0,P|336:325|349:267,1,85,8|0,1:2|0:0,0:0:0:0:
438,233,11825,6,0,L|469:237,5,28.3333333333333,0|0|0|0|0|0,3:0|0:0|0:0|0:0|0:0|0:0,0:0:0:0:
426,193,12225,2,0,L|454:180,5,28.3333333333333,8|0|0|0|0|0,1:2|0:0|0:0|0:0|0:0|0:0,3:0:0:0:
405,155,12625,2,0,L|423:130,5,28.3333333333333,0|0|0|0|0|0,1:0|0:0|0:0|1:0|0:0|0:0,3:0:0:0:
367,126,13025,2,0,L|370:95,5,28.3333333333333,8|0|0|0|0|0,0:0|0:0|0:0|0:0|0:0|0:0,0:0:0:0:
323,142,13425,6,0,P|280:140|238:135,1,85,0|0,3:0|0:0,0:0:0:0:
128,0,13825,1,8,1:2:0:0:
48,71,14025,1,0,0:0:0:0:
48,71,14125,1,0,1:2:0:0:
48,71,14225,2,0,P|55:122|59:169,1,85,0|0,3:0|1:0,0:0:0:0:
0,237,14625,2,0,P|61:255|114:289,1,127.5,8|0,0:0|0:0,0:0:0:0:
142,318,15025,5,6,3:2:0:0:
279,236,15225,1,0,0:0:0:0:
279,236,15325,1,2,0:0:0:0:
279,236,15425,2,0,P|285:182|282:132,1,85,8|2,1:2|0:0,0:0:0:0:
134,74,15825,1,0,3:0:0:0:
134,74,15925,2,0,P|129:125|135:174,1,85,2|0,1:2|0:0,0:0:0:0:
148,189,16225,1,10,1:2:0:0:
148,189,16425,1,0,0:0:0:0:
123,364,16625,5,2,3:2:0:0:
0,284,16825,1,0,0:0:0:0:
0,284,16925,1,2,0:0:0:0:
0,284,17025,2,0,P|53:271|104:269,1,85,8|2,1:2|0:0,0:0:0:0:
125,277,17325,1,2,1:2:0:0:
161,256,17425,1,0,3:0:0:0:
180,218,17525,1,2,1:2:0:0:
177,175,17625,1,0,0:0:0:0:
38,64,17825,2,0,P|34:109|47:161,1,85,10|0,1:2|0:0,0:0:0:0:
276,31,18225,6,0,P|216:71|154:75,1,127.5,2|2,3:2|3:2,0:0:0:0:
130,56,18625,1,8,1:2:0:0:
266,155,18825,1,2,0:0:0:0:
67,259,19025,1,0,3:0:0:0:
67,259,19125,2,0,P|116:242|165:236,1,85,0|0,1:2|0:0,0:0:0:0:
182,248,19425,1,8,1:2:0:0:
339,129,19625,1,2,0:0:0:0:
200,14,19825,6,0,P|197:60|202:99,1,85,2|0,3:2|0:0,0:0:0:0:
204,119,20125,1,2,0:0:0:0:
204,140,20225,1,8,1:2:0:0:
6,180,20425,1,0,0:0:0:0:
18,139,20525,1,2,1:2:0:0:
44,105,20625,1,0,3:0:0:0:
83,88,20725,1,2,0:0:0:0:
125,90,20825,1,0,0:2:0:0:
283,222,21025,6,0,P|288:263|285:306,1,85,10|0,1:2|0:0,0:0:0:0:
285,306,21325,1,2,0:0:0:0:
285,306,21425,1,4,3:2:0:0:
142,380,21625,1,0,0:0:0:0:
142,380,21725,1,2,0:0:0:0:
142,380,21825,1,8,1:2:0:0:
93,223,22025,1,2,0:0:0:0:
93,223,22125,1,2,1:2:0:0:
218,185,22325,1,2,0:0:0:0:
218,185,22425,1,0,1:2:0:0:
285,306,22625,2,0,P|243:314|200:316,1,85,8|2,0:0|0:0,0:0:0:0:
56,384,23025,5,6,3:2:0:0:
8,291,23225,1,0,0:0:0:0:
8,291,23325,1,2,0:0:0:0:
8,291,23425,2,0,P|0:249|4:203,1,85,8|2,1:2|0:0,0:0:0:0:
225,112,23825,1,0,3:0:0:0:
225,112,23925,1,2,1:2:0:0:
213,257,24125,1,2,0:0:0:0:
213,257,24225,1,8,1:2:0:0:
74,245,24425,1,2,0:0:0:0:
27,127,24625,6,0,L|-3:119,5,28.3333333333333,0|0|0|0|0|0,3:0|0:0|0:0|0:0|0:0|0:0,0:0:0:0:
52,93,25025,2,0,L|30:70,5,28.3333333333333,8|0|0|0|0|0,1:2|0:0|0:0|0:2|0:0|0:0,3:0:0:0:
85,66,25425,2,0,L|77:36,5,28.3333333333333,0|0|0|0|0|0,1:2|0:0|0:0|1:0|0:0|0:0,3:0:0:0:
131,52,25825,2,0,L|139:21,5,28.3333333333333,8|0|0|0|0|0,0:0|0:0|0:0|0:0|0:0|0:0,0:0:0:0:
168,62,26225,6,0,P|210:67|252:66,1,85,0|0,3:0|0:0,0:0:0:0:
336,11,26625,1,8,1:2:0:0:
454,121,26825,1,0,0:0:0:0:
454,121,26925,1,0,1:0:0:0:
454,121,27025,2,0,P|451:183|454:231,1,85,0|0,3:0|0:0,0:0:0:0:
401,293,27425,1,8,1:2:0:0:
401,293,27825,6,0,P|348:274|230:269,1,152.999995330811,4|0,3:2|3:0,0:0:0:0:
93,260,28425,1,0,0:0:0:0:
93,260,28625,2,0,P|86:222|78:184,1,76.4999976654053,0|0,3:0|0:0,0:0:0:0:
161,93,29025,1,0,3:0:0:0:
161,93,29425,2,0,P|239:125|250:208,1,152.999995330811,0|0,3:0|3:0,0:0:0:0:
342,164,30025,1,0,0:0:0:0:
416,243,30225,2,0,P|420:280|418:319,1,76.4999976654053,0|0,3:0|0:0,0:0:0:0:
317,378,30625,1,0,3:0:0:0:
219,245,30825,5,0,0:0:0:0:
219,245,30925,1,0,0:0:0:0:
219,245,31025,2,0,P|214:180|219:90,1,152.999995330811,0|0,3:0|3:0,0:0:0:0:
68,3,31625,1,0,0:0:0:0:
68,3,31725,1,0,0:0:0:0:
68,3,31825,2,0,P|74:40|78:78,1,76.4999976654053,0|0,3:0|0:0,0:0:0:0:
0,156,32225,1,0,3:0:0:0:
0,156,32425,1,0,0:0:0:0:
85,232,32625,5,0,3:0:0:0:
184,183,32825,1,0,0:0:0:0:
256,319,33025,1,0,3:0:0:0:
338,255,33225,1,0,0:0:0:0:
338,255,33325,1,0,0:0:0:0:
338,255,33425,2,0,P|334:216|336:178,1,76.4999976654053,0|0,3:0|0:0,0:0:0:0:
386,54,33825,1,4,3:2:0:0:
386,54,34225,6,0,P|315:93|245:94,1,152.999995330811,0|0,3:0|3:0,0:0:0:0:
159,67,34825,1,0,0:0:0:0:
60,0,35025,2,0,P|66:37|71:75,1,76.4999976654053,0|0,3:0|0:0,0:0:0:0:
140,153,35425,2,0,P|131:200|130:248,1,76.4999976654053,0|0,3:0|0:0,0:0:0:0:
0,277,35825,6,0,P|77:293|162:351,1,152.999995330811,0|0,3:0|3:0,0:0:0:0:
224,367,36425,1,0,0:0:0:0:
274,197,36625,1,0,3:0:0:0:
154,249,36825,1,0,0:0:0:0:
327,301,37025,2,0,P|376:312|425:328,1,76.4999976654053,0|0,3:0|0:0,0:0:0:0:
507,237,37425,6,0,P|495:273|489:311,1,76.4999976654053,0|0,3:0|0:0,0:0:0:0:
388,123,37825,2,0,P|401:171|407:212,1,76.4999976654053,0|0,3:0|0:0,0:0:0:0:
317,17,38225,2,0,P|288:79|204:116,1,152.999995330811,0|0,3:0|3:0,0:0:0:0:
157,180,38825,1,0,0:0:0:0:
2,115,39025,6,0,P|13:165|16:196,1,76.4999976654053,0|0,3:0|0:0,0:0:0:0:
65,339,39425,1,0,3:0:0:0:
221,269,39625,1,0,0:0:0:0:
221,269,39725,1,0,0:0:0:0:
221,269,39825,2,0,P|172:261|131:258,1,76.4999976654053,0|0,3:0|0:0,0:0:0:0:
262,148,40225,1,4,3:2:0:0:
262,148,40625,6,0,P|312:198|410:200,1,170,2|2,3:2|3:2,0:0:0:0:
508,273,41225,1,0,0:0:0:0:
508,273,41325,1,2,0:0:0:0:
508,273,41425,2,0,P|515:209|527:158,1,85,0|0,3:0|0:0,0:0:0:0:
480,95,41825,1,0,3:0:0:0:
480,95,42025,1,0,0:0:0:0:
272,34,42225,6,0,P|324:29|363:24,1,85,0|0,3:0|0:0,0:0:0:0:
225,158,42625,1,0,3:0:0:0:
225,158,42825,2,0,L|339:163,1,85,2|2,0:0|3:2,0:0:0:0:
142,302,43225,1,0,0:0:0:0:
142,302,43425,2,0,L|241:285,1,85,2|0,3:2|0:0,0:0:0:0:
0,218,43825,6,0,P|20:291|32:356,1,127.5,2|0,3:2|0:0,0:0:0:0:
67,359,44225,1,2,3:2:0:0:
199,214,44425,1,2,0:0:0:0:
199,214,44525,1,2,0:0:0:0:
199,214,44625,2,0,P|147:210|113:206,1,85,0|0,3:0|0:0,0:0:0:0:
0,59,45025,5,0,3:0:0:0:
21,61,45125,1,0,0:0:0:0:
42,63,45225,1,0,0:0:0:0:
63,65,45325,1,0,0:0:0:0:
84,67,45425,1,0,3:0:0:0:
105,68,45525,1,0,0:0:0:0:
127,70,45625,1,0,0:0:0:0:
148,71,45725,1,0,0:0:0:0:
169,72,45825,6,0,L|222:77,3,42.5,0|0|0|0,3:0|0:0|0:0|0:0,0:0:0:0:
239,49,46225,2,0,L|292:54,3,42.5,0|0|0|0,3:0|0:0|0:0|0:0,0:0:0:0:
314,78,46625,2,0,L|367:83,3,42.5,0|0|0|0,3:0|0:0|0:0|0:0,0:0:0:0:
397,64,47025,6,0,P|390:105|389:148,1,85,2|0,3:2|0:0,0:0:0:0:
469,245,47425,1,2,3:2:0:0:
303,191,47625,1,2,0:2:0:0:
303,191,47725,1,2,0:2:0:0:
303,191,47825,2,0,P|310:232|313:275,1,85,0|0,3:0|0:0,0:0:0:0:
419,359,48225,1,0,3:0:0:0:
419,359,48625,6,0,B|335:348|339:397|250:384,1,170,0|0,3:0|3:0,0:0:0:0:
121,166,49225,1,2,0:0:0:0:
46,224,49425,2,0,P|45:267|54:311,1,85,2|0,3:2|0:0,0:0:0:0:
218,275,49825,1,0,3:2:0:0:
218,275,50025,1,2,0:0:0:0:
339,211,50225,6,0,P|350:129|338:37,1,170,2|2,3:2|3:2,0:0:0:0:
201,158,50825,1,0,0:0:0:0:
34,80,51025,2,0,P|83:92|140:89,1,85,0|0,3:0|0:0,0:0:0:0:
37,247,51425,2,0,P|84:228|134:218,1,85,0|0,3:0|0:0,0:0:0:0:
264,353,51825,5,0,3:0:0:0:
264,353,52025,1,0,0:0:0:0:
414,273,52225,2,0,P|371:258|318:252,1,85,0|0,3:0|0:0,0:0:0:0:
171,145,52625,2,0,P|229:168|267:167,1,85,0|0,3:0|0:0,0:0:0:0:
453,175,53025,1,0,3:0:0:0:
453,175,53425,6,0,P|468:83|454:6,1,170,6|0,3:2|1:0,0:0:0:0:
229,41,54025,1,2,0:2:0:0:
229,41,54225,2,0,L|327:48,1,85,0|0,3:0|3:0,0:0:0:0:
379,208,54625,1,0,1:0:0:0:
215,161,54825,2,0,P|151:166|86:183,1,127.5,0|0,3:0|0:0,0:0:0:0:
56,158,55225,1,0,3:0:0:0:
0,285,55425,1,0,1:0:0:0:
140,376,55625,5,0,0:0:0:0:
140,376,55725,1,0,0:0:0:0:
140,376,55825,2,0,P|145:307|151:260,1,85,2|0,3:2|3:0,0:0:0:0:
213,190,56225,1,2,1:2:0:0:
336,316,56425,1,0,0:0:0:0:
452,245,56625,2,0,P|409:244|305:229,1,127.5,2|0,3:2|0:0,0:0:0:0:
299,207,57025,1,0,1:0:0:0:
102,121,57225,1,0,0:0:0:0:
102,121,57325,1,0,0:0:0:0:
102,121,57425,2,0,P|117:166|128:224,1,85,2|0,3:2|3:0,0:0:0:0:
193,328,57825,1,0,1:2:0:0:
27,268,58025,6,0,P|86:244|148:231,1,127.5,2|0,3:2|0:0,0:0:0:0:
182,249,58425,1,0,3:0:0:0:
313,123,58625,1,0,1:0:0:0:
169,36,58825,1,0,0:0:0:0:
169,36,58925,1,0,0:0:0:0:
169,36,59025,2,0,P|175:94|185:131,1,85,0|0,3:0|3:0,0:0:0:0:
284,277,59425,1,0,1:0:0:0:
284,277,59625,1,0,0:0:0:0:
390,195,59825,6,0,P|437:201|484:211,1,85,2|0,3:2|0:0,0:0:0:0:
244,365,60225,1,2,1:2:0:0:
150,293,60425,1,0,0:0:0:0:
150,293,60525,1,2,0:0:0:0:
150,293,60625,2,0,P|103:287|56:277,1,85,2|0,3:2|3:0,0:0:0:0:
19,168,61025,1,0,1:0:0:0:
148,22,61225,6,0,P|144:99|125:186,1,127.5,2|0,2:2|0:0,0:0:0:0:
116,177,61625,1,2,0:2:0:0:
279,134,61825,1,0,1:0:0:0:
233,327,62025,1,2,0:2:0:0:
233,327,62125,2,0,P|237:270|250:215,1,85,0|0,3:0|0:0,0:0:0:0:
257,213,62425,1,0,0:0:0:0:
410,88,62625,2,0,P|406:131|396:172,1,85,2|0,1:2|0:0,0:0:0:0:
311,326,63025,6,0,P|353:310|406:301,1,85,2|0,3:2|0:0,0:0:0:0:
102,263,63425,1,0,1:0:0:0:
231,373,63625,1,2,0:2:0:0:
306,204,63825,2,0,P|317:146|317:84,1,85,0|0,3:0|0:0,0:0:0:0:
32,195,64225,1,0,1:0:0:0:
17,225,64325,1,0,0:0:0:0:
18,258,64425,1,0,0:0:0:0:
27,290,64525,1,0,0:0:0:0:
48,315,64625,5,4,1:2:0:0:
199,346,64925,1,4,1:3:0:0:
199,346,65025,1,8,1:3:0:0:
248,218,65225,1,0,1:3:0:0:
257,189,65325,1,0,1:3:0:0:
259,159,65425,1,4,3:3:0:0:
257,129,65525,1,0,1:3:0:0:
249,100,65625,1,0,1:3:0:0:
32,121,65825,1,0,1:3:0:0:
37,137,65925,1,0,1:3:0:0:
40,153,66025,1,4,3:3:0:0:
43,169,66125,1,0,1:3:0:0:
49,184,66225,6,0,P|116:171|182:167,1,127.5,6|0,3:2|0:0,0:2:0:0:
206,185,66625,1,8,1:0:0:0:
350,31,66825,1,4,3:0:0:0:
350,31,66925,1,0,1:0:0:0:
350,31,67025,2,0,P|340:86|340:132,1,85,0|4,0:0|3:3,0:0:0:0:
408,199,67425,1,8,1:0:0:0:
248,366,67625,6,0,P|254:296|281:210,1,127.5,4|0,3:0|0:0,0:1:0:0:
278,205,68025,1,0,3:3:0:0:
469,257,68225,1,8,1:0:0:0:
422,97,68425,1,4,3:0:0:0:
422,97,68525,1,0,1:0:0:0:
422,97,68625,2,0,P|368:106|313:125,1,85,4|0,3:0|3:3,0:0:0:0:
115,83,69025,5,8,1:0:0:0:
229,14,69225,2,0,P|237:94|195:182,1,170,4|0,3:3|3:1,0:1:0:0:
153,299,69825,1,8,1:0:0:0:
8,232,70025,1,4,3:3:0:0:
8,232,70125,1,0,1:0:0:0:
8,232,70225,2,0,P|48:219|90:213,1,85,4|0,3:0|1:1,0:0:0:0:
240,271,70625,1,8,1:0:0:0:
350,125,70825,6,0,P|346:167|346:209,1,85,0|0,1:0|0:0,0:0:0:0:
120,49,71225,2,0,P|125:91|128:133,1,85,0|8,1:0|1:0,0:0:0:0:
83,312,71625,1,4,3:3:0:0:
83,312,71725,1,0,1:0:0:0:
83,312,71825,1,0,3:0:0:0:
261,340,72025,1,0,3:1:0:0:
267,168,72225,2,0,P|225:171|184:180,1,85,8|0,1:0|1:1,0:0:0:0:
387,225,72625,5,4,3:2:0:0:
387,225,73025,1,8,1:0:0:0:
492,116,73225,1,4,3:0:0:0:
492,116,73325,1,0,1:0:0:0:
492,116,73425,2,0,P|480:170|479:221,1,85,4|0,3:0|3:0,0:0:0:0:
447,341,73825,1,8,1:0:0:0:
325,279,74025,5,4,3:3:0:0:
325,279,74125,1,0,1:0:0:0:
325,279,74225,2,0,P|262:288|206:299,1,85,0|0,3:1|0:0,0:0:0:0:
142,373,74625,1,8,1:0:0:0:
32,307,74825,1,4,3:0:0:0:
21,274,74925,1,0,1:0:0:0:
20,240,75025,1,4,3:3:0:0:
25,206,75125,1,0,1:0:0:0:
39,175,75225,1,0,3:0:0:0:
154,205,75425,2,0,P|196:210|238:210,1,85,8|0,1:0|0:0,0:0:0:0:
337,243,75825,6,0,P|377:179|385:73,1,170,4|8,3:3|1:1,0:1:0:0:
196,4,76425,1,0,3:0:0:0:
196,4,76525,1,0,1:0:0:0:
196,4,76625,2,0,P|197:46|209:87,1,85,4|0,3:0|0:1,0:0:0:0:
286,170,77025,1,8,1:0:0:0:
120,268,77225,6,0,P|166:256|228:246,1,85,4|0,3:3|0:0,0:0:0:0:
288,298,77625,1,4,3:0:0:0:
428,119,77825,1,8,1:0:0:0:
428,119,78025,1,8,3:0:0:0:
384,332,78225,1,0,3:3:0:0:
384,332,78425,1,0,1:1:0:0:
286,170,78625,5,8,1:0:0:0:
512,113,78825,1,4,3:0:0:0:
512,113,78925,1,4,3:0:0:0:
512,113,79025,2,0,P|505:177|502:220,1,85,4|0,3:2|0:0,0:0:0:0:
420,264,79425,1,8,1:0:0:0:
327,381,79625,1,4,3:0:0:0:
327,381,79725,2,0,P|312:319|316:255,1,127.5,0|0,1:0|0:0,0:0:0:0:
205,283,80225,1,8,1:0:0:0:
70,214,80425,5,0,3:0:0:0:
70,214,80525,1,0,3:0:0:0:
70,214,80625,2,0,P|121:211|177:196,1,85,4|0,3:0|0:0,0:0:0:0:
279,109,81025,1,8,1:0:0:0:
108,7,81225,1,4,3:0:0:0:
108,7,81325,2,0,P|79:62|93:143,1,127.5,0|0,1:0|0:0,0:0:0:0:
128,284,81825,1,8,1:0:0:0:
274,222,82025,6,0,P|252:166|180:129,1,127.5,4|0,3:0|0:0,0:0:0:0:
160,129,82425,1,4,3:0:0:0:
8,197,82625,2,0,P|13:256|23:306,1,85,8|4,1:0|3:0,0:0:0:0:
17,281,82925,1,0,1:0:0:0:
17,281,83025,1,4,3:0:0:0:
144,364,83225,1,4,3:0:0:0:
240,265,83425,1,8,1:0:0:0:
129,199,83625,5,4,3:0:0:0:
129,199,84025,1,4,3:0:0:0:
223,343,84225,2,0,P|265:345|307:350,1,85,8|4,1:0|3:0,0:0:0:0:
341,351,84525,1,0,1:0:0:0:
374,356,84625,1,4,3:0:0:0:
403,166,84825,1,4,3:0:0:0:
275,270,85025,1,8,1:0:0:0:
473,377,85225,5,4,3:0:0:0:
473,377,85325,1,4,3:0:0:0:
473,377,85425,2,0,P|465:297|475:219,1,127.5,4|0,3:2|0:0,0:0:0:0:
472,211,85825,1,8,1:0:0:0:
253,243,86025,1,4,3:0:0:0:
253,243,86125,1,0,1:0:0:0:
253,243,86225,2,0,P|311:256|350:270,1,85,4|0,3:0|0:0,0:0:0:0:
275,95,86625,1,8,1:0:0:0:
158,164,86825,1,4,3:0:0:0:
381,177,87025,6,0,P|388:106|384:44,1,127.5,4|0,3:0|0:0,0:0:0:0:
364,15,87425,1,8,1:0:0:0:
148,2,87625,1,4,3:0:0:0:
148,2,87725,1,0,1:0:0:0:
148,2,87825,2,0,P|147:57|153:105,1,85,4|0,3:0|0:0,0:0:0:0:
84,193,88225,1,8,1:0:0:0:
0,108,88425,1,0,3:0:0:0:
278,182,88625,6,0,P|215:195|160:226,1,127.5,4|0,3:2|0:0,0:0:0:0:
140,255,89025,1,8,1:0:0:0:
82,116,89225,1,4,3:0:0:0:
82,116,89325,1,0,1:0:0:0:
82,116,89425,1,4,3:0:0:0:
232,238,89625,1,0,0:0:0:0:
35,348,89825,2,0,P|5:279|15:170,1,170,8|4,1:0|0:0,0:0:0:0:
9,186,90625,6,0,P|50:178|92:171,1,85,8|4,1:0|3:0,0:0:0:0:
169,131,90925,1,0,1:0:0:0:
169,131,91025,2,0,P|186:80|185:19,1,85,4|0,3:0|1:0,0:0:0:0:
303,5,91425,2,0,P|295:78|318:157,1,127.5,12|0,1:0|0:0,0:0:0:0:
368,180,91825,5,4,3:2:0:0:
457,194,92025,1,4,3:0:0:0:
512,113,92225,1,8,1:0:0:0:
288,207,92425,5,4,3:0:0:0:
288,207,92525,1,0,1:0:0:0:
288,207,92625,1,4,3:0:0:0:
433,260,92825,1,0,3:0:0:0:
512,113,93025,1,8,1:0:0:0:
330,23,93225,5,4,3:0:0:0:
330,23,93325,1,0,1:0:0:0:
330,23,93425,2,0,P|330:85|333:129,1,85,4|0,3:0|0:0,0:0:0:0:
216,340,93825,1,8,1:0:0:0:
101,282,94025,1,4,3:0:0:0:
101,282,94125,1,0,1:0:0:0:
101,282,94225,2,0,P|94:232|100:171,1,85,4|0,3:0|3:0,0:0:0:0:
189,105,94625,1,0,1:0:0:0:
231,108,94725,1,0,1:0:0:0:
269,127,94825,1,0,1:0:0:0:
294,161,94925,1,0,1:0:0:0:
303,202,95025,1,4,1:2:0:0:
412,58,95225,5,0,3:0:0:0:
412,58,95325,1,0,3:0:0:0:
412,58,95425,2,0,P|407:107|410:148,1,85,8|0,1:2|3:0,0:0:0:0:
512,203,95825,1,0,3:0:0:0:
512,203,95925,2,0,P|460:224|401:291,1,127.5,0|8,1:0|1:2,0:0:0:0:
361,359,96425,1,0,3:0:0:0:
194,282,96625,5,0,3:0:0:0:
294,163,96825,1,0,3:0:0:0:
294,163,96925,1,0,0:0:0:0:
294,163,97025,2,0,P|296:223|293:272,1,85,8|0,1:2|0:0,0:0:0:0:
51,207,97425,1,0,3:0:0:0:
51,207,97525,2,0,P|94:226|153:224,1,85,0|0,1:0|0:0,0:0:0:0:
164,212,97825,1,8,1:2:0:0:
46,323,98025,1,0,3:0:0:0:
217,384,98225,6,0,P|216:344|225:267,1,85,0|0,3:0|3:0,0:0:0:0:
226,267,98525,1,0,3:0:0:0:
226,267,98625,1,8,1:2:0:0:
365,204,98825,1,0,3:0:0:0:
365,204,98925,2,0,P|429:212|478:235,1,85,0|0,1:0|0:0,0:0:0:0:
474,242,99225,1,0,1:0:0:0:
339,323,99425,1,8,0:0:0:0:
243,187,99625,6,0,P|225:125|224:62,1,127.5,0|0,3:0|0:0,0:0:0:0:
229,25,100025,1,0,3:0:0:0:
47,109,100225,1,8,1:2:0:0:
147,169,100425,1,0,3:2:0:0:
163,193,100525,1,0,1:2:0:0:
172,221,100625,1,0,3:2:0:0:
173,250,100725,1,0,1:2:0:0:
164,278,100825,1,0,3:2:0:0:
100,362,101025,1,8,1:2:0:0:
267,310,101225,5,0,3:0:0:0:
267,310,101325,1,0,3:0:0:0:
267,310,101425,2,0,P|312:317|360:325,1,85,4|0,3:2|0:0,0:0:0:0:
440,380,101725,1,0,3:0:0:0:
440,380,101825,2,0,P|428:314|433:256,1,85,8|0,1:2|0:0,0:0:0:0:
433,266,102125,1,0,1:0:0:0:
287,156,102325,1,0,1:0:0:0:
282,185,102425,1,0,3:0:0:0:
130,281,102625,2,0,P|119:239|116:197,1,85,8|0,1:2|0:0,0:0:0:0:
1,112,103025,6,0,P|56:124|112:120,1,85,0|0,3:0|3:0,0:0:0:0:
162,109,103325,1,0,3:0:0:0:
162,109,103425,2,0,P|186:54|189:10,1,85,8|0,1:2|0:0,0:0:0:0:
181,0,103725,1,0,1:0:0:0:
299,117,103925,1,0,1:0:0:0:
307,145,104025,1,0,3:0:0:0:
427,78,104225,2,0,P|468:84|511:87,1,85,8|0,1:2|0:0,0:0:0:0:
484,186,104625,6,0,L|514:190,5,28.3333333333333,0|0|0|0|0|0,3:0|0:0|0:0|0:0|0:0|0:0,0:0:0:0:
461,221,105025,2,0,L|484:241,5,28.3333333333333,8|0|0|0|0|0,1:2|0:0|0:0|0:0|0:0|0:0,3:0:0:0:
430,251,105425,2,0,L|440:279,5,28.3333333333333,0|0|0|0|0|0,1:0|0:0|0:0|0:0|0:0|0:0,3:0:0:0:
386,269,105825,2,0,L|380:299,5,28.3333333333333,8|0|0|0|0|0,1:2|0:0|0:0|0:0|0:0|0:0,0:0:0:0:
348,241,106225,6,0,P|303:233|260:228,1,85,0|0,1:0|0:0,0:0:0:0:
142,239,106625,1,8,1:2:0:0:
102,75,106825,1,0,0:0:0:0:
279,42,107025,1,0,3:0:0:0:
279,42,107125,1,0,1:0:0:0:
279,42,107225,1,0,3:0:0:0:
202,158,107425,5,8,1:2:0:0:
1,111,107625,1,0,1:0:0:0:
1,111,107725,1,0,1:0:0:0:
1,111,107825,2,0,P|-5:168|6:216,1,85,4|0,1:2|0:0,0:0:0:0:
58,250,108125,1,0,3:0:0:0:
58,250,108225,2,0,P|107:240|162:240,1,85,8|0,1:2|0:0,0:0:0:0:
248,328,108625,1,0,0:0:0:0:
248,328,108725,1,0,1:0:0:0:
370,255,108925,1,0,3:0:0:0:
370,255,109025,2,0,P|380:185|366:112,1,127.5,8|0,1:2|0:0,0:0:0:0:
322,73,109425,5,0,3:0:0:0:
490,180,109625,1,0,3:0:0:0:
490,180,109725,1,0,3:0:0:0:
490,180,109825,2,0,P|479:231|477:285,1,85,8|0,1:2|3:0,0:0:0:0:
463,304,110125,1,0,1:0:0:0:
432,333,110225,1,0,3:0:0:0:
391,344,110325,1,0,1:0:0:0:
349,336,110425,1,0,3:0:0:0:
149,276,110625,2,0,P|206:292|260:290,1,85,8|0,1:2|0:0,0:0:0:0:
233,95,111025,6,0,P|253:154|304:216,1,127.5,0|0,3:0|0:0,0:0:0:0:
325,224,111425,1,8,1:2:0:0:
325,224,111625,1,0,3:0:0:0:
483,167,111825,1,0,3:0:0:0:
483,167,111925,1,0,1:0:0:0:
482,167,112025,2,0,P|487:121|480:65,1,85,0|8,3:0|1:2,0:0:0:0:
406,15,112425,1,0,0:0:0:0:
325,224,112625,5,0,3:2:0:0:
253,85,112825,1,0,3:2:0:0:
162,159,113025,1,8,1:2:0:0:
52,111,113225,1,0,3:0:0:0:
52,111,113325,1,0,1:0:0:0:
52,111,113425,1,0,3:0:0:0:
219,240,113625,1,0,3:0:0:0:
60,342,113825,2,0,P|43:285|49:202,1,127.5,8|0,1:2|0:0,0:0:0:0:
58,182,114225,5,4,0:2:0:0:
226,280,114425,1,0,3:0:0:0:
226,280,114525,1,0,3:0:0:0:
226,280,114625,2,0,P|176:275|133:273,1,85,8|0,1:2|3:0,0:0:0:0:
121,245,114925,1,0,1:0:0:0:
281,153,115125,1,0,1:0:0:0:
309,170,115225,1,0,3:0:0:0:
133,111,115425,2,0,P|128:68|134:26,1,85,8|0,1:2|0:0,0:0:0:0:
323,253,115825,5,0,3:0:0:0:
376,102,116025,1,0,3:0:0:0:
376,102,116125,1,0,3:0:0:0:
376,102,116225,2,0,P|441:112|482:114,1,85,8|0,1:2|3:0,0:0:0:0:
494,93,116525,1,0,1:0:0:0:
309,170,116725,1,0,1:0:0:0:
281,153,116825,1,0,3:0:0:0:
421,237,117025,2,0,P|420:279|412:321,1,85,8|0,1:2|0:0,0:0:0:0:
285,357,117425,6,0,L|277:387,5,28.3333333333333,0|0|0|0|0|0,1:0|0:0|0:0|0:0|0:0|0:0,0:0:0:0:
251,332,117825,2,0,L|228:354,5,28.3333333333333,8|0|0|0|0|0,1:2|0:0|0:0|0:0|0:0|0:0,3:0:0:0:
224,299,118225,2,0,L|194:307,5,28.3333333333333,0|0|0|0|0|0,1:0|0:0|0:0|0:0|0:0|0:0,3:0:0:0:
210,253,118625,2,0,L|179:245,5,28.3333333333333,8|0|0|0|0|0,1:2|0:0|0:0|1:0|0:0|0:0,0:0:0:0:
231,216,119025,5,4,1:2:0:0:
256,192,119125,12,0,120225,3:0:0:0:
25,178,120625,6,0,P|72:234|157:228,1,152.999995330811,4|0,3:2|3:0,0:0:0:0:
292,279,121225,1,0,0:0:0:0:
292,279,121425,2,0,P|299:239|296:191,1,76.4999976654053,0|0,3:0|0:0,0:0:0:0:
276,100,121825,1,0,3:0:0:0:
165,17,122025,5,0,0:0:0:0:
165,17,122125,1,0,0:0:0:0:
165,17,122225,2,0,P|160:60|166:106,1,76.4999976654053,0|0,3:0|0:0,0:0:0:0:
74,121,122625,2,0,P|149:133|218:183,1,152.999995330811,0|0,3:0|3:0,0:0:0:0:
288,145,123225,1,0,0:0:0:0:
314,245,123425,1,0,3:0:0:0:
244,325,123625,5,0,0:0:0:0:
244,325,123725,1,0,0:0:0:0:
244,325,123825,2,0,P|193:323|150:324,1,76.4999976654053,0|0,3:0|0:0,0:0:0:0:
7,245,124225,2,0,P|58:247|101:246,1,76.4999976654053,0|0,3:0|0:0,0:0:0:0:
237,176,124625,2,0,P|186:174|143:175,1,76.4999976654053,0|0,3:0|0:0,0:0:0:0:
64,77,125025,2,0,P|115:79|158:78,1,76.4999976654053,0|0,3:0|0:0,0:0:0:0:
224,96,125325,1,0,0:0:0:0:
224,96,125425,6,0,P|280:82|314:65,1,76.4999976654053,0|0,3:0|0:0,0:0:0:0:
399,0,125825,2,0,P|403:37|413:74,1,76.4999976654053,0|0,3:0|0:0,0:0:0:0:
484,156,126225,2,0,P|477:215|478:249,1,76.4999976654053,0|0,3:0|0:0,0:0:0:0:
434,333,126625,1,0,3:0:0:0:
434,333,127025,6,0,P|362:316|281:312,1,152.999995330811,0|0,3:0|3:0,0:0:0:0:
168,365,127625,1,0,0:0:0:0:
168,365,127825,2,0,P|162:312|169:265,1,76.4999976654053,0|0,3:0|0:0,0:0:0:0:
219,147,128225,2,0,P|225:200|218:247,1,76.4999976654053,0|0,3:0|0:0,0:0:0:0:
0,174,128625,6,0,P|31:97|123:94,1,152.999995330811,0|0,3:0|3:0,0:0:0:0:
157,21,129225,1,0,0:0:0:0:
295,163,129425,1,0,3:0:0:0:
295,163,129625,1,0,0:0:0:0:
415,80,129825,1,0,3:0:0:0:
415,80,130025,1,0,0:0:0:0:
493,136,130225,6,0,P|494:189|493:233,1,76.4999976654053,0|0,3:0|0:0,0:0:0:0:
405,278,130625,2,0,P|424:331|430:374,1,76.4999976654053,0|0,3:0|0:0,0:0:0:0:
225,286,131025,2,0,P|277:296|300:306,1,76.4999976654053,0|0,3:0|0:0,0:0:0:0:
67,370,131425,2,0,P|107:352|152:345,1,76.4999976654053,0|0,3:0|0:0,0:0:0:0:
0,204,131825,6,0,P|47:254|137:254,1,152.999995330811,0|0,3:0|3:0,0:0:0:0:
282,164,132425,1,0,0:0:0:0:
282,164,132525,1,0,0:0:0:0:
282,164,132625,2,0,P|226:153|182:151,1,76.4999976654053,0|0,3:0|0:0,0:0:0:0:
421,200,133025,1,4,0:2:0:0:
421,200,133425,6,0,P|437:115|420:13,1,170,2|2,3:2|3:2,0:0:0:0:
284,55,134025,1,0,0:0:0:0:
284,55,134125,1,2,0:0:0:0:
284,55,134225,2,0,L|193:63,1,85,0|0,3:0|0:0,0:0:0:0:
97,135,134625,1,0,3:0:0:0:
97,135,134825,1,0,0:0:0:0:
210,290,135025,6,0,P|222:231|240:186,1,85,0|0,3:0|0:0,0:0:0:0:
95,346,135425,1,0,3:0:0:0:
95,346,135625,2,0,P|82:284|66:239,1,85,2|2,0:0|3:2,0:0:0:0:
12,125,136025,1,0,0:0:0:0:
12,125,136225,2,0,P|6:186|-5:232,1,85,2|0,3:2|0:0,0:0:0:0:
79,38,136625,6,0,P|116:81|215:84,1,127.5,2|0,3:2|0:0,0:0:0:0:
219,80,137025,1,2,3:2:0:0:
367,186,137225,1,2,0:0:0:0:
367,186,137325,1,2,0:0:0:0:
367,186,137425,2,0,P|315:177|261:170,1,85,0|0,3:0|0:0,0:0:0:0:
133,256,137825,2,0,P|185:265|239:272,1,85,0|0,3:0|0:0,0:0:0:0:
331,377,138225,5,0,3:0:0:0:
333,355,138325,1,0,0:0:0:0:
337,334,138425,1,0,0:0:0:0:
341,313,138525,1,0,0:0:0:0:
346,292,138625,1,0,3:0:0:0:
351,271,138725,1,0,0:0:0:0:
356,250,138825,1,0,0:0:0:0:
363,230,138925,1,0,0:0:0:0:
370,210,139025,2,0,L|363:157,3,42.5,0|0|0|0,3:0|0:0|0:0|0:0,0:0:0:0:
395,141,139425,2,0,L|388:88,3,42.5,0|0|0|0,3:0|0:0|0:0|0:0,0:0:0:0:
365,65,139825,6,0,P|311:70|189:89,1,170,2|2,3:2|3:2,0:0:0:0:
34,27,140425,1,2,0:2:0:0:
34,27,140525,1,2,0:2:0:0:
34,27,140625,2,0,P|58:69|70:115,1,85,0|0,3:0|0:0,0:0:0:0:
57,204,141025,1,0,3:0:0:0:
57,204,141425,6,0,B|143:192|135:236|231:220,1,170,0|0,3:0|3:0,0:0:0:0:
355,159,142025,1,2,0:0:0:0:
355,159,142125,1,0,0:0:0:0:
355,158,142225,2,0,P|349:201|351:243,1,85,2|0,3:2|0:0,0:0:0:0:
274,356,142625,1,0,3:2:0:0:
274,356,142825,1,2,0:0:0:0:
98,304,143025,6,0,P|136:239|241:227,1,170,2|2,3:2|3:2,0:0:0:0:
378,259,143625,1,0,0:0:0:0:
408,148,143825,2,0,P|358:141|302:129,1,85,0|0,3:0|0:0,0:0:0:0:
157,47,144225,2,0,P|207:54|263:66,1,85,0|0,3:0|0:0,0:0:0:0:
65,99,144625,5,0,3:0:0:0:
65,99,144825,1,0,0:0:0:0:
123,286,145025,1,0,3:0:0:0:
229,203,145225,1,0,0:0:0:0:
229,203,145325,1,0,0:0:0:0:
229,203,145425,2,0,P|169:196|121:194,1,85,0|0,3:0|0:0,0:0:0:0:
8,180,145825,1,0,3:0:0:0:
8,180,146225,6,0,P|-8:262|12:356,1,170,6|0,3:2|1:0,0:0:0:0:
105,384,146825,1,2,0:2:0:0:
194,329,147025,2,0,P|260:337|301:347,1,85,0|0,3:0|3:0,0:0:0:0:
480,226,147425,2,0,P|440:266|330:267,1,170,0|0,1:0|3:0,0:0:0:0:
257,173,148025,1,0,3:0:0:0:
346,105,148225,1,0,1:0:0:0:
416,187,148425,1,2,0:0:0:0:
251,252,148625,6,0,P|196:247|132:245,1,85,2|0,3:2|3:0,0:0:0:0:
43,296,149025,1,2,1:2:0:0:
43,296,149425,2,0,P|21:214|30:130,1,170,2|0,3:2|1:0,0:0:0:0:
125,102,150025,1,0,0:0:0:0:
275,47,150225,2,0,P|227:41|173:31,1,85,2|0,3:2|3:0,0:0:0:0:
235,211,150625,2,0,P|300:198|366:200,1,127.5,2|0,1:2|0:0,0:0:0:0:
393,177,151025,5,0,3:0:0:0:
294,123,151225,1,0,3:0:0:0:
460,78,151425,1,0,1:0:0:0:
440,270,151625,1,0,3:0:0:0:
235,211,151825,5,0,3:0:0:0:
368,304,152025,1,0,3:0:0:0:
477,177,152225,1,0,1:0:0:0:
256,296,152425,5,2,0:0:0:0:
256,296,152525,1,0,0:0:0:0:
256,296,152625,2,0,P|256:348|260:394,1,85,2|0,3:2|0:0,0:0:0:0:
147,352,153025,1,2,1:2:0:0:
7,270,153225,1,0,0:0:0:0:
7,270,153325,2,0,P|77:260|133:231,1,127.5,2|0,3:2|3:0,0:0:0:0:
186,151,153825,1,0,1:0:0:0:
281,45,154025,5,2,3:2:0:0:
281,45,154125,1,0,0:0:0:0:
281,45,154225,2,0,P|271:92|272:139,1,85,0|2,3:0|0:2,0:0:0:0:
205,245,154625,1,0,1:0:0:0:
360,355,154825,1,2,0:2:0:0:
360,355,154925,2,0,P|369:302|361:226,1,127.5,0|2,3:0|0:0,0:0:0:0:
458,54,155425,2,0,P|441:106|443:155,1,85,2|0,1:2|0:0,0:0:0:0:
271,311,155825,5,2,3:2:0:0:
451,216,156025,1,0,0:0:0:0:
281,109,156225,2,0,P|287:161|299:203,1,85,0|2,1:0|0:2,0:0:0:0:
110,365,156625,2,0,P|150:352|192:347,1,85,0|0,3:0|0:0,0:0:0:0:
191,200,157025,1,0,1:0:0:0:
172,228,157125,1,0,0:0:0:0:
143,246,157225,1,0,0:0:0:0:
110,254,157325,1,0,0:0:0:0:
76,254,157425,5,4,1:2:0:0:
56,245,157525,1,8,1:3:0:0:
86,145,157725,1,4,3:3:0:0:
69,131,157825,1,0,1:3:0:0:
176,68,158025,1,4,1:3:0:0:
168,48,158125,1,4,1:3:0:0:
299,72,158325,1,4,1:3:0:0:
304,51,158425,1,4,1:3:0:0:
413,103,158625,5,4,3:0:0:0:
424,135,158725,1,0,1:0:0:0:
424,168,158825,1,0,1:0:0:0:
414,200,158925,1,0,1:0:0:0:
398,230,159025,2,0,P|353:222|254:217,1,127.5,4|0,3:2|0:0,0:0:0:0:
240,239,159425,1,8,1:0:0:0:
42,282,159625,1,4,3:0:0:0:
42,282,159725,1,0,1:0:0:0:
42,282,159825,2,0,P|39:223|47:168,1,85,0|0,0:0|3:0,0:0:0:0:
154,135,160225,1,8,1:0:0:0:
83,20,160425,6,0,P|144:47|253:42,1,170,4|4,3:0|3:0,0:0:0:0:
344,104,161025,1,8,1:0:0:0:
468,34,161225,1,4,3:0:0:0:
468,34,161325,1,0,1:0:0:0:
468,34,161425,2,0,P|461:87|461:138,1,85,4|0,3:0|3:0,0:0:0:0:
434,272,161825,1,8,1:0:0:0:
273,219,162025,6,0,P|314:208|356:204,1,85,4|0,3:0|0:0,0:0:0:0:
317,377,162425,1,4,3:0:0:0:
191,291,162625,2,0,P|140:283|67:285,1,85,8|4,1:0|3:0,0:0:0:0:
76,265,162925,1,0,1:0:0:0:
54,238,163025,1,4,3:0:0:0:
50,204,163125,1,0,1:0:0:0:
58,170,163225,1,0,3:0:0:0:
2,347,163425,1,8,1:0:0:0:
148,205,163625,6,0,P|141:163|137:120,1,85,0|0,1:3|0:0,0:0:0:0:
223,358,164025,2,0,P|232:310|254:251,1,85,0|8,1:3|1:0,0:0:0:0:
349,189,164425,1,4,3:0:0:0:
345,168,164525,1,0,1:0:0:0:
340,147,164625,1,4,3:0:0:0:
466,217,164825,1,0,3:1:0:0:
512,104,165025,1,8,1:0:0:0:
318,41,165225,5,4,3:0:0:0:
318,41,165325,1,0,1:0:0:0:
318,41,165425,2,0,P|302:124|323:207,1,170,4|8,3:2|1:0,0:0:0:0:
260,347,166025,1,4,3:0:0:0:
260,347,166125,1,0,1:0:0:0:
260,347,166225,1,4,3:0:0:0:
69,306,166425,2,0,P|123:292|170:285,1,85,0|8,3:0|1:0,0:0:0:0:
236,212,166825,5,0,3:0:0:0:
54,140,167025,2,0,P|92:159|134:168,1,85,4|0,3:0|0:0,0:0:0:0:
295,66,167425,1,8,1:0:0:0:
392,161,167625,1,4,3:0:0:0:
392,161,167725,1,0,1:0:0:0:
392,161,167825,2,0,P|390:214|385:269,1,85,4|0,3:0|3:0,0:0:0:0:
315,337,168225,2,0,P|243:318|170:314,1,127.5,8|0,1:0|0:0,0:0:0:0:
159,334,168625,5,4,3:0:0:0:
121,194,168825,1,0,1:0:0:0:
265,166,169025,1,8,1:0:0:0:
314,243,169225,5,0,3:0:0:0:
314,243,169325,1,0,1:0:0:0:
314,243,169425,1,4,3:0:0:0:
185,226,169625,1,0,3:0:0:0:
47,207,169825,1,8,1:0:0:0:
142,111,170025,2,0,P|183:103|226:100,1,85,4|0,3:0|0:0,0:0:0:0:
298,50,170425,1,4,3:0:0:0:
471,125,170625,5,8,1:0:0:0:
471,125,170825,1,8,3:0:0:0:
264,222,171025,1,0,0:0:0:0:
264,222,171225,1,4,3:0:0:0:
512,190,171425,5,8,1:0:0:0:
336,125,171625,1,4,3:0:0:0:
336,125,171725,1,4,3:0:0:0:
336,125,171825,2,0,P|332:167|336:209,1,85,4|0,3:2|0:0,0:0:0:0:
435,298,172225,1,8,1:0:0:0:
315,371,172425,1,4,3:0:0:0:
315,371,172525,2,0,B|253:372|253:394|184:384,1,127.5,0|0,1:0|0:0,0:0:0:0:
133,262,173025,1,8,1:0:0:0:
0,220,173225,5,0,3:0:0:0:
0,220,173325,1,0,3:0:0:0:
0,220,173425,2,0,P|-3:270|5:318,1,85,4|0,3:0|0:0,0:0:0:0:
127,345,173825,1,8,1:0:0:0:
261,289,174025,1,4,3:0:0:0:
261,289,174125,2,0,P|268:218|256:152,1,127.5,0|0,1:0|0:0,0:0:0:0:
196,102,174625,1,8,1:0:0:0:
33,57,174825,6,0,P|81:76|127:78,1,85,4|0,3:0|0:0,0:0:0:0:
191,211,175225,1,4,3:0:0:0:
343,145,175425,2,0,P|348:88|340:38,1,85,8|4,1:0|3:0,0:0:0:0:
345,60,175725,1,0,1:0:0:0:
345,60,175825,1,4,3:0:0:0:
200,21,176025,1,4,3:0:0:0:
128,149,176225,1,8,1:0:0:0:
277,192,176425,5,4,3:0:0:0:
277,192,176825,1,4,3:0:0:0:
152,346,177025,2,0,P|194:325|246:312,1,85,8|4,1:0|3:0,0:0:0:0:
255,309,177325,1,0,1:0:0:0:
280,307,177425,1,4,3:0:0:0:
202,181,177625,1,4,3:0:0:0:
102,287,177825,1,8,1:0:0:0:
333,373,178025,5,4,3:0:0:0:
333,373,178125,1,4,3:0:0:0:
333,373,178225,2,0,P|320:287|325:211,1,127.5,4|0,3:2|0:0,0:0:0:0:
335,218,178625,1,8,1:0:0:0:
427,85,178825,1,4,3:0:0:0:
427,85,178925,1,0,1:0:0:0:
427,85,179025,2,0,P|425:135|412:184,1,85,4|0,3:0|0:0,0:0:0:0:
246,270,179425,1,8,1:0:0:0:
78,236,179625,5,4,3:0:0:0:
78,236,179725,1,0,1:0:0:0:
78,236,179825,2,0,P|118:222|160:217,1,85,4|0,3:0|0:0,0:0:0:0:
308,136,180225,1,8,1:0:0:0:
179,38,180425,1,4,3:0:0:0:
148,52,180525,1,0,1:0:0:0:
125,77,180625,1,4,3:0:0:0:
113,108,180725,1,0,1:0:0:0:
114,141,180825,1,0,0:0:0:0:
230,273,181025,2,0,P|236:231|246:189,1,85,8|0,1:0|3:0,0:0:0:0:
13,317,181425,6,0,P|99:331|188:380,1,170,4|8,3:2|1:0,0:0:0:0:
339,320,182025,1,4,3:0:0:0:
339,320,182125,1,0,1:0:0:0:
339,320,182225,2,0,P|343:277|339:235,1,85,4|0,3:0|0:0,0:0:0:0:
319,207,182525,1,4,3:0:0:0:
161,228,182725,1,4,3:0:0:0:
129,241,182825,1,4,3:0:0:0:
95,241,182925,1,4,3:0:0:0:
64,226,183025,6,0,P|50:142|62:58,2,170,4|8|4,0:0|1:0|3:0,0:0:0:0:
184,324,184125,1,4,3:0:0:0:
408,214,184425,1,12,3:0:0:0:
408,214,184625,1,4,1:2:0:0:
256,192,184825,12,4,186225,2:2:0:0:
256,192,186325,12,4,187825,1:2:0:0:
218,155,200625,6,0,P|174:162|126:164,1,63.7500024318696,0|0,3:0|0:0,0:0:0:0:
78,126,201025,1,0,3:0:0:0:
0,243,201225,1,0,0:0:0:0:
0,243,201425,2,0,P|75:249|154:270,1,127.500004863739,0|0,3:0|3:0,0:0:0:0:
229,357,202025,5,2,0:0:0:0:
229,357,202125,1,0,0:0:0:0:
229,357,202225,2,0,P|219:301|214:264,1,63.7500024318696,2|0,3:2|0:0,0:0:0:0:
303,266,202625,1,2,3:2:0:0:
303,266,202825,2,0,P|296:221|297:181,1,63.7500024318696,2|0,0:2|3:0,0:0:0:0:
384,174,203225,1,2,0:2:0:0:
384,174,203425,2,0,P|390:131|407:89,1,63.7500024318696,0|2,3:0|0:2,0:0:0:0:
303,21,203825,6,0,P|241:27|205:78,1,127.500004863739,0|0,3:0|3:0,0:0:0:0:
116,89,204425,2,0,P|127:134|130:171,1,63.7500024318696,0|0,0:0|3:0,0:0:0:0:
75,221,204825,2,0,P|106:254|119:279,1,63.7500024318696,0|0,0:0|3:0,0:0:0:0:
230,260,205225,5,0,0:0:0:0:
108,373,205425,2,0,P|195:352|276:346,1,127.500004863739,2|0,3:2|3:0,0:0:0:0:
385,312,206025,1,2,0:2:0:0:
385,312,206125,1,0,0:0:0:0:
385,312,206225,2,0,P|341:302|301:300,1,63.7500024318696,0|0,3:0|0:0,0:0:0:0:
491,264,206625,1,2,3:2:0:0:
491,264,206825,1,0,0:0:0:0:
512,166,207025,6,0,P|507:97|508:2,1,127.500004863739,2|0,3:2|3:0,0:0:0:0:
323,227,207625,1,0,0:0:0:0:
323,227,207725,1,0,0:0:0:0:
323,227,207825,2,0,P|328:176|336:137,1,63.7500024318696,0|0,3:0|0:0,0:0:0:0:
166,129,208225,2,0,P|157:86|153:43,1,63.7500024318696,0|0,3:0|0:0,0:0:0:0:
44,190,208625,1,0,3:0:0:0:
44,190,209025,6,0,P|93:205|125:221,1,63.7500024318696,2|0,3:2|0:0,0:0:0:0:
232,384,209425,2,0,P|222:340|223:298,1,63.7500024318696,2|0,3:2|0:0,0:0:0:0:
319,138,209825,2,0,P|284:159|239:182,1,63.7500024318696,2|0,3:2|0:0,0:0:0:0:
120,292,210225,5,6,3:2:0:0:
308,245,210425,1,4,3:0:0:0:
120,292,210625,1,4,3:0:0:0:
199,163,210825,1,4,3:0:0:0:
292,330,211025,1,4,3:0:0:0:
217,258,211225,1,4,3:0:0:0:
124,204,211425,5,4,3:0:0:0:
310,127,211625,1,4,3:0:0:0:
213,281,211825,1,0,1:3:0:0:
182,80,212025,1,0,1:3:0:0:
339,223,212225,1,0,1:3:0:0:
424,58,212425,5,0,1:3:0:0:
418,161,212625,1,0,1:3:0:0:
270,95,212825,5,0,1:3:0:0:
337,307,213025,1,0,1:3:0:0:
502,195,213225,5,0,1:3:0:0:
256,192,213425,1,4,1:0:0:0:
256,192,214825,5,4,1:0:0:0:
256,192,215025,1,4,1:0:0:0:
157,84,215825,5,8,0:3:0:0:
125,110,215925,1,4,0:3:0:0:
111,149,216025,1,0,1:0:0:0:
118,189,216125,1,0,1:0:0:0:
145,219,216225,1,0,1:0:0:0:
309,281,216425,5,0,1:0:0:0:
309,281,216525,1,0,1:0:0:0:
309,281,216625,2,0,P|315:224|326:178,1,85,4|0,3:2|0:0,0:0:0:0:
486,165,217025,1,8,1:0:0:0:
400,58,217225,1,4,3:0:0:0:
400,58,217325,2,0,P|349:90|277:93,1,127.5,0|0,1:0|3:0,0:0:0:0:
212,171,217825,1,8,1:0:0:0:
58,24,218025,6,0,P|76:62|86:103,1,85,4|0,3:0|0:0,0:0:0:0:
81,276,218425,1,4,3:0:0:0:
8,176,218625,1,8,1:0:0:0:
191,207,218825,1,4,3:0:0:0:
191,207,218925,2,0,P|179:272|174:350,1,127.5,0|0,1:0|3:0,0:0:0:0:
248,378,219425,1,8,1:0:0:0:
471,309,219625,6,0,P|429:298|369:291,1,85,4|0,3:0|0:0,0:0:0:0:
303,236,220025,1,4,3:0:0:0:
136,168,220225,2,0,P|192:181|248:179,1,85,8|4,1:0|3:0,0:0:0:0:
260,172,220525,1,0,1:0:0:0:
293,146,220625,1,4,3:0:0:0:
313,108,220725,1,0,1:0:0:0:
315,65,220825,1,0,0:0:0:0:
394,195,221025,1,8,1:0:0:0:
512,86,221225,6,0,P|500:141|496:195,1,85,8|0,3:0|0:0,0:0:0:0:
382,329,221625,2,0,P|337:318|277:311,1,85,4|8,3:0|1:0,0:0:0:0:
106,249,222025,1,4,3:0:0:0:
106,249,222125,1,0,1:0:0:0:
106,249,222225,2,0,P|151:260|211:267,1,85,4|0,3:0|3:1,0:0:0:0:
364,172,222625,1,8,1:0:0:0:
364,172,222825,1,4,3:0:0:0:
224,21,223025,6,0,P|213:101|233:209,1,170,4|8,3:2|1:0,0:0:0:0:
64,360,223625,1,4,3:0:0:0:
64,360,223725,1,0,1:0:0:0:
64,360,223825,2,0,P|64:317|73:276,1,85,4|0,3:0|3:0,0:0:0:0:
151,168,224225,1,8,1:0:0:0:
16,220,224425,1,0,3:0:0:0:
8,186,224525,1,0,1:0:0:0:
1,152,224625,1,4,3:0:0:0:
61,79,224825,5,0,0:0:0:0:
198,93,225025,1,8,1:0:0:0:
171,251,225225,1,4,3:0:0:0:
150,247,225325,1,0,1:0:0:0:
129,244,225425,1,4,3:0:0:0:
107,242,225525,1,0,1:0:0:0:
86,241,225625,1,0,3:0:0:0:
255,183,225825,2,0,P|295:196|337:202,1,85,8|0,1:0|0:0,0:0:0:0:
434,248,226225,6,0,P|472:172|475:88,1,170,4|8,3:0|1:0,0:0:0:0:
344,10,226825,1,0,3:0:0:0:
312,22,226925,1,0,1:0:0:0:
286,44,227025,1,4,3:0:0:0:
272,75,227125,1,0,1:0:0:0:
269,108,227225,1,0,0:0:0:0:
290,269,227425,1,8,1:0:0:0:
124,244,227625,6,0,P|164:229|205:221,1,85,4|0,3:0|0:0,0:0:0:0:
15,107,228025,1,4,3:0:0:0:
15,107,228125,1,0,1:0:0:0:
15,107,228225,2,0,P|29:147|37:188,1,85,8|8,1:0|3:0,0:0:0:0:
22,282,228625,1,0,0:0:0:0:
200,146,228825,5,4,3:0:0:0:
200,146,228925,1,0,1:0:0:0:
200,146,229025,1,8,1:0:0:0:
399,194,229225,1,4,3:0:0:0:
399,194,229325,1,4,3:0:0:0:
399,194,229425,2,0,P|392:123|396:72,1,85,4|0,3:2|0:0,0:0:0:0:
344,360,229825,1,8,1:0:0:0:
240,297,230025,1,4,3:0:0:0:
240,297,230125,2,0,P|176:306|104:331,1,127.5,0|0,1:0|0:0,0:0:0:0:
7,229,230625,1,8,1:0:0:0:
147,148,230825,5,0,3:0:0:0:
147,148,230925,1,0,3:0:0:0:
147,148,231025,2,0,P|159:196|161:249,1,85,4|0,3:0|0:0,0:0:0:0:
7,77,231425,1,8,1:0:0:0:
129,12,231625,1,4,3:0:0:0:
129,12,231725,2,0,P|190:44|266:46,1,127.5,0|0,1:0|0:0,0:0:0:0:
347,114,232225,1,8,1:0:0:0:
474,2,232425,6,0,P|468:52|466:94,1,85,4|0,3:0|0:0,0:0:0:0:
394,311,232825,1,4,3:0:0:0:
278,252,233025,2,0,P|277:209|283:167,1,85,8|4,1:0|3:0,0:0:0:0:
309,133,233325,1,0,1:0:0:0:
347,114,233425,1,4,3:0:0:0:
389,112,233525,1,0,1:0:0:0:
428,126,233625,1,4,3:0:0:0:
394,311,233825,1,8,1:0:0:0:
250,280,234025,6,0,P|206:271|145:265,1,85,4|0,3:0|0:0,0:0:0:0:
427,201,234425,2,0,P|471:210|532:216,1,85,4|8,3:0|1:0,0:0:0:0:
243,90,234825,1,4,3:0:0:0:
238,123,234925,1,0,1:0:0:0:
234,156,235025,1,4,3:0:0:0:
330,223,235225,1,4,3:0:0:0:
301,29,235425,1,8,1:0:0:0:
65,170,235625,5,4,3:0:0:0:
65,170,235725,1,4,3:0:0:0:
65,170,235825,2,0,B|129:159|125:181|193:168,1,127.5,4|0,3:2|0:0,0:0:0:0:
230,185,236225,1,8,1:0:0:0:
387,39,236425,1,4,3:0:0:0:
387,39,236525,1,0,1:0:0:0:
387,39,236625,2,0,P|371:90|368:135,1,85,4|0,3:0|0:0,0:0:0:0:
309,202,237025,1,8,1:0:0:0:
407,339,237225,1,4,3:0:0:0:
498,199,237425,6,0,P|458:184|415:179,1,85,4|0,3:0|0:0,0:0:0:0:
200,360,237825,2,0,P|225:317|237:261,1,85,8|4,1:0|3:0,0:0:0:0:
240,249,238125,1,0,1:0:0:0:
237,215,238225,1,4,3:0:0:0:
226,182,238325,1,0,1:0:0:0:
203,156,238425,1,0,0:0:0:0:
28,157,238625,2,0,P|73:175|133:174,1,85,8|0,1:0|3:0,0:0:0:0:
298,91,239025,6,0,P|236:85|137:69,1,127.5,4|0,3:2|0:0,0:0:0:0:
142,51,239425,1,8,1:0:0:0:
169,242,239625,1,4,3:0:0:0:
169,242,239725,1,0,1:0:0:0:
169,242,239825,1,4,3:0:0:0:
313,178,240025,1,4,2:3:0:0:
313,178,240125,1,0,1:0:0:0:
446,232,240325,1,0,1:0:0:0:
446,232,240425,1,4,0:3:0:0:
509,179,240625,6,0,P|519:116|516:52,1,127.5,4|0,0:0|0:0,0:0:0:0:
488,22,241025,1,8,1:0:0:0:
318,101,241225,1,4,3:0:0:0:
318,101,241325,1,0,1:0:0:0:
318,101,241425,1,4,3:0:0:0:
248,201,241625,5,0,1:0:0:0:
418,122,241825,1,12,1:0:0:0:
257,9,242025,1,4,3:0:0:0:
257,9,242125,1,0,1:0:0:0:
257,9,242225,2,0,P|200:3|149:-4,1,85,4|4,3:2|3:0,0:0:0:0:
248,201,242625,5,8,1:0:0:0:
418,122,242825,1,4,3:0:0:0:
418,122,242925,1,0,1:0:0:0:
418,122,243025,2,0,P|410:70|408:28,1,85,4|0,3:0|3:0,0:0:0:0:
257,9,243425,1,8,1:0:0:0:
136,203,243625,1,4,3:0:0:0:
136,203,243725,1,0,1:0:0:0:
136,203,243825,2,0,P|193:209|239:218,1,85,4|0,3:0|0:0,0:0:0:0:
371,327,244225,1,8,1:0:0:0:
473,171,244425,1,4,3:0:0:0:
315,101,244625,5,4,3:0:0:0:
290,135,244725,1,4,1:3:0:0:
284,177,244825,1,0,3:0:0:0:
297,217,244925,1,8,1:3:0:0:
327,247,245025,1,0,1:3:0:0:
469,84,245225,5,0,1:0:0:0:
469,84,245325,1,0,1:0:0:0:
469,84,245425,2,0,P|426:79|384:71,1,85,6|0,0:2|0:0,0:0:0:0:
280,0,245825,2,0,P|216:15|183:113,1,170,8|4,1:0|3:0,0:0:0:0:
184,126,246325,1,0,1:0:0:0:
195,144,246425,1,0,0:0:0:0:
306,230,246625,2,0,P|311:169|320:125,1,85,8|0,1:0|3:2,0:0:0:0:
190,345,247025,6,0,P|231:354|271:368,1,85,4|0,3:0|0:0,0:0:0:0:
154,231,247425,2,0,P|102:245|23:253,1,127.5,8|0,1:0|0:0,0:0:0:0:
0,230,247825,1,4,3:0:0:0:
59,156,248025,1,4,3:0:0:0:
182,326,248225,1,8,1:1:0:0:
251,275,248425,5,0,3:0:0:0:
251,275,248525,1,0,3:0:0:0:
251,275,248625,2,0,P|254:229|248:179,1,85,4|0,3:0|0:0,0:0:0:0:
172,100,249025,1,8,1:0:0:0:
313,0,249225,1,4,3:0:0:0:
313,0,249325,2,0,P|301:68|312:133,1,127.5,0|4,1:0|3:0,0:0:0:0:
381,220,249825,1,8,1:0:0:0:
512,154,250025,5,0,3:0:0:0:
512,154,250125,1,0,3:0:0:0:
512,154,250225,2,0,P|468:144|425:139,1,85,4|0,3:0|0:0,0:0:0:0:
271,226,250625,1,8,1:0:0:0:
271,226,251025,5,4,0:3:0:0:
276,259,251125,1,0,1:0:0:0:
281,292,251225,1,4,0:3:0:0:
286,325,251325,1,4,3:3:0:0:
291,358,251425,1,8,1:1:0:0:
62,283,251625,6,0,P|93:238|193:238,1,127.5,4|0,3:0|0:0,0:0:0:0:
195,234,252025,2,0,P|199:264|199:289,2,42.5,0|2|8,0:0|0:0|1:0,0:0:0:0:
15,140,252425,2,0,P|70:131|110:120,1,85,2|4,3:2|3:0,0:0:0:0:
126,47,252825,1,0,0:0:0:0:
247,106,253025,1,8,1:0:0:0:
367,181,253225,5,0,3:0:0:0:
367,181,253325,1,0,3:0:0:0:
367,181,253425,2,0,P|375:124|388:74,1,85,4|0,3:0|0:0,0:0:0:0:
313,22,253825,1,8,1:0:0:0:
266,217,254025,1,4,3:0:0:0:
266,217,254125,1,0,1:0:0:0:
266,217,254225,2,0,P|259:275|266:320,1,85,4|0,3:0|0:0,0:0:0:0:
318,374,254625,1,8,1:0:0:0:
318,374,254825,1,0,0:0:0:0:
479,303,255025,5,4,3:0:0:0:
479,303,255125,2,0,P|412:294|365:286,1,85,0|0,1:0|0:0,0:0:0:0:
367,267,255425,1,8,1:0:0:0:
153,324,255625,2,0,L|93:335,2,42.5,4|0|4,3:0|1:0|3:0,0:0:0:0:
299,300,256025,1,0,0:0:0:0:
156,247,256225,2,0,P|143:206|143:164,1,85,8|0,1:0|0:0,0:0:0:0:
0,37,256625,6,0,P|53:74|73:169,1,127.5,4|0,3:0|0:0,0:0:0:0:
67,160,257025,1,8,1:0:0:0:
4,227,257225,1,4,3:0:0:0:
80,360,257425,5,0,0:0:0:0:
80,360,257525,1,0,1:0:0:0:
80,360,257625,2,0,P|87:302|98:259,1,85,0|8,0:0|1:0,0:0:0:0:
161,234,258025,1,4,3:0:0:0:
304,160,258225,6,0,P|254:171|211:173,1,85,4|0,3:2|0:0,0:0:0:0:
126,110,258625,2,0,P|108:87|100:64,2,42.5,8|0|0,1:0|0:0|0:0,0:0:0:0:
242,11,259025,2,0,P|258:50|265:91,1,85,4|0,3:0|0:0,0:0:0:0:
202,243,259425,2,0,P|167:236|149:229,2,42.5,8|0|0,1:0|0:0|0:0,0:0:0:0:
292,178,259825,5,4,3:0:0:0:
368,233,260025,1,0,0:2:0:0:
388,228,260125,1,0,0:2:0:0:
409,224,260225,1,8,1:0:0:0:
430,220,260325,1,0,0:2:0:0:
451,217,260425,1,0,0:2:0:0:
472,215,260525,1,0,1:2:0:0:
493,213,260625,2,0,P|489:159|486:117,1,85,4|0,3:0|0:0,0:0:0:0:
406,1,261025,2,0,P|410:55|413:97,1,85,8|0,1:0|0:0,0:0:0:0:
395,115,261325,1,0,0:0:0:0:
371,139,261425,6,0,P|332:133|296:130,7,42.5,4|0|0|0|8|0|0|0,3:0|0:0|0:0|0:0|1:0|0:0|0:0|0:0,0:0:0:0:
301,103,262225,2,0,P|262:97|226:94,3,42.5,4|0|0|0,3:0|0:0|0:0|0:0,0:0:0:0:
228,116,262625,2,0,P|189:110|153:107,3,42.5,8|0|0|0,1:0|0:0|0:0|0:0,0:0:0:0:
161,85,263025,6,0,P|94:112|100:216,1,170,4|8,3:0|1:0,0:0:0:0:
29,315,263625,1,4,3:0:0:0:
29,315,263725,1,0,1:0:0:0:
29,315,263825,2,0,P|83:301|126:298,1,85,4|0,3:0|0:0,0:0:0:0:
198,363,264225,1,8,1:0:0:0:
331,294,264425,5,4,3:0:0:0:
331,294,264525,1,0,1:0:0:0:
331,294,264625,2,0,P|323:240|320:190,1,85,4|0,3:2|0:0,0:0:0:0:
342,10,265025,1,8,1:0:0:0:
426,76,265225,1,4,3:0:0:0:
426,76,265325,1,0,1:0:0:0:
426,76,265425,2,0,P|423:125|413:176,1,85,4|0,3:0|0:0,0:0:0:0:
158,246,265825,1,8,1:0:0:0:
158,246,266225,6,0,L|250:236,1,85,4|0,3:0|0:0,0:0:0:0:
347,165,266625,1,8,1:0:0:0:
236,60,266825,1,4,3:0:0:0:
203,70,266925,1,0,1:0:0:0:
181,96,267025,1,4,3:0:0:0:
171,128,267125,1,0,1:0:0:0:
171,162,267225,1,0,3:0:0:0:
133,340,267425,2,0,P|129:297|120:256,1,85,8|0,1:0|0:0,0:0:0:0:
57,101,267825,5,4,3:0:0:0:
57,101,268025,1,4,3:0:0:0:
33,241,268225,1,8,3:1:0:0:
33,241,268425,1,0,1:0:0:0:
201,239,268625,1,0,1:0:0:0:
234,241,268725,1,0,1:3:0:0:
267,245,268825,1,4,0:3:0:0:
300,253,268925,1,8,0:3:0:0:
332,261,269025,2,0,L|391:275,3,42.5,0|0|4|8,1:0|1:0|0:3|0:3,0:0:0:0:
392,198,269425,5,4,0:2:0:0:
256,192,269625,12,0,275958,3:0:0:0:
