osu file format v14

[General]
AudioFilename: PingPong.mp3
AudioLeadIn: 0
PreviewTime: 66138
Countdown: 0
SampleSet: Normal
StackLeniency: 0.7
Mode: 0
LetterboxInBreaks: 0
WidescreenStoryboard: 0

[Editor]
DistanceSpacing: 1.2
BeatDivisor: 4
GridSize: 4
TimelineZoom: 1.6

[Metadata]
Title:Shakunetsu Switch
TitleUnicode:灼熱スイッチ
Artist:Suzumegahara Chuugaku Takkyuu-bu
ArtistUnicode:Suzumegahara Chuugaku Takkyuu-bu
Creator:kayiedee
Version:Hard
Source:灼熱の卓球娘
Tags:Scorching Ping Pong Girls Yumiri Hanamori Minami Tanaka Ayaka Imamura Hisako Tojo Marika Kouno Yuuki Kuwahara
BeatmapID:1163282
BeatmapSetID:549316

[Difficulty]
HPDrainRate:6
CircleSize:3.8
OverallDifficulty:6.5
ApproachRate:7.6
SliderMultiplier:1.7
SliderTickRate:1

[Events]
//Background and Video events
0,0,"Bg Shakunetsu switch.jpg",0,0
//Break Periods
//Storyboard Layer 0 (Background)
//Storyboard Layer 1 (Fail)
//Storyboard Layer 2 (Pass)
//Storyboard Layer 3 (Foreground)
//Storyboard Sound Samples

[TimingPoints]
523,295.566502463054,4,1,0,40,1,0
523,-133.333333333333,4,1,0,20,0,0
19439,-133.333333333333,4,1,0,40,0,0
27567,-200,4,1,0,40,0,0
28897,-133.333333333333,4,1,0,40,0,0
66582,-100,4,1,0,40,0,1
75596,-100,4,1,0,40,0,0
76040,-100,4,1,0,40,0,1
87123,-133.333333333333,4,1,0,40,0,0
87862,-200,4,1,0,40,0,0
88010,-200,4,1,0,30,0,0
88306,-200,4,1,0,20,0,0
88601,-200,4,1,0,10,0,0

[Colours]
Combo1 : 237,234,157
Combo2 : 207,178,232
Combo3 : 148,197,237
Combo4 : 205,81,92
Combo5 : 99,105,101
Combo6 : 241,182,214

[HitObjects]
72,136,523,6,0,P|40:156|0:164,1,63.7500024318696
132,76,818,6,0,P|192:64|256:96,2,127.500004863739
180,156,1557,1,0,0:0:0:0:
180,156,1705,2,0,P|184:224|172:296,1,127.500004863739
112,324,2148,2,0,L|251:311,1,127.500004863739
284,252,2591,2,0,P|284:212|280:184,1,63.7500024318696
340,352,2887,6,0,P|368:288|372:208,1,127.500004863739
464,236,3330,2,0,P|436:172|432:92,1,127.500004863739
376,60,3774,2,0,P|344:52|308:52,1,63.7500024318696
240,72,4069,2,0,B|204:80|168:72|168:72|132:64|96:72,1,127.500004863739
8,152,4513,2,0,B|44:160|80:152|80:152|116:144|152:152,1,127.500004863739
204,204,4956,2,0,P|208:236|208:272,1,63.7500024318696
134,149,5252,6,0,P|182:121|266:145,2,127.500004863739
112,240,5990,1,0,0:0:0:0:
112,240,6138,2,0,L|195:232,1,63.7500024318696
208,304,6434,2,0,P|280:316|348:304,1,127.500004863739
404,260,6877,1,0,0:0:0:0:
248,128,7173,1,0,0:0:0:0:
212,330,7468,1,0,0:0:0:0:
212,330,7616,6,0,P|160:328|184:260,1,127.500004863739
96,220,8059,2,0,P|142:189|224:208,1,127.500004863739
304,184,8503,2,0,L|297:255,1,63.7500024318696
388,164,8798,1,0,0:0:0:0:
388,164,8946,2,0,L|381:235,1,63.7500024318696
472,144,9241,1,0,0:0:0:0:
472,144,9389,2,0,L|458:299,1,127.500004863739
344,296,9981,6,0,P|392:284|460:328,1,127.500004863739
256,352,10424,2,0,P|212:356|192:356,1,63.7500024318696
144,296,10720,2,0,P|162:255|172:238,1,63.7500024318696
248,227,11015,2,0,B|260:180|240:128|240:128|244:80,1,127.500004863739
300,0,11458,2,0,P|332:64|320:120,2,127.500004863739
117,69,12345,6,0,B|176:80|176:80|244:72,1,127.500004863739
342,166,12788,2,0,B|284:156|284:156|216:164,2,127.500004863739
276,304,13675,2,0,P|275:272|280:240,2,63.7500024318696
360,288,14119,2,0,P|364:319|364:351,1,63.7500024318696
352,204,14414,2,0,P|377:184|404:168,1,63.7500024318696
284,253,14710,6,0,B|248:240|224:224|224:224|188:208|144:224,1,127.500004863739
184,292,15153,2,0,L|195:156,1,127.500004863739
96,24,15744,1,0,0:0:0:0:
96,24,15892,2,0,L|107:151,1,127.500004863739
96,228,16335,2,0,P|160:208|184:156,1,127.500004863739
292,52,16926,1,0,0:0:0:0:
292,52,17074,6,0,B|372:32|344:80|440:52,1,127.500004863739
468,116,17518,2,0,B|476:164|468:216|468:216|460:188,2,127.500004863739
144,108,18552,2,0,P|148:144|140:180,1,63.7500024318696
108,244,18848,2,0,L|88:288,4,31.8750012159348
108,244,19439,6,0,P|152:248|192:244,1,63.7500024318696,4|0,0:0|0:0,0:0:0:0:
232,296,19734,2,0,P|276:292|316:296,1,63.7500024318696
363,256,20030,2,0,P|372:284|368:317,2,63.7500024318696
440,344,20473,2,0,P|448:272|424:200,1,127.500004863739
308,184,20917,2,0,L|240:189,1,63.7500024318696
144,228,21212,2,0,L|172:166,1,63.7500024318696
187,63,21508,1,0,0:0:0:0:
187,63,21803,6,0,P|192:104|188:136,1,63.7500024318696
272,28,22099,2,0,L|272:104,1,63.7500024318696
356,60,22394,2,0,P|351:101|355:133,1,63.7500024318696
436,96,22690,1,0,0:0:0:0:
456,212,22838,2,0,B|424:200|424:200|376:224|320:216,1,127.500004863739
212,152,23281,2,0,P|248:152|284:160,1,63.7500024318696
268,304,23577,2,0,P|232:304|196:296,1,63.7500024318696
240,232,23872,1,0,0:0:0:0:
240,232,24168,6,0,L|168:225,1,63.7500024318696
108,160,24463,1,0,0:0:0:0:
108,160,24611,1,0,0:0:0:0:
64,220,24759,1,0,0:0:0:0:
64,220,24907,1,0,0:0:0:0:
93,288,25055,1,0,0:0:0:0:
93,288,25202,2,0,P|152:296|220:264,1,127.500004863739
256,204,25646,2,0,L|249:128,1,63.7500024318696
336,84,25941,2,0,L|330:147,1,63.7500024318696
240,48,26237,1,0,0:0:0:0:
108,160,26532,6,0,P|104:208|108:240,1,63.7500024318696
184,148,26828,2,0,P|188:100|184:68,1,63.7500024318696
232,207,27123,1,0,0:0:0:0:
308,195,27271,1,0,0:0:0:0:
356,254,27419,1,0,0:0:0:0:
328,325,27567,6,0,B|286:341|250:318|240:288|240:288|208:304|160:308|128:260|128:260|112:300|72:304,1,297.5,0|8,0:0|0:0,0:0:0:0:
60,232,28897,5,4,0:0:0:0:
60,232,29045,1,0,0:0:0:0:
196,224,29192,2,0,P|204:160|192:92,2,127.500004863739
124,280,29931,1,0,0:0:0:0:
124,280,30079,2,0,P|187:271|250:279,1,127.500004863739
280,208,30522,2,0,P|320:248|312:328,1,127.500004863739
408,360,30966,2,0,P|408:308|416:276,1,63.7500024318696,8|0,0:0|0:0,0:0:0:0:
448,188,31261,6,0,B|460:120|460:120|444:48,1,127.500004863739
372,124,31705,2,0,B|359:181|359:181|371:249,1,127.500004863739
284,144,32148,2,0,P|244:144|208:140,1,63.7500024318696
100,44,32444,2,0,P|156:32|220:88,1,127.500004863739
180,200,32887,2,0,P|124:212|60:156,1,127.500004863739
140,124,33330,1,8,0:0:0:0:
140,124,33626,6,0,B|184:120|184:120|224:132|224:132|268:128,2,127.500004863739
176,200,34365,1,0,0:0:0:0:
176,200,34513,2,0,P|180:244|176:280,1,63.7500024318696
112,312,34808,2,0,P|160:300|240:356,1,127.500004863739
308,348,35252,2,0,P|328:296|320:212,1,127.500004863739
232,148,35695,2,0,L|237:215,1,63.7500024318696,8|0,0:0|0:0,0:0:0:0:
308,112,35990,6,0,P|256:68|176:88,1,127.500004863739
156,192,36434,1,0,0:0:0:0:
312,192,36729,2,0,L|379:186,1,63.7500024318696
452,116,37025,2,0,L|384:110,1,63.7500024318696
320,272,37321,2,0,L|387:266,1,63.7500024318696
460,196,37616,1,0,0:0:0:0:
460,196,37764,2,0,B|468:252|456:296|456:296|464:344,1,127.500004863739,0|8,0:0|0:0,0:0:0:0:
320,352,38355,6,0,B|268:340|268:340|188:352,1,127.500004863739
84,328,38798,2,0,P|64:280|64:244,1,63.7500024318696
136,212,39094,2,0,P|156:164|156:128,1,63.7500024318696
16,116,39389,2,0,P|20:168|80:136,1,127.500004863739
8,248,39833,2,0,P|48:256|128:220,2,127.500004863739,0|0|8,0:0|0:0|0:0,0:0:0:0:
196,172,40720,6,0,P|136:136|77:152,1,127.500004863739
168,112,41163,2,0,P|228:76|286:92,1,127.500004863739
244,240,41754,1,0,0:0:0:0:
244,240,42050,2,0,P|236:204|236:168,2,63.7500024318696
308,296,42493,2,0,P|343:307|374:325,1,63.7500024318696
227,323,42789,2,0,P|199:347|168:365,1,63.7500024318696,8|0,0:0|0:0,0:0:0:0:
28,288,43084,6,0,B|60:280|60:280|132:292|132:292|168:284,1,127.500004863739
124,204,43675,2,0,P|172:188|208:184,1,63.7500024318696
256,216,43971,1,0,0:0:0:0:
340,136,44119,2,0,P|348:72|332:0,1,127.500004863739
268,44,44562,2,0,L|192:37,1,63.7500024318696
376,112,44857,2,0,L|451:105,1,63.7500024318696
268,180,45153,1,0,0:0:0:0:
268,180,45449,6,8,B|248:216|248:216|256:320,2,127.500004863739
392,252,46188,2,0,P|360:240|324:236,1,63.7500024318696
436,328,46483,2,0,P|468:296|456:196,1,127.500004863739
386,188,46926,2,0,L|392:263,1,63.7500024318696
308,140,47222,2,0,L|301:215,1,63.7500024318696
353,290,47518,2,0,P|337:292|322:296,3,31.8750012159348
292,300,47813,6,0,P|232:292|172:300,1,95.6250036478044
160,300,48109,2,0,L|153:224,1,63.7500024318696,8|0,0:0|0:0,0:0:0:0:
92,192,48404,2,0,L|98:116,2,63.7500024318696
160,236,48848,2,0,P|104:272|36:248,2,127.500004863739
220,180,49587,2,0,P|236:216|240:244,1,63.7500024318696,0|8,0:0|0:0,0:0:0:0:
164,100,49882,1,8,0:0:0:0:
164,100,50178,6,0,B|216:92|216:92|280:104,1,95.6250036478044
296,112,50473,2,0,P|308:60|308:28,1,63.7500024318696,8|0,0:0|0:0,0:0:0:0:
388,100,50769,2,0,P|391:131|400:162,2,63.7500024318696
484,164,51212,2,0,P|488:228|480:312,2,127.500004863739
408,240,51951,2,0,L|332:233,1,63.7500024318696,0|8,0:0|0:0,0:0:0:0:
256,308,52247,1,8,0:0:0:0:
256,308,52542,6,0,P|272:248|260:192,2,95.6250036478044
332,352,53133,2,0,L|407:345,1,63.7500024318696
480,240,53429,1,0,0:0:0:0:
480,240,53577,2,0,P|408:240|356:280,2,127.500004863739
372,148,54463,2,0,P|372:180|380:220,2,63.7500024318696
420,88,54907,6,8,P|360:72|308:104,1,127.500004863739
234,218,55498,1,8,0:0:0:0:
234,218,55646,1,0,0:0:0:0:
238,139,55794,1,0,0:0:0:0:
169,174,55941,1,0,0:0:0:0:
169,174,56089,2,0,P|160:112|168:64,1,95.6250036478044
180,44,56385,1,8,0:0:0:0:
236,184,56532,2,0,P|168:172|96:184,1,127.500004863739
0,252,56976,2,0,L|75:245,1,63.7500024318696,8|0,0:0|0:0,0:0:0:0:
136,276,57271,6,0,L|251:286,2,95.6250036478044
84,360,57862,2,0,L|159:353,1,63.7500024318696
232,284,58158,1,0,0:0:0:0:
292,236,58306,2,0,P|308:292|264:352,2,127.500004863739
348,288,59045,2,0,L|419:281,1,63.7500024318696,0|8,0:0|0:0,0:0:0:0:
492,212,59340,2,0,L|420:205,1,63.7500024318696,8|0,0:0|0:0,0:0:0:0:
348,136,59636,6,0,P|404:116|456:136,2,95.6250036478044
276,164,60227,2,0,P|264:112|264:84,1,63.7500024318696
184,108,60522,1,0,0:0:0:0:
184,108,60670,2,0,P|199:56|272:24,2,127.500004863739
104,84,61409,2,0,L|111:167,1,63.7500024318696,0|8,0:0|0:0,0:0:0:0:
180,196,61705,2,0,L|172:279,1,63.7500024318696,8|0,0:0|0:0,0:0:0:0:
104,292,62000,6,0,P|168:284|224:328,1,127.500004863739
296,260,62444,1,0,0:0:0:0:
296,260,62591,2,0,P|304:300|304:336,1,63.7500024318696
412,224,62887,2,0,P|398:262|380:293,1,63.7500024318696
328,184,63183,6,0,B|312:156|312:156|304:108|328:56,1,127.500004863739
392,132,63626,1,0,0:0:0:0:
328,184,63774,1,0,0:0:0:0:
250,154,63922,1,0,0:0:0:0:
236,72,64069,1,0,0:0:0:0:
158,42,64217,1,0,0:0:0:0:
94,94,64365,6,0,L|101:181,2,63.7500024318696
250,154,64808,2,0,L|244:217,2,63.7500024318696
202,46,65252,1,0,0:0:0:0:
142,202,65547,2,0,L|138:166,7,31.8750012159348
142,202,66138,5,0,0:0:0:0:
200,304,66286,1,0,0:0:0:0:
200,304,66582,6,0,B|224:336|224:336|292:360|352:320,1,170,4|0,0:0|0:0,0:0:0:0:
416,248,67025,2,0,P|424:200|416:156,1,85,8|0,0:0|0:0,0:0:0:0:
320,128,67321,1,0,0:0:0:0:
320,128,67468,1,0,0:0:0:0:
260,208,67616,2,0,L|359:199,1,85,8|0,0:0|0:0,0:0:0:0:
232,128,67912,2,0,L|132:119,2,85,0|0|8,0:0|0:0|0:0,0:0:0:0:
320,128,68355,2,0,P|324:180|320:216,1,85
396,84,68651,2,0,P|425:127|440:160,1,85,0|8,0:0|0:0,0:0:0:0:
400,252,68946,6,0,B|360:276|312:260|312:260|264:240|208:256,1,170
252,352,69389,2,0,P|264:312|260:252,1,85,8|0,0:0|0:0,0:0:0:0:
192,196,69685,1,0,0:0:0:0:
192,196,69833,1,0,0:0:0:0:
124,128,69981,2,0,P|164:108|244:124,1,127.5,8|0,0:0|0:0,0:0:0:0:
272,156,70276,2,0,B|283:20|283:20|256:58,1,170
352,100,70720,2,0,L|360:8,1,85
188,112,71015,2,0,L|195:196,1,85
288,236,71311,6,0,P|204:228|120:268,1,170
48,196,71754,2,0,P|40:144|48:96,1,85,8|0,0:0|0:0,0:0:0:0:
156,72,72050,2,0,P|141:111|117:146,2,85,0|0|8,0:0|0:0|0:0,0:0:0:0:
240,104,72493,6,0,B|308:112|368:100|368:100|324:92,1,170
436,148,72936,2,0,P|444:92|440:52,1,85,8|0,0:0|0:0,0:0:0:0:
364,180,73232,2,0,P|356:236|360:276,2,85,0|0|8,0:0|0:0|0:0,0:0:0:0:
484,280,73675,6,0,B|428:272|428:272|360:288|360:288|300:280,1,170
232,228,74119,2,0,P|272:208|312:208,1,85,8|0,0:0|0:0,0:0:0:0:
292,308,74414,1,0,0:0:0:0:
144,264,74562,2,0,P|140:216|161:169,1,85
220,132,74857,6,0,L|395:147,1,170,8|0,0:0|0:0,0:0:0:0:
316,220,75301,1,0,0:0:0:0:
316,220,75449,1,0,0:0:0:0:
232,280,75596,1,0,0:0:0:0:
220,132,75744,1,0,0:0:0:0:
220,132,76040,6,0,P|160:96|60:144,1,170,4|0,0:0|0:0,0:0:0:0:
76,228,76483,2,0,P|124:208|148:164,1,85,8|0,0:0|0:0,0:0:0:0:
216,216,76779,2,0,P|242:248|282:261,1,85
376,184,77074,2,0,B|332:176|332:176|292:184,1,85,8|0,0:0|0:0,0:0:0:0:
248,276,77370,2,0,L|256:367,2,85,0|0|8,0:0|0:0|0:0,0:0:0:0:
160,220,77813,2,0,P|224:180|324:212,1,170
384,272,78256,1,8,0:0:0:0:
384,272,78404,6,0,B|404:232|404:232|400:96,1,170
336,52,78848,2,0,P|316:96|324:144,1,85,8|0,0:0|0:0,0:0:0:0:
240,134,79143,2,0,P|245:161|286:203,2,85,0|0|8,0:0|0:0|0:0,0:0:0:0:
172,44,79587,2,0,B|120:32|120:32|48:48|48:48|0:40,1,170
120,116,80030,2,0,L|127:203,1,85,8|0,0:0|0:0,0:0:0:0:
40,252,80325,2,0,L|47:167,1,85
128,204,80621,1,8,0:0:0:0:
128,204,80769,6,0,P|208:220|296:172,1,170
212,256,81212,2,0,P|208:300|212:344,1,85,8|0,0:0|0:0,0:0:0:0:
304,296,81508,1,0,0:0:0:0:
304,296,81656,1,0,0:0:0:0:
396,336,81803,1,8,0:0:0:0:
396,336,81951,6,0,L|411:160,1,170
328,224,82394,2,0,P|280:232|232:224,1,85,8|0,0:0|0:0,0:0:0:0:
172,156,82690,2,0,P|220:148|268:156,1,85
124,232,82986,1,8,0:0:0:0:
124,232,83133,6,0,P|84:176|116:84,1,170
208,48,83577,1,8,0:0:0:0:
225,146,83724,1,0,0:0:0:0:
318,111,83872,1,8,0:0:0:0:
301,209,84020,2,0,P|256:232|212:240,1,85,0|8,0:0|0:0,0:0:0:0:
124,264,84316,6,0,B|168:256|204:272|204:272|232:316|296:312,1,170
364,224,84759,2,0,L|276:231,1,85,8|0,0:0|0:0,0:0:0:0:
152,340,85055,1,0,0:0:0:0:
152,340,85202,2,0,P|127:294|122:236,1,85
132,168,85498,6,0,B|216:184|216:184|300:172,1,170
380,108,85941,2,0,P|388:60|384:12,1,85
288,60,86237,2,0,L|288:104,6,42.5
284,60,86976,5,0,0:0:0:0:
216,184,87123,1,0,0:0:0:0:
216,184,87419,6,0,P|224:140|220:104,2,63.7500024318696
132,168,87862,2,0,B|122:189|125:238|161:276|196:296|259:287|283:252|295:237|310:201|302:177|302:177|337:197|368:190|368:190|390:207,1,382.5
