osu file format v14

[General]
AudioFilename: PingPong.mp3
AudioLeadIn: 0
PreviewTime: 66138
Countdown: 0
SampleSet: Normal
StackLeniency: 0.7
Mode: 0
LetterboxInBreaks: 0
WidescreenStoryboard: 0

[Editor]
DistanceSpacing: 1.2
BeatDivisor: 4
GridSize: 4
TimelineZoom: 2.5

[Metadata]
Title:Shakunetsu Switch
TitleUnicode:灼熱スイッチ
Artist:Suzumegahara Chuugaku Takkyuu-bu
ArtistUnicode:Suzumegahara Chuugaku Takkyuu-bu
Creator:kayiedee
Version:Extra
Source:灼熱の卓球娘
Tags:Scorching Ping Pong Girls Yumiri Hanamori Minami Tanaka Ayaka Imamura Hisako Tojo Marika Kouno Yuuki Kuwahara
BeatmapID:1163281
BeatmapSetID:549316

[Difficulty]
HPDrainRate:8
CircleSize:4.2
OverallDifficulty:8.3
ApproachRate:9.2
SliderMultiplier:2
SliderTickRate:1

[Events]
//Background and Video events
0,0,"Bg Shakunetsu switch.jpg",0,0
//Break Periods
//Storyboard Layer 0 (Background)
//Storyboard Layer 1 (Fail)
//Storyboard Layer 2 (Pass)
//Storyboard Layer 3 (Foreground)
//Storyboard Sound Samples

[TimingPoints]
523,295.566502463054,4,1,0,40,1,0
523,-133.333333333333,4,1,0,20,0,0
19439,-133.333333333333,4,1,0,40,0,0
27567,-200,4,1,0,40,0,0
28897,-133.333333333333,4,1,0,40,0,0
66582,-100,4,1,0,40,0,1
75596,-100,4,1,0,40,0,0
76040,-100,4,1,0,40,0,1
87123,-133.333333333333,4,1,0,40,0,0
87862,-200,4,1,0,40,0,0
88010,-200,4,1,0,30,0,0
88306,-200,4,1,0,20,0,0
88601,-200,4,1,0,10,0,0

[Colours]
Combo1 : 237,234,157
Combo2 : 207,178,232
Combo3 : 148,197,237
Combo4 : 205,81,92
Combo5 : 99,105,101
Combo6 : 241,182,214

[HitObjects]
456,128,523,5,0,0:0:0:0:
389,185,670,1,0,0:0:0:0:
359,267,818,6,0,P|348:312|344:352,1,75.0000028610231
280,192,1114,2,0,P|270:155|265:118,1,75.0000028610231
255,298,1409,2,0,P|208:296|164:292,1,75.0000028610231
48,244,1705,2,0,P|40:288|48:336,2,75.0000028610231
96,168,2148,2,0,P|112:96|88:20,1,150.000005722046
84,192,2591,2,0,L|176:184,1,75.0000028610231
268,120,2887,6,0,P|336:84|416:104,1,150.000005722046
464,196,3330,2,0,L|456:283,1,75.0000028610231
352,192,3626,1,0,0:0:0:0:
420,56,3774,2,0,L|412:143,1,75.0000028610231
372,272,4069,6,0,B|324:280|288:244|288:244|256:228|208:244,1,150.000005722046
232,384,4513,2,0,P|248:336|252:304,1,75.0000028610231
140,260,4808,1,0,0:0:0:0:
328,352,4956,2,0,L|420:344,1,75.0000028610231
332,152,5252,6,0,B|324:188|324:188|336:236|324:268|324:268|312:228,1,150.000005722046
404,192,5695,1,0,0:0:0:0:
244,212,5843,1,0,0:0:0:0:
400,212,5990,1,0,0:0:0:0:
240,232,6138,2,0,P|232:192|240:144,1,75.0000028610231
124,272,6434,2,0,B|172:264|172:264|288:276,1,150.000005722046
312,352,6877,2,0,P|284:360|236:348,1,75.0000028610231
124,188,7173,1,0,0:0:0:0:
172,344,7321,1,0,0:0:0:0:
240,232,7468,1,0,0:0:0:0:
240,232,7616,6,0,B|253:76,1,150.000005722046
328,36,8059,2,0,P|376:28|416:40,1,75.0000028610231
364,108,8355,1,0,0:0:0:0:
208,124,8503,2,0,L|112:132,1,75.0000028610231
356,124,8798,5,0,0:0:0:0:
200,140,8946,2,0,L|104:148,1,75.0000028610231
348,140,9241,5,0,0:0:0:0:
192,156,9389,2,0,P|180:200|184:240,1,75.0000028610231
156,60,9685,2,0,P|123:27|87:11,1,75.0000028610231
288,120,9981,6,0,P|372:132|452:120,1,150.000005722046
280,24,10424,2,0,P|280:64|284:104,1,75.0000028610231
340,168,10720,1,0,0:0:0:0:
420,256,10867,2,0,P|423:218|423:181,1,75.0000028610231
340,308,11163,6,0,B|376:328|376:328|440:332|484:308,1,150.000005722046
256,264,11606,2,0,P|248:308|256:352,2,75.0000028610231
188,208,12050,2,0,P|168:248|165:293,1,75.0000028610231
44,336,12345,6,0,B|92:320|132:344|132:344|176:364|212:332,1,150.000005722046
95,197,12789,2,0,P|110:163|136:136,1,75.0000028610231
261,212,13084,2,0,P|223:215|187:207,1,75.0000028610231
191,61,13380,5,0,0:0:0:0:
286,199,13527,1,0,0:0:0:0:
286,199,13675,2,0,L|292:119,1,75.0000028610231
267,23,13971,1,0,0:0:0:0:
368,144,14119,2,0,L|362:64,1,75.0000028610231
428,256,14414,2,0,L|434:176,1,75.0000028610231
368,348,14710,6,0,B|404:328|404:328|456:356|516:348,1,150.000005722046
292,273,15153,2,0,L|284:189,1,75.0000028610231
368,348,15449,1,0,0:0:0:0:
368,144,15596,2,0,P|328:128|284:124,1,75.0000028610231
132,192,15892,6,0,B|156:216|156:216|220:232|288:200,1,150.000005722046
76,256,16335,2,0,P|72:296|76:340,1,75.0000028610231
200,140,16631,2,0,P|204:100|200:56,1,75.0000028610231
72,256,16926,1,0,0:0:0:0:
224,284,17074,2,0,B|308:320|304:264|392:292,1,150.000005722046
280,136,17518,2,0,P|272:188|272:220,1,75.0000028610231
372,104,17813,2,0,P|370:66|363:29,1,75.0000028610231
152,200,18109,2,0,P|208:216|276:152,1,150.000005722046
200,140,18552,1,0,0:0:0:0:
224,284,18700,1,0,0:0:0:0:
343,235,18848,1,0,0:0:0:0:
345,206,18921,1,0,0:0:0:0:
347,178,18995,1,0,0:0:0:0:
350,150,19069,1,0,0:0:0:0:
352,122,19143,1,0,0:0:0:0:
352,122,19439,6,0,L|358:197,1,75.0000028610231
272,172,19734,2,0,L|278:247,1,75.0000028610231
191,221,20030,2,0,L|197:296,2,75.0000028610231
128,336,20473,6,0,P|212:372|272:324,1,150.000005722046
156,192,20917,1,0,0:0:0:0:
196,295,21064,1,0,0:0:0:0:
364,192,21212,1,0,0:0:0:0:
257,346,21359,1,0,0:0:0:0:
207,150,21508,1,0,0:0:0:0:
207,150,21803,6,0,L|127:156,1,75.0000028610231
248,224,22099,2,0,L|327:230,1,75.0000028610231
166,76,22394,2,0,L|86:82,2,75.0000028610231
288,144,22838,6,0,B|304:84|284:28|284:28|276:60,1,150.000005722046
248,224,23281,1,0,0:0:0:0:
164,76,23429,1,0,0:0:0:0:
78,223,23577,1,0,0:0:0:0:
288,144,23725,1,0,0:0:0:0:
66,70,23872,1,0,0:0:0:0:
66,70,24168,6,0,L|113:153,1,75.0000028610231
192,112,24463,2,0,L|192:200,1,75.0000028610231
280,212,24759,2,0,L|232:295,1,75.0000028610231
152,260,25055,1,0,0:0:0:0:
20,212,25202,6,0,B|44:188|44:188|104:196|144:244,1,150.000005722046
48,368,25646,1,0,0:0:0:0:
100,208,25793,1,0,0:0:0:0:
296,276,25941,1,0,0:0:0:0:
128,340,26089,1,0,0:0:0:0:
192,112,26237,1,0,0:0:0:0:
192,112,26532,6,0,P|224:140|240:184,1,75.0000028610231
256,368,26828,2,0,P|224:340|208:296,1,75.0000028610231
352,208,27123,2,0,P|324:240|280:256,1,75.0000028610231
96,272,27419,1,0,0:0:0:0:
280,176,27567,6,0,B|304:120|388:104|432:156|432:212|432:212|464:200|464:200|488:260|464:304,1,350,0|8,0:0|0:0,0:0:0:0:
468,294,28897,5,0,0:0:0:0:
352,208,29045,1,0,0:0:0:0:
449,68,29192,1,0,0:0:0:0:
432,212,29340,1,0,0:0:0:0:
315,125,29488,2,0,P|360:120|407:121,1,75.0000028610231
392,288,29784,2,0,P|347:293|300:292,1,75.0000028610231
228,176,30079,6,0,P|284:156|352:208,1,150.000005722046
432,328,30522,2,0,B|440:288|440:288|432:244,2,75.0000028610231
280,228,30966,1,8,0:0:0:0:
424,172,31114,1,0,0:0:0:0:
352,288,31261,2,0,P|248:276|188:276,1,150.000005722046
92,148,31705,2,0,P|83:190|79:226,1,75.0000028610231
176,204,32000,1,0,0:0:0:0:
104,68,32148,2,0,L|12:76,1,75.0000028610231
204,208,32444,6,0,L|295:216,1,75.0000028610231
92,148,32739,1,0,0:0:0:0:
156,364,32887,2,0,L|164:280,1,75.0000028610231
54,276,33183,1,0,0:0:0:0:
256,356,33330,2,0,P|304:348|348:356,1,75.0000028610231,8|0,0:0|0:0,0:0:0:0:
340,268,33626,6,0,B|388:280|412:312|412:352|412:352|424:300,1,150.000005722046
448,192,34069,1,0,0:0:0:0:
256,276,34217,2,0,L|176:282,1,75.0000028610231
373,185,34513,2,0,L|452:191,1,75.0000028610231
184,248,34808,6,0,P|164:184|188:108,1,150.000005722046
192,264,35252,2,0,P|208:312|204:352,2,75.0000028610231
100,100,35695,2,0,B|140:96|140:96|188:104,1,75.0000028610231,8|0,0:0|0:0,0:0:0:0:
220,186,35990,6,0,L|206:337,1,150.000005722046
132,224,36434,1,0,0:0:0:0:
296,324,36582,1,0,0:0:0:0:
104,320,36729,6,0,P|92:264|92:232,1,75.0000028610231
240,128,37025,2,0,P|252:184|252:216,1,75.0000028610231
180,256,37321,6,0,P|168:200|168:168,1,75.0000028610231
316,64,37616,1,0,0:0:0:0:
252,220,37764,2,0,L|342:235,1,75.0000028610231
448,100,38059,2,0,P|408:140|400:176,1,75.0000028610231,8|0,0:0|0:0,0:0:0:0:
480,320,38355,6,0,B|472:276|472:276|488:216|488:216|480:172,1,150.000005722046
400,216,38798,1,0,0:0:0:0:
408,356,38946,1,0,0:0:0:0:
260,224,39094,1,0,0:0:0:0:
268,364,39242,2,0,P|284:320|280:272,1,75.0000028610231
104,312,39537,6,0,P|164:344|192:280,1,150.000005722046
52,121,39981,1,0,0:0:0:0:
148,296,40128,1,0,0:0:0:0:
208,196,40276,1,0,0:0:0:0:
33,292,40423,1,0,0:0:0:0:
148,296,40720,6,0,P|160:224|160:144,1,150.000005722046
76,132,41163,2,0,P|112:136|152:124,1,75.0000028610231
292,16,41458,2,0,P|256:5|219:9,1,75.0000028610231
376,148,41754,6,0,B|396:84|384:28|384:28|380:52|368:68,1,150.000005722046
336,220,42197,1,0,0:0:0:0:
464,140,42345,1,0,0:0:0:0:
248,68,42493,2,0,L|168:64,1,75.0000028610231
336,220,42789,1,8,0:0:0:0:
360,69,42936,1,0,0:0:0:0:
412,252,43084,6,0,P|364:300|280:276,1,150.000005722046
216,336,43527,1,0,0:0:0:0:
342,145,43675,2,0,L|335:224,1,75.0000028610231
216,336,43971,1,0,0:0:0:0:
192,212,44119,2,0,P|272:200|336:220,1,150.000005722046
144,288,44562,2,0,L|64:284,1,75.0000028610231
192,212,44857,1,0,0:0:0:0:
216,336,45005,1,0,0:0:0:0:
93,160,45153,1,0,0:0:0:0:
69,284,45301,1,0,0:0:0:0:
260,160,45449,6,8,P|216:128|120:164,2,150.000005722046
19,210,46188,1,0,0:0:0:0:
192,212,46335,1,0,0:0:0:0:
103,360,46483,6,0,B|92:320|92:320|112:200,1,150.000005722046
172,312,46926,1,0,0:0:0:0:
19,210,47074,1,0,0:0:0:0:
204,156,47222,1,0,0:0:0:0:
202,183,47295,1,0,0:0:0:0:
192,210,47369,1,0,0:0:0:0:
175,232,47443,1,0,0:0:0:0:
152,248,47518,6,0,B|72:252|72:252|40:228,1,112.500004291535
19,210,47813,6,0,P|12:132|16:96,1,112.500004291535
28,76,48109,1,8,0:0:0:0:
128,172,48256,1,0,0:0:0:0:
109,173,48329,1,0,0:0:0:0:
90,174,48403,1,0,0:0:0:0:
164,28,48552,1,0,0:0:0:0:
204,184,48700,1,0,0:0:0:0:
348,100,48848,6,0,L|256:108,1,75.0000028610231
249,109,49069,1,0,0:0:0:0:
230,110,49143,1,0,0:0:0:0:
316,224,49291,1,0,0:0:0:0:
356,68,49439,1,0,0:0:0:0:
204,184,49587,1,0,0:0:0:0:
352,188,49734,2,0,L|308:191,1,37.5000014305115,8|0,0:0|0:0,0:0:0:0:
192,200,49882,1,8,0:0:0:0:
183,226,49955,1,0,0:0:0:0:
180,254,50029,1,0,0:0:0:0:
181,282,50103,1,0,0:0:0:0:
186,310,50178,6,0,L|301:299,1,112.500004291535
324,336,50473,2,0,L|407:343,1,75.0000028610231,8|0,0:0|0:0,0:0:0:0:
484,252,50769,2,0,L|440:249,1,37.5000014305115
324,240,50917,1,0,0:0:0:0:
484,324,51064,2,0,L|440:327,1,37.5000014305115
324,336,51212,6,0,P|256:324|172:380,2,150.000005722046
344,352,51877,1,0,0:0:0:0:
344,352,51951,1,0,0:0:0:0:
175,297,52099,1,8,0:0:0:0:
284,187,52247,1,8,0:0:0:0:
310,178,52320,1,0,0:0:0:0:
338,176,52394,1,0,0:0:0:0:
366,180,52468,1,0,0:0:0:0:
392,192,52542,6,0,L|382:304,1,112.500004291535
404,324,52838,1,8,0:0:0:0:
440,96,52986,1,0,0:0:0:0:
336,248,53133,2,0,L|332:204,1,37.5000014305115
256,100,53281,2,0,L|252:143,1,37.5000014305115
344,260,53429,2,0,L|340:216,1,37.5000014305115
248,88,53577,6,0,L|160:80,1,75.0000028610231
0,160,53872,2,0,L|88:152,1,75.0000028610231
96,152,54094,1,0,0:0:0:0:
96,152,54168,1,0,0:0:0:0:
248,232,54316,2,0,L|250:188,1,37.5000014305115
259,72,54464,1,0,0:0:0:0:
112,224,54611,2,0,L|151:204,1,37.5000014305115
256,153,54759,1,0,0:0:0:0:
92,64,54907,6,8,B|84:116|104:148|104:148|100:180|100:180|108:216,2,150.000005722046
172,96,55646,2,0,L|180:136,1,37.5000014305115
24,164,55793,2,0,L|16:200,1,37.5000014305115
172,232,55941,2,0,L|180:272,1,37.5000014305115
60,328,56089,6,0,B|104:312|152:340|152:340|192:352|224:332,1,150.000005722046,0|8,0:0|0:0,0:0:0:0:
222,178,56532,2,0,P|190:202|170:234,1,75.0000028610231
292,384,56828,2,0,L|294:340,1,37.5000014305115
300,176,56976,1,8,0:0:0:0:
180,268,57123,1,0,0:0:0:0:
384,180,57271,6,0,P|368:128|300:96,1,112.500004291535
280,116,57567,2,0,L|188:108,1,75.0000028610231,8|0,0:0|0:0,0:0:0:0:
55,68,57862,2,0,P|48:104|48:124,1,37.5000014305115
140,192,58010,2,0,P|137:173|132:155,1,37.5000014305115
216,64,58158,2,0,P|209:100|209:120,1,37.5000014305115
360,92,58306,6,0,P|296:40|224:56,2,150.000005722046
368,112,58971,1,0,0:0:0:0:
368,112,59045,1,0,0:0:0:0:
148,200,59192,2,0,P|172:200|196:208,1,37.5000014305115
272,261,59340,1,8,0:0:0:0:
262,224,59413,1,0,0:0:0:0:
260,187,59487,1,0,0:0:0:0:
266,150,59561,1,0,0:0:0:0:
280,112,59636,6,0,P|332:88|388:104,1,112.500004291535
412,128,59931,2,0,L|507:119,1,75.0000028610231
272,261,60227,1,0,0:0:0:0:
380,104,60375,1,0,0:0:0:0:
384,294,60522,1,0,0:0:0:0:
276,137,60670,5,0,0:0:0:0:
271,327,60818,2,0,L|275:271,2,37.5000014305115
204,148,61114,5,0,0:0:0:0:
196,336,61261,2,0,L|200:280,2,37.5000014305115
132,159,61557,5,8,0:0:0:0:
65,300,61705,1,8,0:0:0:0:
97,317,61778,1,0,0:0:0:0:
134,324,61852,1,0,0:0:0:0:
171,317,61926,1,0,0:0:0:0:
204,300,62000,6,0,B|216:232|200:184|200:184|192:228,1,150.000005722046
192,376,62444,1,0,0:0:0:0:
276,184,62591,1,0,0:0:0:0:
84,184,62739,1,0,0:0:0:0:
276,268,62886,1,0,0:0:0:0:
276,76,63036,1,0,0:0:0:0:
192,268,63183,6,0,P|208:316|312:344,1,150.000005722046
360,76,63626,1,0,0:0:0:0:
276,268,63774,1,0,0:0:0:0:
440,116,63922,1,0,0:0:0:0:
232,140,64070,1,0,0:0:0:0:
357,309,64217,1,0,0:0:0:0:
360,76,64365,5,0,0:0:0:0:
244,264,64513,2,0,L|156:256,1,75.0000028610231
368,56,64808,5,0,0:0:0:0:
392,308,64956,2,0,L|479:300,1,75.0000028610231
376,36,65252,5,0,0:0:0:0:
106,282,65547,5,0,0:0:0:0:
135,304,65620,1,0,0:0:0:0:
172,309,65694,1,0,0:0:0:0:
205,294,65768,1,0,0:0:0:0:
227,263,65842,5,0,0:0:0:0:
270,229,65916,1,0,0:0:0:0:
325,226,65990,1,0,0:0:0:0:
372,256,66064,1,0,0:0:0:0:
392,308,66138,5,0,0:0:0:0:
184,122,66286,1,0,0:0:0:0:
304,306,66582,6,0,B|316:234|316:234|300:166|300:166|312:94,1,200
140,236,67025,2,0,P|192:248|240:236,1,100,8|0,0:0|0:0,0:0:0:0:
408,64,67321,1,0,0:0:0:0:
232,140,67468,1,0,0:0:0:0:
388,164,67616,2,0,L|491:154,1,100
288,252,67912,5,0,0:0:0:0:
356,128,68059,1,0,0:0:0:0:
216,228,68207,1,0,0:0:0:0:
237,88,68354,1,0,0:0:0:0:
140,230,68504,1,0,0:0:0:0:
111,91,68651,1,0,0:0:0:0:
69,257,68798,1,0,0:0:0:0:
272,172,68946,6,0,B|204:132|156:180|156:180|124:144|80:144,1,200
207,327,69389,2,0,L|216:215,1,100,8|0,0:0|0:0,0:0:0:0:
52,48,69685,2,0,L|61:159,1,100
268,84,69981,2,0,P|208:76|144:96,1,100,8|0,0:0|0:0,0:0:0:0:
316,268,70276,6,0,B|352:280|352:280|432:276,2,100
216,156,70720,1,0,0:0:0:0:
208,324,70867,1,0,0:0:0:0:
304,76,71015,1,0,0:0:0:0:
312,244,71163,1,0,0:0:0:0:
44,133,71311,6,0,P|132:101|220:165,1,200
172,304,71754,2,0,P|152:256|148:192,1,100,8|0,0:0|0:0,0:0:0:0:
296,72,72050,1,0,0:0:0:0:
256,192,72197,1,0,0:0:0:0:
172,97,72345,1,8,0:0:0:0:
380,167,72493,6,0,B|392:236|392:236|376:324|376:324|364:268,1,200
444,96,72936,2,0,L|464:200,1,100,8|0,0:0|0:0,0:0:0:0:
308,384,73232,2,0,L|288:280,2,100,0|0|8,0:0|0:0|0:0,0:0:0:0:
136,264,73675,6,0,P|224:284|304:196,1,200
260,40,74119,2,0,P|252:92|268:144,1,100,8|0,0:0|0:0,0:0:0:0:
452,76,74414,2,0,L|352:84,1,100
260,136,74710,1,8,0:0:0:0:
208,207,74857,6,0,B|152:188|152:188|12:176,1,200
136,264,75301,1,8,0:0:0:0:
260,136,75449,1,0,0:0:0:0:
88,93,75596,5,0,0:0:0:0:
160,356,75744,1,0,0:0:0:0:
160,356,76040,6,0,B|176:284|176:284|164:216|164:216|172:152,1,200
312,132,76483,2,0,P|286:174|249:211,1,100,8|0,0:0|0:0,0:0:0:0:
96,280,76779,1,0,0:0:0:0:
88,96,76926,1,0,0:0:0:0:
251,210,77074,2,0,L|354:200,1,100,8|0,0:0|0:0,0:0:0:0:
448,44,77370,6,0,B|408:80|408:80|392:132,2,100
256,0,77813,2,0,P|252:64|256:112,1,100
436,252,78109,2,0,P|382:216|339:196,1,100
127,281,78404,6,0,P|244:232|260:160,1,200
40,236,78848,2,0,B|28:268|28:268|36:348,1,100,8|0,0:0|0:0,0:0:0:0:
256,384,79143,1,0,0:0:0:0:
148,172,79291,1,0,0:0:0:0:
112,360,79439,1,8,0:0:0:0:
224,132,79587,6,0,B|172:68|99:104|99:104|56:104|23:68,1,200
124,268,80030,2,0,P|143:215|147:163,1,100
296,40,80325,1,0,0:0:0:0:
404,252,80473,1,0,0:0:0:0:
244,200,80621,1,0,0:0:0:0:
456,92,80769,6,0,B|484:168|468:244|468:244|420:288,1,200
243,200,81212,2,0,P|194:195|144:198,1,100,8|0,0:0|0:0,0:0:0:0:
396,204,81508,2,0,P|388:136|372:88,1,100
188,248,81803,1,8,0:0:0:0:
368,324,81951,6,0,B|256:312|256:312|212:332|212:332|152:332,1,200
136,88,82394,1,8,0:0:0:0:
188,248,82542,1,0,0:0:0:0:
23,213,82690,1,0,0:0:0:0:
242,142,82838,1,0,0:0:0:0:
193,367,82986,1,8,0:0:0:0:
248,120,83133,6,0,P|248:72|180:132,1,200
484,212,83577,5,8,0:0:0:0:
259,262,83725,1,0,0:0:0:0:
468,136,83872,5,8,0:0:0:0:
238,147,84020,1,0,0:0:0:0:
466,59,84168,5,8,0:0:0:0:
307,65,84316,2,0,P|355:129|474:132,1,200
238,147,84759,2,0,P|280:200|328:232,1,100,8|0,0:0|0:0,0:0:0:0:
136,328,85055,2,0,P|165:287|203:255,1,100
380,172,85350,1,8,0:0:0:0:
428,332,85498,6,0,B|372:300|312:336|312:336|272:360|220:344,1,200
252,168,85941,2,0,P|260:260|260:284,1,100,8|0,0:0|0:0,0:0:0:0:
52,206,86237,1,0,0:0:0:0:
85,169,86310,1,0,0:0:0:0:
131,150,86384,1,0,0:0:0:0:
180,153,86458,1,0,0:0:0:0:
224,178,86532,1,0,0:0:0:0:
252,218,86606,1,0,0:0:0:0:
260,267,86680,1,0,0:0:0:0:
52,220,86976,5,0,0:0:0:0:
260,281,87123,1,0,0:0:0:0:
180,153,87419,6,0,P|172:196|180:240,2,75.0000028610231
256,192,87862,6,0,B|304:192|344:160|336:100|336:100|360:148|412:156|452:120|452:120|424:184|416:244|448:304,1,450
