osu file format v14

[General]
AudioFilename: PingPong.mp3
AudioLeadIn: 0
PreviewTime: 66138
Countdown: 0
SampleSet: Normal
StackLeniency: 0.7
Mode: 0
LetterboxInBreaks: 0
WidescreenStoryboard: 0

[Editor]
DistanceSpacing: 0.8
BeatDivisor: 4
GridSize: 4
TimelineZoom: 1.6

[Metadata]
Title:Shakunetsu Switch
TitleUnicode:灼熱スイッチ
Artist:Suzumegahara Chuugaku Takkyuu-bu
ArtistUnicode:Suzumegahara Chuugaku Takkyuu-bu
Creator:kayiedee
Version:Advanced
Source:灼熱の卓球娘
Tags:Scorching Ping Pong Girls Yumiri Hanamori Minami Tanaka Ayaka Imamura Hisako Tojo Marika Kouno Yuuki Kuwahara
BeatmapID:1163928
BeatmapSetID:549316

[Difficulty]
HPDrainRate:5
CircleSize:3.2
OverallDifficulty:4.5
ApproachRate:5
SliderMultiplier:1.1
SliderTickRate:1

[Events]
//Background and Video events
0,0,"Bg Shakunetsu switch.jpg",0,0
//Break Periods
//Storyboard Layer 0 (Background)
//Storyboard Layer 1 (Fail)
//Storyboard Layer 2 (Pass)
//Storyboard Layer 3 (Foreground)
//Storyboard Sound Samples

[TimingPoints]
523,295.566502463054,4,1,0,20,1,0
19439,-100,4,1,0,40,0,0
66582,-100,4,1,0,40,0,1
75596,-100,4,1,0,40,0,0
76040,-100,4,1,0,40,0,1
87123,-100,4,1,0,40,0,0
87862,-133.333333333333,4,1,0,40,0,0
88010,-133.333333333333,4,1,0,30,0,0
88306,-133.333333333333,4,1,0,20,0,0
88601,-133.333333333333,4,1,0,10,0,0

[Colours]
Combo1 : 237,234,157
Combo2 : 207,179,232
Combo3 : 144,197,249
Combo4 : 203,81,92
Combo5 : 99,107,92
Combo6 : 235,178,210

[HitObjects]
52,264,523,5,0,0:0:0:0:
136,292,818,2,0,P|196:284|256:292,2,110
118,205,1705,2,0,P|124:144|120:96,1,110
108,52,2148,2,0,L|223:41,1,110
256,120,2739,5,0,0:0:0:0:
256,120,2887,2,0,P|300:76|304:24,1,110
348,44,3330,2,0,P|392:88|444:92,1,110
480,84,3774,1,0,0:0:0:0:
464,172,4069,2,0,P|460:228|468:292,1,110
480,324,4513,2,0,L|348:335,1,110
328,336,4956,1,0,0:0:0:0:
248,300,5252,5,0,0:0:0:0:
319,248,5547,2,0,P|376:236|432:248,2,110
248,300,6434,2,0,B|192:296|192:296|136:304,1,110
96,308,6877,2,0,L|106:184,1,110
32,148,7468,1,0,0:0:0:0:
32,148,7616,6,0,P|76:176|144:168,1,110
168,148,8059,2,0,L|174:76,2,55
208,168,8503,2,0,L|201:239,2,55
252,160,8946,2,0,L|258:88,2,55
292,176,9389,2,0,P|356:184|408:148,1,110
415,249,9981,1,0,0:0:0:0:
324,248,10276,1,0,0:0:0:0:
324,248,10424,2,0,P|268:240|208:248,2,110
400,356,11458,2,0,P|454:363|508:357,2,110
408,268,12345,2,0,L|418:148,1,110
388,128,12789,2,0,P|352:80|352:32,2,110
256,148,13823,5,0,0:0:0:0:
180,104,14119,2,0,P|124:80|60:84,1,110
40,160,14710,2,0,B|28:216|28:216|36:276,1,110
48,308,15153,2,0,P|104:336|160:312,1,110
184,296,15596,1,0,0:0:0:0:
256,248,15892,6,0,B|316:240|316:240|376:252,1,110
404,264,16335,2,0,P|408:304|396:372,2,110
396,220,17074,2,0,P|392:180|404:112,1,110
420,72,17518,2,0,L|284:83,2,110
208,132,18848,2,0,P|192:80|212:24,1,110
120,28,19439,6,0,P|64:32|0:24,2,110,4|0|0,0:0|0:0|0:0,0:0:0:0:
152,108,20325,1,0,0:0:0:0:
152,108,20473,2,0,L|283:96,1,110
300,124,20917,2,0,L|367:129,1,55
396,112,21212,2,0,P|404:76|404:40,2,55
392,200,21803,6,0,P|456:200|512:184,2,110
308,232,22690,1,0,0:0:0:0:
308,232,22838,2,0,P|296:296|304:352,1,110
260,360,23281,2,0,L|188:353,1,55
172,328,23577,2,0,B|144:328|120:344|120:344|96:328|64:328,2,110
236,268,24463,5,0,0:0:0:0:
152,242,24759,1,0,0:0:0:0:
68,216,25055,1,0,0:0:0:0:
68,216,25202,2,0,B|76:160|76:160|68:96,1,110
56,64,25646,2,0,P|108:68|132:64,1,55
156,64,25941,2,0,L|150:131,2,55
244,64,26532,6,0,L|233:179,2,110
332,64,27419,1,0,0:0:0:0:
332,64,27567,2,0,B|348:128|372:160|412:168|412:168|308:192|308:192|348:200|372:232|388:296,1,385
419,376,28897,6,0,P|366:379|321:349,1,110,4|0,0:0|0:0,0:0:0:0:
272,276,29488,2,0,P|227:245|173:249,1,110
108,188,30079,2,0,B|84:228|84:228|92:356,2,165,0|0|8,0:0|0:0|0:0,0:0:0:0:
192,156,31261,6,0,P|212:100|200:40,1,110
184,12,31705,2,0,L|64:22,1,110
32,24,32148,1,0,0:0:0:0:
56,108,32444,2,0,L|175:118,1,110
208,120,32887,2,0,L|327:109,1,110
360,108,33330,1,8,0:0:0:0:
444,136,33626,6,0,P|444:76|400:28,2,110
376,192,34513,1,0,0:0:0:0:
460,224,34808,2,0,B|472:336|472:336|444:352|404:356,2,165,0|0|8,0:0|0:0|0:0,0:0:0:0:
376,192,35990,6,0,P|300:200|248:196,1,110
224,188,36434,1,0,0:0:0:0:
140,164,36729,2,0,P|128:220|132:276,2,110
68,112,37616,1,0,0:0:0:0:
68,112,37764,2,0,P|56:172|32:220,1,110,0|8,0:0|0:0,0:0:0:0:
100,276,38355,6,0,L|231:264,1,110
244,240,38798,2,0,P|252:180|240:124,2,110
276,324,39685,1,0,0:0:0:0:
276,324,39833,2,0,P|336:316|400:324,1,110
456,268,40424,1,8,0:0:0:0:
375,232,40720,6,0,P|304:228|264:236,1,110
224,248,41163,2,0,B|216:188|216:188|220:136,1,110
136,108,41754,2,0,P|168:64|236:52,1,110
264,56,42197,1,8,0:0:0:0:
219,138,42493,2,0,L|143:131,2,55
308,140,43084,6,0,P|355:112|379:52,1,110
468,80,43675,2,0,L|472:24,2,55
440,164,44266,2,0,B|436:204|436:204|452:276,1,110
364,260,44857,2,0,P|316:252|288:256,1,55
264,256,45153,1,0,0:0:0:0:
176,272,45449,6,8,P|168:204|176:152,2,110,8|0|0,0:0|0:0|0:0,0:0:0:0:
188,316,46188,1,0,0:0:0:0:
100,308,46483,1,0,0:0:0:0:
62,227,46779,1,0,0:0:0:0:
112,154,47074,1,0,0:0:0:0:
112,154,47222,2,0,L|187:160,2,55
74,73,47813,6,0,L|177:63,2,82.5
76,116,48404,2,0,P|84:172|64:240,1,110
112,244,48848,2,0,P|103:298|115:351,2,110
148,220,49587,2,0,L|223:213,1,55,0|8,0:0|0:0,0:0:0:0:
248,212,49882,1,8,0:0:0:0:
316,268,50178,6,0,P|272:296|224:296,2,82.5
328,224,50769,2,0,L|339:92,1,110
312,80,51212,2,0,P|376:80|428:40,2,110
272,60,51951,2,0,P|232:56|212:56,1,55,0|8,0:0|0:0,0:0:0:0:
172,64,52247,1,8,0:0:0:0:
116,132,52542,6,0,P|88:88|88:40,2,82.5
152,156,53133,2,0,P|156:216|140:272,1,110
120,300,53577,2,0,P|180:288|248:312,1,110
304,260,54168,1,0,0:0:0:0:
376,308,54463,2,0,L|376:376,2,55
396,268,54907,6,8,B|404:236|404:236|392:140,2,110
316,228,55793,2,0,P|296:204|284:172,1,55
272,140,56089,2,0,P|212:132|148:140,1,110
124,160,56532,2,0,L|113:44,1,110
248,52,57271,6,0,L|240:134,2,82.5
288,40,57862,2,0,P|356:36|412:56,1,110
432,72,58306,1,0,0:0:0:0:
396,152,58601,1,0,0:0:0:0:
432,232,58897,1,0,0:0:0:0:
432,232,59045,2,0,P|436:272|432:304,2,55,0|8|8,0:0|0:0|0:0,0:0:0:0:
348,260,59636,6,0,L|357:156,2,82.5
344,304,60227,2,0,L|208:315,1,110
192,300,60670,2,0,P|140:312|100:360,2,110
200,256,61409,2,0,L|206:180,1,55,0|8,0:0|0:0,0:0:0:0:
210,157,61705,1,8,0:0:0:0:
260,84,62000,6,0,P|196:72|152:92,1,110
120,116,62444,1,0,0:0:0:0:
120,116,62591,2,0,L|129:227,1,110
140,268,63035,1,0,0:0:0:0:
140,268,63182,2,0,L|251:258,1,110
292,256,63626,1,0,0:0:0:0:
292,256,63774,2,0,P|304:188|288:128,1,110
216,112,64365,6,0,P|272:116|344:84,1,110
364,80,64808,2,0,L|353:203,1,110
352,232,65252,1,0,0:0:0:0:
92,192,66138,5,0,0:0:0:0:
92,192,66286,1,0,0:0:0:0:
20,244,66582,6,0,L|155:232,1,110,4|0,0:0|0:0,0:0:0:0:
156,268,67025,2,0,L|291:279,2,110,8|0|8,0:0|0:0|0:0,0:0:0:0:
112,192,67912,2,0,P|104:136|108:80,1,110
128,44,68355,2,0,B|172:40|172:40|236:68,1,110
256,104,68798,1,0,0:0:0:0:
276,144,68946,6,0,B|336:170|336:170|380:166,1,110
420,148,69389,2,0,B|432:84|392:100|420:16,2,110,8|0|8,0:0|0:0|0:0,0:0:0:0:
408,236,70276,2,0,P|356:212|332:152,1,110
308,128,70720,1,0,0:0:0:0:
248,192,71015,1,0,0:0:0:0:
273,275,71311,6,0,B|217:279|217:279|157:275,1,110
120,272,71754,1,8,0:0:0:0:
92,188,72050,2,0,P|88:136|88:116,2,55,0|0|8,0:0|0:0|0:0,0:0:0:0:
136,180,72493,2,0,B|189:176|189:176|245:180,1,110
288,192,72936,1,8,0:0:0:0:
372,168,73232,2,0,P|376:208|368:236,2,55,0|0|8,0:0|0:0|0:0,0:0:0:0:
392,128,73675,6,0,P|440:84|456:160,1,165,0|8,0:0|0:0,0:0:0:0:
408,224,74414,2,0,L|348:229,1,55
320,260,74710,1,8,0:0:0:0:
320,260,74857,2,0,B|272:232|224:252|224:252|200:284|152:292,1,165,0|8,0:0|0:0,0:0:0:0:
152,200,75596,5,0,0:0:0:0:
152,200,75744,1,0,0:0:0:0:
224,152,76040,6,0,P|172:112|116:116,1,110
88,120,76483,2,0,B|76:84|76:84|84:4,2,110,8|0|8,0:0|0:0|0:0,0:0:0:0:
164,168,77370,2,0,L|169:104,2,55,0|0|8,0:0|0:0|0:0,0:0:0:0:
160,212,77813,2,0,P|100:232|40:232,1,110
32,272,78256,1,8,0:0:0:0:
56,308,78404,6,0,P|110:311|162:329,1,110
200,352,78848,1,8,0:0:0:0:
240,272,79143,2,0,L|224:200,2,55,0|0|8,0:0|0:0|0:0,0:0:0:0:
280,292,79587,2,0,P|352:284|396:248,1,110
408,228,80030,2,0,L|402:168,1,55,8|0,0:0|0:0,0:0:0:0:
400,128,80325,1,0,0:0:0:0:
400,128,80473,1,0,0:0:0:0:
428,44,80769,6,0,B|392:36|392:36|356:36|356:36|320:44,1,110
280,60,81212,2,0,P|248:68|212:72,1,55,8|0,0:0|0:0,0:0:0:0:
184,76,81508,1,0,0:0:0:0:
184,76,81656,1,0,0:0:0:0:
96,60,81951,2,0,P|48:76|40:132,1,110
72,160,82394,2,0,P|76:208|76:232,1,55,8|0,0:0|0:0,0:0:0:0:
52,252,82690,1,0,0:0:0:0:
52,252,82838,1,0,0:0:0:0:
72,336,83133,6,0,B|108:324|108:324|204:336,1,110
224,320,83577,2,0,L|295:326,1,55,8|0,0:0|0:0,0:0:0:0:
320,312,83872,2,0,L|391:318,1,55,8|0,0:0|0:0,0:0:0:0:
420,320,84168,1,8,0:0:0:0:
420,320,84316,2,0,L|408:192,1,110
404,168,84759,1,8,0:0:0:0:
352,96,85055,6,0,P|380:84|416:84,2,55,0|0|8,0:0|0:0|0:0,0:0:0:0:
312,116,85498,2,0,P|216:120|180:120,1,110
160,120,85941,1,8,0:0:0:0:
76,140,86237,2,0,L|72:108,6,27.5
136,204,86976,2,0,P|140:232|140:260,1,55
112,344,87419,6,0,L|52:348,2,55
144,340,87862,6,0,B|188:324|216:300|216:300|232:344|280:324|308:300|308:300|336:332|368:332|404:340|432:296|444:256|432:236,1,371.250014162064
