osu file format v14

[General]
AudioFilename: audio.mp3
AudioLeadIn: 0
PreviewTime: 66191
Countdown: 0
SampleSet: Normal
StackLeniency: 0.7
Mode: 1
LetterboxInBreaks: 0
WidescreenStoryboard: 1

[Editor]
Bookmarks: 675,19591,29049,47965,62152,66734,88161,97620,116537,130724,135305,156734,175650,194566,204024,213335,222793,232251,255896,265354,277177,285601,312793
DistanceSpacing: 2.1
BeatDivisor: 4
GridSize: 32
TimelineZoom: 2.3

[Metadata]
Title:Shakunetsu Switch
TitleUnicode:灼熱スイッチ
Artist:Suzumegahara Chuugaku Takkyuu-bu
ArtistUnicode:雀が原中学卓球部
Creator:Kqrth
Version:Ping Pong
Source:灼熱の卓球娘
Tags:anime japanese opening op shakunetsu no takkyuu musume scorching ping pong girls table tennis 花守 ゆみり hanamori yumiri 田中 美海 tanaka minami 今村 彩夏 imamura ayaka 東城 日沙子 toujou hisako 高野 麻里佳 kouno marika 桑原 由気 kuwahara yuuki 旋風 こより tsumujikaze koyori 上矢 あがり kamiya agari 大宗 夢音 oomune mune munemune 後手 キルカ ushirode kiruka 天下 ハナビ tenka hanabi 出雲 ほくと itsumo hokuto
BeatmapID:1881513
BeatmapSetID:901022

[Difficulty]
HPDrainRate:6
CircleSize:2
OverallDifficulty:5
ApproachRate:10
SliderMultiplier:1.4
SliderTickRate:1

[Events]
//Background and Video events
0,0,"bg.png",0,60
//Break Periods
2,213510,221593
//Storyboard Layer 0 (Background)
//Storyboard Layer 1 (Fail)
//Storyboard Layer 2 (Pass)
//Storyboard Layer 3 (Foreground)
//Storyboard Layer 4 (Overlay)
//Storyboard Sound Samples

[TimingPoints]
650,295.566502463054,4,1,0,80,1,0
650,-111.111111111111,4,1,0,80,0,0
19492,-100,4,1,0,90,0,0
27620,-100,4,1,0,60,0,0
28654,-100,4,1,0,90,0,0
62053,-95.2380952380952,4,1,0,90,0,0
64418,-90.9090909090909,4,1,0,90,0,0
66191,-95.2380952380952,4,1,0,90,0,0
66635,-95.2380952380952,4,1,0,100,0,0
66709,-90.9090909090909,4,1,0,100,0,1
75206,-91.2550304335526,4,1,0,100,0,1
75354,-91.6027737319886,4,1,0,100,0,1
75465,-91.9540229885057,4,1,0,100,0,1
75539,-92.3079763322349,4,1,0,100,0,1
75723,-92.6638064438411,4,1,0,100,0,0
75797,-93.0232558139535,4,1,0,100,0,0
76167,-90.9090909090909,4,1,0,100,0,1
86881,-91.9540229885057,4,1,0,100,0,1
87029,-93.0232558139535,4,1,0,100,0,1
87250,-93.0232558139535,4,1,0,100,0,0
87768,-95.2380952380952,4,1,0,90,0,0
88063,-97.5609756097561,4,1,0,90,0,0
88211,-97.5609756097561,4,1,0,50,0,0
88359,-100,4,1,0,50,0,0
90428,-100,4,1,0,80,0,0
97521,-100,4,1,0,90,0,0
130625,-95.2380952380952,4,1,0,90,0,0
132989,-90.9090909090909,4,1,0,90,0,0
134763,-95.2380952380952,4,1,0,90,0,0
135206,-95.2380952380952,4,1,0,100,0,0
135280,-90.9090909090909,4,1,0,100,0,1
143778,-91.2550304335526,4,1,0,100,0,1
143925,-91.6027737319886,4,1,0,100,0,1
144036,-91.9540229885057,4,1,0,100,0,1
144110,-92.3079763322349,4,1,0,100,0,1
144295,-92.6638064438411,4,1,0,100,0,0
144369,-93.0232558139535,4,1,0,100,0,0
144738,-90.9090909090909,4,1,0,100,0,1
155452,-91.9540229885057,4,1,0,100,0,1
155600,-93.0232558139535,4,1,0,100,0,1
155822,-93.0232558139535,4,1,0,100,0,0
156339,-95.2380952380952,4,1,0,90,0,0
156635,-97.5609756097561,4,1,0,90,0,0
156783,-97.5609756097561,4,1,0,50,0,0
156930,-100,4,1,0,50,0,0
158999,-100,4,1,0,90,0,0
166093,-95.2380952380952,4,1,0,90,0,0
174664,-95.8901482461692,4,1,0,90,0,0
174812,-96.55212366396,4,1,0,90,0,0
174923,-97.222357253274,4,1,0,90,0,0
174997,-97.9019609762783,4,1,0,90,0,0
175071,-98.5911327135237,4,1,0,90,0,0
175145,-99.2910618186151,4,1,0,90,0,0
175255,-100,4,1,0,90,0,0
175551,-90.9090909090909,4,1,0,100,0,0
193137,-91.2866858368707,4,1,0,100,0,0
193285,-91.6665902778414,4,1,0,100,0,0
193396,-92.0505173239074,4,1,0,100,0,0
193470,-92.4368194339169,4,1,0,100,0,0
193544,-92.8272392250782,4,1,0,100,0,0
193617,-93.2201019827916,4,1,0,100,0,0
193728,-93.6171806249883,4,1,0,100,0,0
193839,-94.0167725922305,4,1,0,100,0,0
193913,-94.4206819061647,4,1,0,100,0,0
194024,-94.8271774690626,4,1,0,100,0,0
194172,-95.2380952380952,4,1,0,100,0,0
194467,-100,4,1,0,90,0,0
203925,-95.2380952380952,4,1,0,90,0,0
211019,-90.9090909090909,4,1,0,90,0,0
212792,-100,4,1,0,90,0,0
213383,-100,4,1,0,5,0,0
214566,-111.111111111111,4,1,0,5,0,0
222694,-100,4,1,0,80,0,0
228162,-100,4,1,0,90,0,0
231265,-99.1738815665506,4,1,0,90,0,0
231413,-98.360333244809,4,1,0,90,0,0
231524,-97.5609756097561,4,1,0,90,0,0
231598,-96.774505724212,4,1,0,90,0,0
231672,-95.999692800983,4,1,0,90,0,0
231746,-95.2380952380952,4,1,0,90,0,0
232152,-95.2380952380952,4,1,0,100,0,0
232226,-90.9090909090909,4,1,0,100,0,1
240723,-91.2550304335526,4,1,0,100,0,1
240871,-91.6027737319886,4,1,0,100,0,1
241019,-91.9540229885057,4,1,0,100,0,1
241130,-92.3079763322349,4,1,0,100,0,1
241241,-92.6638064438411,4,1,0,100,0,0
241315,-93.0232558139535,4,1,0,100,0,0
241684,-90.9090909090909,4,1,0,100,0,1
252398,-91.9540229885057,4,1,0,100,0,1
252546,-93.0232558139535,4,1,0,100,0,1
252768,-93.0232558139535,4,1,0,100,0,0
252842,-93.0232558139535,4,1,0,50,0,0
253285,-95.2380952380952,4,1,0,50,0,0
253581,-97.5609756097561,4,1,0,50,0,0
253876,-100,4,1,0,50,0,0
254763,-100,4,1,0,90,0,0
255797,-90.9090909090909,4,1,0,100,0,0
264369,-91.2550304335526,4,1,0,100,0,0
264516,-91.6027737319886,4,1,0,100,0,0
264627,-91.9540229885057,4,1,0,100,0,0
264701,-92.3079763322349,4,1,0,100,0,0
264812,-92.6638064438411,4,1,0,100,0,0
264960,-93.0232558139535,4,1,0,100,0,0
265255,-90.9090909090909,4,1,0,100,0,0
275452,-91.6027737319886,4,1,0,100,0,0
275563,-92.3079763322349,4,1,0,100,0,0
275637,-93.0232558139535,4,1,0,100,0,0
275711,-93.7497070321655,4,1,0,100,0,0
275785,-94.4884865779105,4,1,0,100,0,0
275896,-95.2380952380952,4,1,0,100,0,0
277078,-100,4,1,0,50,0,0
278408,-105.263157894737,4,1,0,40,0,0
279590,-111.111111111111,4,1,0,30,0,0
280773,-117.647058823529,4,1,0,20,0,0
281955,-125,4,1,0,10,0,0

[HitObjects]
256,192,650,5,0,0:0:0:0:
256,192,945,1,0,0:0:0:0:
256,192,1388,1,0,0:0:0:0:
256,192,1832,1,0,0:0:0:0:
256,192,2127,1,0,0:0:0:0:
256,192,2275,1,8,0:0:0:0:
256,192,2571,1,0,0:0:0:0:
256,192,2866,1,0,0:0:0:0:
256,192,3014,1,0,0:0:0:0:
256,192,3310,1,8,0:0:0:0:
256,224,3457,1,8,0:0:0:0:
256,192,3753,1,8,0:0:0:0:
256,224,3901,1,8,0:0:0:0:
256,192,4196,1,0,0:0:0:0:
256,192,4492,1,0,0:0:0:0:
256,192,4640,1,0,0:0:0:0:
256,192,4935,1,8,0:0:0:0:
256,192,5083,1,8,0:0:0:0:
256,192,5674,1,0,0:0:0:0:
256,192,5822,1,0,0:0:0:0:
256,192,6117,1,8,0:0:0:0:
256,192,6265,1,8,0:0:0:0:
256,192,6413,1,0,0:0:0:0:
256,192,6561,1,8,0:0:0:0:
256,192,6856,1,8,0:0:0:0:
256,192,7004,1,8,0:0:0:0:
256,192,7300,1,8,0:0:0:0:
256,192,7595,1,0,0:0:0:0:
256,192,7743,1,0,0:0:0:0:
256,192,8039,1,8,0:0:0:0:
256,192,8186,1,0,0:0:0:0:
256,192,9516,1,8,0:0:0:0:
256,192,9812,1,0,0:0:0:0:
256,192,10108,1,8,0:0:0:0:
256,192,10403,1,8,0:0:0:0:
256,192,10551,1,0,0:0:0:0:
256,192,10847,1,8,0:0:0:0:
256,192,11142,1,0,0:0:0:0:
256,192,11585,1,8,0:0:0:0:
256,192,11881,1,8,0:0:0:0:
256,192,12177,1,0,0:0:0:0:
256,192,12472,1,8,0:0:0:0:
256,192,12768,1,0,0:0:0:0:
256,192,12916,1,0,0:0:0:0:
256,192,13211,1,8,0:0:0:0:
256,192,13507,1,0,0:0:0:0:
256,192,14246,1,8,0:0:0:0:
256,192,14541,1,0,0:0:0:0:
256,192,14837,1,8,0:0:0:0:
256,192,15132,1,8,0:0:0:0:
256,192,15280,1,0,0:0:0:0:
256,192,16019,1,8,0:0:0:0:
256,192,16315,1,8,0:0:0:0:
256,192,16462,1,0,0:0:0:0:
256,192,16758,1,8,0:0:0:0:
256,192,17053,1,0,0:0:0:0:
256,192,17201,1,0,0:0:0:0:
256,192,17497,1,8,0:0:0:0:
256,192,17645,1,8,0:0:0:0:
256,192,17940,1,0,0:0:0:0:
256,192,18236,1,8,0:0:0:0:
256,192,18975,5,0,0:0:0:0:
256,192,19049,1,0,0:0:0:0:
256,192,19122,1,0,0:0:0:0:
256,192,19270,1,8,0:0:0:0:
256,192,19566,1,4,0:0:0:0:
256,192,19714,1,8,0:0:0:0:
256,192,19861,1,0,0:0:0:0:
256,192,19935,1,0,0:0:0:0:
256,192,20009,1,8,0:0:0:0:
256,192,20157,1,0,0:0:0:0:
256,192,20305,1,8,0:0:0:0:
256,192,20452,1,0,0:0:0:0:
256,192,20600,1,8,0:0:0:0:
256,192,20896,1,8,0:0:0:0:
256,192,20970,1,8,0:0:0:0:
256,192,21044,1,0,0:0:0:0:
256,192,21191,1,8,0:0:0:0:
256,192,21487,1,8,0:0:0:0:
256,192,21635,1,0,0:0:0:0:
256,192,21930,1,0,0:0:0:0:
256,192,22078,1,8,0:0:0:0:
256,192,22226,1,0,0:0:0:0:
256,192,22374,1,8,0:0:0:0:
256,192,22521,1,0,0:0:0:0:
256,192,22669,1,8,0:0:0:0:
256,192,22743,1,8,0:0:0:0:
256,192,22817,1,0,0:0:0:0:
256,192,22965,1,8,0:0:0:0:
256,192,23260,1,8,0:0:0:0:
256,192,23408,1,0,0:0:0:0:
256,192,23482,1,0,0:0:0:0:
256,192,23556,1,8,0:0:0:0:
256,192,23851,1,8,0:0:0:0:
256,192,23999,1,0,0:0:0:0:
256,192,24295,1,4,0:0:0:0:
256,192,24443,1,8,0:0:0:0:
256,192,24590,1,0,0:0:0:0:
256,192,24664,1,0,0:0:0:0:
256,192,24738,1,8,0:0:0:0:
256,192,24886,1,0,0:0:0:0:
256,192,25034,1,8,0:0:0:0:
256,192,25182,1,0,0:0:0:0:
256,192,25329,1,8,0:0:0:0:
256,192,25625,1,8,0:0:0:0:
256,192,25699,1,8,0:0:0:0:
256,192,25773,1,0,0:0:0:0:
256,192,25920,1,8,0:0:0:0:
256,192,26216,1,8,0:0:0:0:
256,192,26364,1,0,0:0:0:0:
256,192,26659,1,0,0:0:0:0:
256,192,26807,1,8,0:0:0:0:
256,192,26955,1,0,0:0:0:0:
256,192,27103,1,8,0:0:0:0:
256,192,27250,1,0,0:0:0:0:
256,192,27398,1,8,0:0:0:0:
256,192,27472,1,8,0:0:0:0:
256,192,27546,1,0,0:0:0:0:
256,192,27694,12,0,28581,0:0:0:0:
256,192,28728,5,0,0:0:0:0:
256,192,29024,5,12,0:0:0:0:
256,192,29319,5,8,0:0:0:0:
256,192,29467,1,8,0:0:0:0:
256,192,29541,1,8,0:0:0:0:
256,192,29615,1,0,0:0:0:0:
256,192,29763,5,8,0:0:0:0:
256,192,29911,1,0,0:0:0:0:
256,192,30206,5,8,0:0:0:0:
256,192,30428,1,8,0:0:0:0:
256,192,30502,1,0,0:0:0:0:
256,192,30649,5,8,0:0:0:0:
256,192,30945,1,8,0:0:0:0:
256,192,31093,5,8,0:0:0:0:
256,192,31241,1,0,0:0:0:0:
256,192,31388,5,8,0:0:0:0:
256,192,31610,1,0,0:0:0:0:
256,192,31684,5,8,0:0:0:0:
256,192,31832,5,0,0:0:0:0:
256,192,31980,1,8,0:0:0:0:
256,192,32053,1,8,0:0:0:0:
256,192,32127,5,0,0:0:0:0:
256,192,32275,5,8,0:0:0:0:
256,192,32571,5,8,0:0:0:0:
256,192,32792,1,8,0:0:0:0:
256,192,32866,5,0,0:0:0:0:
256,192,33014,5,8,0:0:0:0:
256,192,33162,1,0,0:0:0:0:
256,192,33236,1,0,0:0:0:0:
256,192,33310,5,8,0:0:0:0:
256,192,33457,5,0,0:0:0:0:
256,192,33753,5,12,0:0:0:0:
256,192,34049,1,0,0:0:0:0:
256,192,34196,5,8,0:0:0:0:
256,192,34344,1,0,0:0:0:0:
256,192,34418,1,0,0:0:0:0:
256,192,34492,1,8,0:0:0:0:
256,192,34640,5,8,0:0:0:0:
256,192,34787,1,0,0:0:0:0:
256,192,34935,5,8,0:0:0:0:
256,192,35157,1,8,0:0:0:0:
256,192,35231,1,0,0:0:0:0:
256,192,35379,5,8,0:0:0:0:
256,192,35674,1,0,0:0:0:0:
256,192,35822,5,8,0:0:0:0:
256,192,35970,1,0,0:0:0:0:
256,192,36044,1,0,0:0:0:0:
256,192,36117,5,8,0:0:0:0:
256,192,36413,1,0,0:0:0:0:
256,192,36561,5,8,0:0:0:0:
256,192,36856,1,8,0:0:0:0:
256,192,37004,1,0,0:0:0:0:
256,192,37152,1,8,0:0:0:0:
256,192,37448,1,0,0:0:0:0:
256,192,37743,1,0,0:0:0:0:
256,192,37817,1,0,0:0:0:0:
256,192,37891,1,8,0:0:0:0:
256,192,38039,1,0,0:0:0:0:
256,192,38186,1,8,0:0:0:0:
256,192,38482,5,4,0:0:0:0:
256,192,38778,5,8,0:0:0:0:
256,192,38925,5,8,0:0:0:0:
256,192,38999,1,8,0:0:0:0:
256,192,39073,1,0,0:0:0:0:
256,192,39221,5,8,0:0:0:0:
256,192,39369,1,0,0:0:0:0:
256,192,39516,5,8,0:0:0:0:
256,192,39812,1,0,0:0:0:0:
256,192,39960,5,8,0:0:0:0:
256,192,40108,1,0,0:0:0:0:
256,192,40182,1,0,0:0:0:0:
256,192,40255,5,8,0:0:0:0:
256,192,40403,1,0,0:0:0:0:
256,192,40551,5,8,0:0:0:0:
256,192,40847,5,8,0:0:0:0:
256,192,40994,1,0,0:0:0:0:
256,192,41142,5,8,0:0:0:0:
256,192,41216,1,8,0:0:0:0:
256,192,41290,5,8,0:0:0:0:
256,192,41438,1,0,0:0:0:0:
256,192,41585,5,8,0:0:0:0:
256,192,41881,1,0,0:0:0:0:
256,192,42177,1,0,0:0:0:0:
256,192,42324,5,8,0:0:0:0:
256,192,42620,5,8,0:0:0:0:
256,192,42768,5,8,0:0:0:0:
256,192,42916,1,0,0:0:0:0:
256,192,42989,1,0,0:0:0:0:
256,192,43063,5,8,0:0:0:0:
256,192,43359,1,0,0:0:0:0:
256,192,43507,5,8,0:0:0:0:
256,192,43802,5,8,0:0:0:0:
256,192,43950,5,8,0:0:0:0:
256,192,44024,1,8,0:0:0:0:
256,192,44098,1,0,0:0:0:0:
256,192,44246,5,8,0:0:0:0:
256,192,44541,1,0,0:0:0:0:
256,192,44689,5,8,0:0:0:0:
256,192,44984,5,8,0:0:0:0:
256,192,45132,5,8,0:0:0:0:
256,192,45280,1,0,0:0:0:0:
256,192,45354,1,0,0:0:0:0:
256,192,45428,5,8,0:0:0:0:
256,192,45576,1,0,0:0:0:0:
256,192,45871,1,0,0:0:0:0:
256,192,46167,1,0,0:0:0:0:
256,192,46241,1,0,0:0:0:0:
256,192,46315,1,8,0:0:0:0:
256,192,46462,1,0,0:0:0:0:
256,192,46610,1,8,0:0:0:0:
256,192,46906,5,8,0:0:0:0:
256,192,47201,1,8,0:0:0:0:
256,192,47275,1,0,0:0:0:0:
256,192,47349,1,8,0:0:0:0:
256,192,47497,1,0,0:0:0:0:
256,192,47645,5,8,0:0:0:0:
256,192,47940,5,4,0:0:0:0:
256,192,48236,5,8,0:0:0:0:
256,192,48383,1,0,0:0:0:0:
256,192,48531,5,8,0:0:0:0:
256,192,48679,5,8,0:0:0:0:
256,160,48753,1,8,0:0:0:0:
256,192,48827,1,0,0:0:0:0:
256,192,48975,5,8,0:0:0:0:
256,192,49270,5,8,0:0:0:0:
256,192,49344,1,8,0:0:0:0:
256,192,49418,1,0,0:0:0:0:
256,192,49566,5,8,0:0:0:0:
256,192,49714,5,8,0:0:0:0:
256,192,49861,1,0,0:0:0:0:
256,192,49935,1,0,0:0:0:0:
256,192,50009,5,8,0:0:0:0:
256,192,50305,5,8,0:0:0:0:
256,192,50600,5,8,0:0:0:0:
256,192,50748,1,0,0:0:0:0:
256,192,50822,1,0,0:0:0:0:
256,192,50896,5,8,0:0:0:0:
256,192,51044,5,8,0:0:0:0:
256,192,51191,1,0,0:0:0:0:
256,192,51339,5,8,0:0:0:0:
256,192,51635,5,8,0:0:0:0:
256,192,51709,1,8,0:0:0:0:
256,192,51783,1,0,0:0:0:0:
256,192,51930,5,8,0:0:0:0:
256,192,52078,5,8,0:0:0:0:
256,192,52226,1,0,0:0:0:0:
256,192,52300,1,0,0:0:0:0:
256,192,52374,5,8,0:0:0:0:
256,192,52448,1,8,0:0:0:0:
256,192,52521,1,0,0:0:0:0:
256,192,52669,5,8,0:0:0:0:
256,192,52965,5,8,0:0:0:0:
256,192,53113,1,0,0:0:0:0:
256,192,53260,5,8,0:0:0:0:
256,192,53408,5,8,0:0:0:0:
256,192,53482,1,8,0:0:0:0:
256,192,53556,5,8,0:0:0:0:
256,192,53704,5,0,0:0:0:0:
256,192,53999,5,8,0:0:0:0:
256,192,54073,1,8,0:0:0:0:
256,192,54147,1,0,0:0:0:0:
256,192,54295,5,8,0:0:0:0:
256,192,54443,1,0,0:0:0:0:
256,192,54590,5,0,0:0:0:0:
256,192,54664,1,0,0:0:0:0:
256,192,54738,5,8,0:0:0:0:
256,192,54886,5,0,0:0:0:0:
256,192,55034,5,8,0:0:0:0:
256,192,55329,1,8,0:0:0:0:
256,192,55477,1,8,0:0:0:0:
256,192,55551,1,8,0:0:0:0:
256,192,55625,1,0,0:0:0:0:
256,192,55773,1,8,0:0:0:0:
256,192,55920,1,0,0:0:0:0:
256,192,55994,1,0,0:0:0:0:
256,192,56068,1,0,0:0:0:0:
256,192,56216,1,8,0:0:0:0:
256,192,56438,1,0,0:0:0:0:
256,192,56512,1,8,0:0:0:0:
256,192,56659,1,8,0:0:0:0:
256,192,56807,1,0,0:0:0:0:
256,192,56955,1,8,0:0:0:0:
256,192,57029,1,8,0:0:0:0:
256,192,57103,1,8,0:0:0:0:
256,192,57398,5,12,0:0:0:0:
256,192,57694,5,8,0:0:0:0:
256,192,57842,1,0,0:0:0:0:
256,192,57989,5,8,0:0:0:0:
256,192,58137,5,8,0:0:0:0:
256,192,58211,1,8,0:0:0:0:
256,192,58285,1,0,0:0:0:0:
256,192,58433,5,8,0:0:0:0:
256,192,58728,5,8,0:0:0:0:
256,192,58802,1,8,0:0:0:0:
256,192,58876,1,0,0:0:0:0:
256,192,59024,5,8,0:0:0:0:
256,192,59172,5,8,0:0:0:0:
256,192,59319,1,0,0:0:0:0:
256,192,59393,1,0,0:0:0:0:
256,192,59467,5,8,0:0:0:0:
256,192,59763,5,8,0:0:0:0:
256,192,60058,5,8,0:0:0:0:
256,192,60206,1,0,0:0:0:0:
256,192,60280,1,0,0:0:0:0:
256,192,60354,5,8,0:0:0:0:
256,192,60502,5,8,0:0:0:0:
256,192,60649,1,0,0:0:0:0:
256,192,60797,5,8,0:0:0:0:
256,192,61093,5,8,0:0:0:0:
256,192,61167,1,8,0:0:0:0:
256,192,61241,1,0,0:0:0:0:
256,192,61388,5,8,0:0:0:0:
256,192,61536,5,8,0:0:0:0:
256,192,61684,1,0,0:0:0:0:
256,192,61832,5,8,0:0:0:0:
256,192,62127,1,4,0:0:0:0:
256,192,62423,1,0,0:0:0:0:
256,192,62497,1,0,0:0:0:0:
256,192,62571,1,8,0:0:0:0:
256,192,62718,1,0,0:0:0:0:
256,192,62866,1,8,0:0:0:0:
256,192,63014,1,8,0:0:0:0:
256,192,63162,1,0,0:0:0:0:
256,192,63310,1,12,0:0:0:0:
256,192,63605,1,8,0:0:0:0:
256,192,63753,1,0,0:0:0:0:
256,192,63827,1,0,0:0:0:0:
256,192,63901,1,8,0:0:0:0:
256,192,64049,1,8,0:0:0:0:
256,192,64196,1,0,0:0:0:0:
256,192,64492,1,12,0:0:0:0:
256,192,64714,1,0,0:0:0:0:
256,192,64787,1,0,0:0:0:0:
256,192,64935,1,12,0:0:0:0:
256,192,65083,1,0,0:0:0:0:
256,192,65157,1,0,0:0:0:0:
256,192,65231,1,0,0:0:0:0:
256,192,65379,1,12,0:0:0:0:
256,192,66265,1,0,0:0:0:0:
256,192,66413,1,0,0:0:0:0:
256,192,66709,5,12,0:0:0:0:
256,192,67004,5,0,0:0:0:0:
256,192,67152,5,8,0:0:0:0:
256,192,67374,1,8,0:0:0:0:
256,192,67448,5,0,0:0:0:0:
256,192,67595,5,0,0:0:0:0:
256,192,67743,5,8,0:0:0:0:
256,192,67891,1,0,0:0:0:0:
256,192,67965,1,8,0:0:0:0:
256,192,68039,5,0,0:0:0:0:
256,192,68186,1,0,0:0:0:0:
256,192,68260,1,0,0:0:0:0:
256,192,68334,5,8,0:0:0:0:
256,192,68482,5,0,0:0:0:0:
256,192,68704,1,0,0:0:0:0:
256,192,68778,5,8,0:0:0:0:
256,192,68925,5,0,0:0:0:0:
256,192,69073,5,12,0:0:0:0:
256,192,69369,5,0,0:0:0:0:
256,192,69516,5,8,0:0:0:0:
256,192,69738,1,8,0:0:0:0:
256,192,69812,5,0,0:0:0:0:
256,192,69960,5,0,0:0:0:0:
256,192,70108,5,8,0:0:0:0:
256,192,70255,1,0,0:0:0:0:
256,192,70329,1,8,0:0:0:0:
256,192,70403,5,0,0:0:0:0:
256,192,70551,1,0,0:0:0:0:
256,192,70699,5,8,0:0:0:0:
256,192,70773,1,8,0:0:0:0:
256,192,70847,5,0,0:0:0:0:
256,192,70994,1,0,0:0:0:0:
256,192,71068,1,0,0:0:0:0:
256,192,71142,5,8,0:0:0:0:
256,192,71290,1,0,0:0:0:0:
256,192,71438,5,12,0:0:0:0:
256,192,71733,5,0,0:0:0:0:
256,192,71881,5,8,0:0:0:0:
256,192,72029,1,0,0:0:0:0:
256,192,72103,1,0,0:0:0:0:
256,192,72177,5,8,0:0:0:0:
256,192,72324,5,8,0:0:0:0:
256,192,72472,1,0,0:0:0:0:
256,192,72620,5,8,0:0:0:0:
256,192,72916,5,0,0:0:0:0:
256,192,73063,5,8,0:0:0:0:
256,192,73285,1,0,0:0:0:0:
256,192,73359,5,8,0:0:0:0:
256,192,73507,5,0,0:0:0:0:
256,192,73581,1,0,0:0:0:0:
256,192,73654,1,0,0:0:0:0:
256,192,73802,5,12,0:0:0:0:
256,192,74098,5,0,0:0:0:0:
256,192,74246,5,8,0:0:0:0:
256,192,74319,1,8,0:0:0:0:
256,192,74393,1,0,0:0:0:0:
256,192,74541,5,0,0:0:0:0:
256,192,74689,1,8,0:0:0:0:
256,192,74763,1,0,0:0:0:0:
256,192,74837,5,8,0:0:0:0:
256,192,74984,5,4,0:0:0:0:
256,192,75280,1,0,0:0:0:0:
256,192,75428,1,8,0:0:0:0:
256,192,75502,1,8,0:0:0:0:
256,192,75576,1,0,0:0:0:0:
256,192,75723,1,0,0:0:0:0:
256,192,75871,1,0,0:0:0:0:
256,192,76167,5,12,0:0:0:0:
256,192,76462,5,0,0:0:0:0:
256,192,76610,5,8,0:0:0:0:
256,192,76832,1,8,0:0:0:0:
256,192,76906,5,0,0:0:0:0:
256,192,77053,5,0,0:0:0:0:
256,192,77201,5,8,0:0:0:0:
256,192,77349,1,8,0:0:0:0:
256,192,77423,1,8,0:0:0:0:
256,192,77497,5,0,0:0:0:0:
256,192,77645,1,8,0:0:0:0:
256,192,77718,1,0,0:0:0:0:
256,192,77792,5,8,0:0:0:0:
256,192,77940,5,0,0:0:0:0:
256,192,78162,1,0,0:0:0:0:
256,192,78236,5,8,0:0:0:0:
256,192,78383,5,0,0:0:0:0:
256,192,78531,5,12,0:0:0:0:
256,192,78827,5,0,0:0:0:0:
256,192,78974,5,8,0:0:0:0:
256,192,79122,1,0,0:0:0:0:
256,192,79196,1,8,0:0:0:0:
256,192,79270,5,0,0:0:0:0:
256,192,79418,1,0,0:0:0:0:
256,192,79492,1,0,0:0:0:0:
256,192,79566,5,8,0:0:0:0:
256,192,79714,5,0,0:0:0:0:
256,192,80009,5,0,0:0:0:0:
256,192,80157,5,8,0:0:0:0:
256,192,80379,1,8,0:0:0:0:
256,192,80453,5,0,0:0:0:0:
256,192,80600,5,8,0:0:0:0:
256,192,80748,1,0,0:0:0:0:
256,192,80896,5,12,0:0:0:0:
256,192,81192,5,0,0:0:0:0:
256,192,81339,5,8,0:0:0:0:
256,192,81487,1,0,0:0:0:0:
256,192,81561,1,0,0:0:0:0:
256,192,81635,5,8,0:0:0:0:
256,192,81783,5,8,0:0:0:0:
256,192,81856,1,8,0:0:0:0:
256,192,81930,1,0,0:0:0:0:
256,192,82078,5,12,0:0:0:0:
256,192,82374,5,0,0:0:0:0:
256,192,82522,5,8,0:0:0:0:
256,192,82743,1,8,0:0:0:0:
256,192,82817,5,0,0:0:0:0:
256,192,82965,1,0,0:0:0:0:
256,192,83039,1,0,0:0:0:0:
256,192,83113,5,8,0:0:0:0:
256,192,83260,5,4,0:0:0:0:
256,192,83556,5,0,0:0:0:0:
256,192,83704,5,8,0:0:0:0:
256,192,83999,5,0,0:0:0:0:
256,192,84147,1,0,0:0:0:0:
256,192,84221,1,0,0:0:0:0:
256,192,84295,5,8,0:0:0:0:
256,192,84443,5,0,0:0:0:0:
256,192,84738,5,0,0:0:0:0:
256,192,84886,5,8,0:0:0:0:
256,192,85108,1,8,0:0:0:0:
256,192,85182,5,0,0:0:0:0:
256,192,85329,5,8,0:0:0:0:
256,192,85625,5,4,0:0:0:0:
256,192,85920,5,0,0:0:0:0:
256,192,86068,5,8,0:0:0:0:
256,192,86290,1,0,0:0:0:0:
256,192,86364,5,8,0:0:0:0:
256,192,86512,5,0,0:0:0:0:
256,192,86807,5,12,0:0:0:0:
256,192,87103,5,0,0:0:0:0:
256,192,87250,5,0,0:0:0:0:
256,192,87842,5,0,0:0:0:0:
256,192,88137,5,12,0:0:0:0:
256,192,88285,12,0,90354,0:0:0:0:
256,192,90502,5,0,0:0:0:0:
256,192,90797,1,8,0:0:0:0:
256,192,91241,1,0,0:0:0:0:
256,192,91388,1,8,0:0:0:0:
256,192,91536,1,0,0:0:0:0:
256,192,91980,1,8,0:0:0:0:
256,192,92423,1,0,0:0:0:0:
256,192,92571,1,8,0:0:0:0:
256,192,92718,1,0,0:0:0:0:
256,192,92866,1,0,0:0:0:0:
256,192,93162,1,8,0:0:0:0:
256,192,93605,1,0,0:0:0:0:
256,192,93753,1,8,0:0:0:0:
256,192,93901,1,0,0:0:0:0:
256,192,94344,1,8,0:0:0:0:
256,192,94787,1,0,0:0:0:0:
256,192,94935,1,8,0:0:0:0:
256,192,95231,1,0,0:0:0:0:
256,192,95526,1,8,0:0:0:0:
256,192,95970,1,0,0:0:0:0:
256,192,96117,1,8,0:0:0:0:
256,192,96265,1,0,0:0:0:0:
256,192,96709,1,8,0:0:0:0:
256,192,97004,1,0,0:0:0:0:
256,192,97595,1,4,0:0:0:0:
256,192,97891,5,8,0:0:0:0:
256,192,98039,1,0,0:0:0:0:
256,192,98113,1,0,0:0:0:0:
256,192,98186,5,8,0:0:0:0:
256,192,98334,1,0,0:0:0:0:
256,192,98482,5,8,0:0:0:0:
256,192,98778,5,8,0:0:0:0:
256,192,98925,1,0,0:0:0:0:
256,192,99073,5,8,0:0:0:0:
256,192,99147,1,0,0:0:0:0:
256,192,99221,5,8,0:0:0:0:
256,192,99516,1,0,0:0:0:0:
256,192,99590,1,0,0:0:0:0:
256,192,99664,5,8,0:0:0:0:
256,192,99812,1,0,0:0:0:0:
256,192,99960,5,8,0:0:0:0:
256,192,100255,5,8,0:0:0:0:
256,192,100403,5,8,0:0:0:0:
256,192,100477,1,8,0:0:0:0:
256,192,100551,1,0,0:0:0:0:
256,192,100699,5,8,0:0:0:0:
256,192,100847,5,8,0:0:0:0:
256,192,101142,5,8,0:0:0:0:
256,192,101290,1,0,0:0:0:0:
256,192,101364,1,0,0:0:0:0:
256,192,101438,5,8,0:0:0:0:
256,192,101585,5,8,0:0:0:0:
256,192,101733,1,0,0:0:0:0:
256,192,101881,5,8,0:0:0:0:
256,192,102029,5,8,0:0:0:0:
256,192,102324,5,4,0:0:0:0:
256,192,102620,5,8,0:0:0:0:
256,192,102768,5,8,0:0:0:0:
256,192,102842,1,8,0:0:0:0:
256,192,102916,1,0,0:0:0:0:
256,192,103063,1,0,0:0:0:0:
256,192,103211,5,8,0:0:0:0:
256,192,103507,5,8,0:0:0:0:
256,192,103802,1,0,0:0:0:0:
256,192,103950,5,8,0:0:0:0:
256,192,104098,1,8,0:0:0:0:
256,192,104172,1,8,0:0:0:0:
256,192,104246,1,0,0:0:0:0:
256,192,104393,5,8,0:0:0:0:
256,192,104541,1,0,0:0:0:0:
256,192,104615,1,0,0:0:0:0:
256,192,104689,5,8,0:0:0:0:
256,192,104984,1,0,0:0:0:0:
256,192,105132,5,8,0:0:0:0:
256,192,105428,1,8,0:0:0:0:
256,192,105576,1,0,0:0:0:0:
256,192,105723,1,8,0:0:0:0:
256,192,106019,1,8,0:0:0:0:
256,192,106093,1,8,0:0:0:0:
256,192,106167,1,0,0:0:0:0:
256,192,106315,1,0,0:0:0:0:
256,192,106462,5,8,0:0:0:0:
256,192,106758,5,8,0:0:0:0:
256,192,107053,5,4,0:0:0:0:
256,192,107349,1,8,0:0:0:0:
256,192,107423,1,0,0:0:0:0:
256,192,107497,5,8,0:0:0:0:
256,192,107645,1,0,0:0:0:0:
256,192,107792,5,8,0:0:0:0:
256,192,108088,5,8,0:0:0:0:
256,192,108383,1,0,0:0:0:0:
256,192,108531,5,8,0:0:0:0:
256,192,108679,1,8,0:0:0:0:
256,192,108753,1,8,0:0:0:0:
256,192,108827,1,0,0:0:0:0:
256,192,108975,1,0,0:0:0:0:
256,192,109122,5,8,0:0:0:0:
256,192,109418,5,8,0:0:0:0:
256,192,109566,1,0,0:0:0:0:
256,192,109640,1,0,0:0:0:0:
256,192,109714,1,0,0:0:0:0:
256,192,109861,5,8,0:0:0:0:
256,192,110157,5,8,0:0:0:0:
256,192,110305,1,0,0:0:0:0:
256,192,110452,5,8,0:0:0:0:
256,192,110748,1,8,0:0:0:0:
256,192,110822,1,8,0:0:0:0:
256,192,110896,1,0,0:0:0:0:
256,192,111044,1,0,0:0:0:0:
256,192,111191,5,8,0:0:0:0:
256,192,111339,5,8,0:0:0:0:
256,192,111635,5,8,0:0:0:0:
256,192,111930,1,0,0:0:0:0:
256,192,112004,1,0,0:0:0:0:
256,192,112078,5,8,0:0:0:0:
256,192,112226,1,0,0:0:0:0:
256,192,112374,5,8,0:0:0:0:
256,192,112521,5,8,0:0:0:0:
256,192,112817,5,8,0:0:0:0:
256,192,113113,1,0,0:0:0:0:
256,192,113260,5,8,0:0:0:0:
256,192,113556,5,8,0:0:0:0:
256,192,113704,5,0,0:0:0:0:
256,192,113778,1,0,0:0:0:0:
256,192,113851,1,8,0:0:0:0:
256,192,113999,1,0,0:0:0:0:
256,192,114147,1,8,0:0:0:0:
256,192,114443,1,8,0:0:0:0:
256,192,114738,1,0,0:0:0:0:
256,192,114886,1,8,0:0:0:0:
256,192,114960,1,8,0:0:0:0:
256,192,115034,1,0,0:0:0:0:
256,192,115182,1,8,0:0:0:0:
256,192,115477,1,8,0:0:0:0:
256,192,115625,1,0,0:0:0:0:
256,192,115699,1,0,0:0:0:0:
256,192,115773,1,8,0:0:0:0:
256,192,115920,5,8,0:0:0:0:
256,192,116068,1,0,0:0:0:0:
256,192,116216,5,8,0:0:0:0:
256,192,116512,5,4,0:0:0:0:
256,192,116807,1,8,0:0:0:0:
256,192,116955,1,8,0:0:0:0:
256,192,117029,1,8,0:0:0:0:
256,192,117103,1,0,0:0:0:0:
256,192,117250,5,8,0:0:0:0:
256,192,117398,1,0,0:0:0:0:
256,192,117472,1,0,0:0:0:0:
256,192,117546,5,8,0:0:0:0:
256,192,117842,1,8,0:0:0:0:
256,192,117916,1,8,0:0:0:0:
256,192,117989,1,8,0:0:0:0:
256,192,118137,5,8,0:0:0:0:
256,192,118285,1,0,0:0:0:0:
256,192,118433,1,8,0:0:0:0:
256,192,118507,1,8,0:0:0:0:
256,192,118581,1,0,0:0:0:0:
256,192,118728,1,0,0:0:0:0:
256,192,118802,1,0,0:0:0:0:
256,192,118876,1,8,0:0:0:0:
256,192,119172,5,8,0:0:0:0:
256,192,119393,1,0,0:0:0:0:
256,192,119467,1,0,0:0:0:0:
256,192,119615,5,8,0:0:0:0:
256,192,119763,1,8,0:0:0:0:
256,192,119837,1,0,0:0:0:0:
256,192,119911,5,8,0:0:0:0:
256,192,120206,1,8,0:0:0:0:
256,192,120280,1,8,0:0:0:0:
256,192,120354,1,8,0:0:0:0:
256,192,120502,5,8,0:0:0:0:
256,192,120649,1,0,0:0:0:0:
256,192,120797,1,0,0:0:0:0:
256,192,120871,1,0,0:0:0:0:
256,192,120945,1,8,0:0:0:0:
256,192,121093,1,8,0:0:0:0:
256,192,121167,1,8,0:0:0:0:
256,192,121241,1,0,0:0:0:0:
256,192,121536,5,8,0:0:0:0:
256,192,121684,1,0,0:0:0:0:
256,192,121758,1,0,0:0:0:0:
256,192,121832,1,8,0:0:0:0:
256,192,121980,5,8,0:0:0:0:
256,192,122127,1,8,0:0:0:0:
256,192,122201,1,0,0:0:0:0:
256,192,122275,5,8,0:0:0:0:
256,192,122571,1,8,0:0:0:0:
256,192,122645,1,8,0:0:0:0:
256,192,122718,1,0,0:0:0:0:
256,192,122866,5,8,0:0:0:0:
256,192,123014,1,0,0:0:0:0:
256,192,123088,1,0,0:0:0:0:
256,192,123162,1,8,0:0:0:0:
256,192,123236,1,8,0:0:0:0:
256,192,123310,1,0,0:0:0:0:
256,192,123457,1,8,0:0:0:0:
256,192,123605,1,0,0:0:0:0:
256,192,123901,5,8,0:0:0:0:
256,192,124049,1,8,0:0:0:0:
256,192,124122,1,8,0:0:0:0:
256,192,124196,1,0,0:0:0:0:
256,192,124344,5,8,0:0:0:0:
256,192,124492,1,0,0:0:0:0:
256,192,124566,1,0,0:0:0:0:
256,192,124640,5,8,0:0:0:0:
256,192,124787,1,8,0:0:0:0:
256,192,125009,1,0,0:0:0:0:
256,192,125083,1,0,0:0:0:0:
256,192,125231,5,8,0:0:0:0:
256,192,125526,1,8,0:0:0:0:
256,192,125674,1,8,0:0:0:0:
256,192,125970,1,4,0:0:0:0:
256,192,126265,5,8,0:0:0:0:
256,192,126413,1,0,0:0:0:0:
256,192,126487,1,0,0:0:0:0:
256,192,126561,1,0,0:0:0:0:
256,192,126708,5,8,0:0:0:0:
256,192,126856,1,0,0:0:0:0:
256,192,126930,1,0,0:0:0:0:
256,192,127004,5,8,0:0:0:0:
256,192,127300,1,8,0:0:0:0:
256,192,127374,1,8,0:0:0:0:
256,192,127448,1,8,0:0:0:0:
256,192,127595,5,8,0:0:0:0:
256,192,127743,1,0,0:0:0:0:
256,192,127891,1,0,0:0:0:0:
256,192,127965,1,0,0:0:0:0:
256,192,128039,1,8,0:0:0:0:
256,192,128186,1,8,0:0:0:0:
256,192,128260,1,8,0:0:0:0:
256,192,128334,1,0,0:0:0:0:
256,192,128630,5,8,0:0:0:0:
256,192,128851,1,8,0:0:0:0:
256,192,128925,1,0,0:0:0:0:
256,192,129073,5,8,0:0:0:0:
256,192,129221,1,0,0:0:0:0:
256,192,129295,1,0,0:0:0:0:
256,192,129369,5,8,0:0:0:0:
256,192,129664,1,8,0:0:0:0:
256,192,129812,1,0,0:0:0:0:
256,192,129960,1,8,0:0:0:0:
256,192,130034,1,0,0:0:0:0:
256,192,130108,1,8,0:0:0:0:
256,192,130255,5,0,0:0:0:0:
256,192,130329,5,0,0:0:0:0:
256,192,130403,5,0,0:0:0:0:
256,192,130477,5,0,0:0:0:0:
256,192,130551,5,0,0:0:0:0:
256,192,130699,5,12,0:0:0:0:
256,192,130994,1,8,0:0:0:0:
256,192,131142,1,8,0:0:0:0:
256,192,131216,1,8,0:0:0:0:
256,192,131290,1,0,0:0:0:0:
256,192,131438,1,8,0:0:0:0:
256,192,131585,1,0,0:0:0:0:
256,192,131733,1,0,0:0:0:0:
256,192,131881,1,12,0:0:0:0:
256,192,132029,1,0,0:0:0:0:
256,192,132103,1,0,0:0:0:0:
256,192,132177,1,8,0:0:0:0:
256,192,132324,1,0,0:0:0:0:
256,192,132472,1,8,0:0:0:0:
256,192,132620,1,8,0:0:0:0:
256,192,132768,1,0,0:0:0:0:
256,192,133063,1,12,0:0:0:0:
256,192,133285,1,0,0:0:0:0:
256,192,133359,1,0,0:0:0:0:
256,192,133507,1,12,0:0:0:0:
256,192,133654,1,0,0:0:0:0:
256,192,133728,1,0,0:0:0:0:
256,192,133802,1,0,0:0:0:0:
256,192,133950,1,12,0:0:0:0:
256,192,134837,5,0,0:0:0:0:
256,192,134984,5,0,0:0:0:0:
256,192,135280,5,12,0:0:0:0:
256,192,135576,5,0,0:0:0:0:
256,192,135723,5,8,0:0:0:0:
256,192,135945,1,8,0:0:0:0:
256,192,136019,5,0,0:0:0:0:
256,192,136167,5,0,0:0:0:0:
256,192,136315,5,8,0:0:0:0:
256,192,136462,1,0,0:0:0:0:
256,192,136536,1,8,0:0:0:0:
256,192,136610,5,0,0:0:0:0:
256,192,136758,1,0,0:0:0:0:
256,192,136832,1,0,0:0:0:0:
256,192,136906,5,8,0:0:0:0:
256,192,137053,5,0,0:0:0:0:
256,192,137275,1,0,0:0:0:0:
256,192,137349,5,8,0:0:0:0:
256,192,137497,5,0,0:0:0:0:
256,192,137645,5,12,0:0:0:0:
256,192,137940,5,0,0:0:0:0:
256,192,138088,5,8,0:0:0:0:
256,192,138310,1,8,0:0:0:0:
256,192,138383,5,0,0:0:0:0:
256,192,138531,5,0,0:0:0:0:
256,192,138679,5,8,0:0:0:0:
256,192,138827,1,0,0:0:0:0:
256,192,138901,1,8,0:0:0:0:
256,192,138975,5,0,0:0:0:0:
256,192,139122,1,0,0:0:0:0:
256,192,139270,5,8,0:0:0:0:
256,192,139344,1,8,0:0:0:0:
256,192,139418,5,0,0:0:0:0:
256,192,139566,1,0,0:0:0:0:
256,192,139640,1,0,0:0:0:0:
256,192,139714,5,8,0:0:0:0:
256,192,139861,1,0,0:0:0:0:
256,192,140009,5,12,0:0:0:0:
256,192,140305,5,0,0:0:0:0:
256,192,140452,5,8,0:0:0:0:
256,192,140600,1,0,0:0:0:0:
256,192,140674,1,0,0:0:0:0:
256,192,140748,5,8,0:0:0:0:
256,192,140896,5,8,0:0:0:0:
256,192,141044,1,0,0:0:0:0:
256,192,141191,5,8,0:0:0:0:
256,192,141487,5,0,0:0:0:0:
256,192,141635,5,8,0:0:0:0:
256,192,141856,1,0,0:0:0:0:
256,192,141930,5,8,0:0:0:0:
256,192,142078,5,0,0:0:0:0:
256,192,142152,1,0,0:0:0:0:
256,192,142226,1,0,0:0:0:0:
256,192,142374,5,12,0:0:0:0:
256,192,142669,5,0,0:0:0:0:
256,192,142817,5,8,0:0:0:0:
256,192,142891,1,8,0:0:0:0:
256,192,142965,1,0,0:0:0:0:
256,192,143113,5,0,0:0:0:0:
256,192,143260,1,8,0:0:0:0:
256,192,143334,1,0,0:0:0:0:
256,192,143408,5,8,0:0:0:0:
256,192,143556,5,4,0:0:0:0:
256,192,143851,1,0,0:0:0:0:
256,192,143999,1,8,0:0:0:0:
256,192,144073,1,8,0:0:0:0:
256,192,144147,1,0,0:0:0:0:
256,192,144295,1,0,0:0:0:0:
256,192,144443,1,0,0:0:0:0:
256,192,144738,5,12,0:0:0:0:
256,192,145034,5,0,0:0:0:0:
256,192,145182,5,8,0:0:0:0:
256,192,145403,1,8,0:0:0:0:
256,192,145477,5,0,0:0:0:0:
256,192,145625,5,0,0:0:0:0:
256,192,145773,5,8,0:0:0:0:
256,192,145920,1,8,0:0:0:0:
256,192,145994,1,8,0:0:0:0:
256,192,146068,5,0,0:0:0:0:
256,192,146216,1,8,0:0:0:0:
256,192,146290,1,0,0:0:0:0:
256,192,146364,5,8,0:0:0:0:
256,192,146512,5,0,0:0:0:0:
256,192,146733,1,0,0:0:0:0:
256,192,146807,5,8,0:0:0:0:
256,192,146955,5,0,0:0:0:0:
256,192,147103,5,12,0:0:0:0:
256,192,147398,5,0,0:0:0:0:
256,192,147546,5,8,0:0:0:0:
256,192,147694,1,0,0:0:0:0:
256,192,147768,1,8,0:0:0:0:
256,192,147842,5,0,0:0:0:0:
256,192,147989,1,0,0:0:0:0:
256,192,148063,1,0,0:0:0:0:
256,192,148137,5,8,0:0:0:0:
256,192,148285,5,0,0:0:0:0:
256,192,148581,5,0,0:0:0:0:
256,192,148728,5,8,0:0:0:0:
256,192,148950,1,8,0:0:0:0:
256,192,149024,5,0,0:0:0:0:
256,192,149172,5,8,0:0:0:0:
256,192,149319,1,0,0:0:0:0:
256,192,149467,5,12,0:0:0:0:
256,192,149763,5,0,0:0:0:0:
256,192,149911,5,8,0:0:0:0:
256,192,150058,1,0,0:0:0:0:
256,192,150132,1,0,0:0:0:0:
256,192,150206,5,8,0:0:0:0:
256,192,150354,5,8,0:0:0:0:
256,192,150428,1,8,0:0:0:0:
256,192,150502,1,0,0:0:0:0:
256,192,150649,5,12,0:0:0:0:
256,192,150945,5,0,0:0:0:0:
256,192,151093,5,8,0:0:0:0:
256,192,151315,1,8,0:0:0:0:
256,192,151388,5,0,0:0:0:0:
256,192,151536,1,0,0:0:0:0:
256,192,151610,1,0,0:0:0:0:
256,192,151684,5,8,0:0:0:0:
256,192,151832,5,4,0:0:0:0:
256,192,152127,5,0,0:0:0:0:
256,192,152275,5,8,0:0:0:0:
256,192,152571,5,0,0:0:0:0:
256,192,152718,1,0,0:0:0:0:
256,192,152792,1,0,0:0:0:0:
256,192,152866,5,8,0:0:0:0:
256,192,153014,5,0,0:0:0:0:
256,192,153310,5,0,0:0:0:0:
256,192,153457,5,8,0:0:0:0:
256,192,153679,1,8,0:0:0:0:
256,192,153753,5,0,0:0:0:0:
256,192,153901,5,8,0:0:0:0:
256,192,154196,5,4,0:0:0:0:
256,192,154492,5,0,0:0:0:0:
256,192,154640,5,8,0:0:0:0:
256,192,154861,1,0,0:0:0:0:
256,192,154935,5,8,0:0:0:0:
256,192,155083,5,0,0:0:0:0:
256,192,155379,5,12,0:0:0:0:
256,192,155674,5,0,0:0:0:0:
256,192,155822,5,0,0:0:0:0:
256,192,156413,5,8,0:0:0:0:
256,192,156709,5,4,0:0:0:0:
256,192,156856,12,0,158925,0:0:0:0:
257,194,159073,5,0,0:0:0:0:
257,194,159221,1,8,0:0:0:0:
257,194,159369,1,0,0:0:0:0:
257,194,159516,1,8,0:0:0:0:
257,194,159664,1,0,0:0:0:0:
257,194,159738,1,0,0:0:0:0:
257,194,159812,1,8,0:0:0:0:
257,194,159960,1,0,0:0:0:0:
257,194,160108,1,8,0:0:0:0:
257,194,160403,1,8,0:0:0:0:
257,194,160477,1,8,0:0:0:0:
257,194,160551,1,0,0:0:0:0:
257,194,160699,1,8,0:0:0:0:
257,194,160994,1,0,0:0:0:0:
257,194,161142,1,8,0:0:0:0:
257,194,161438,1,4,0:0:0:0:
257,194,161585,1,8,0:0:0:0:
257,194,161733,1,0,0:0:0:0:
257,194,161881,1,8,0:0:0:0:
257,194,162029,1,0,0:0:0:0:
257,194,162177,1,8,0:0:0:0:
257,194,162250,1,8,0:0:0:0:
257,194,162324,1,0,0:0:0:0:
257,194,162472,1,8,0:0:0:0:
257,194,162768,1,8,0:0:0:0:
257,194,162916,1,0,0:0:0:0:
257,194,162989,1,0,0:0:0:0:
257,194,163063,1,8,0:0:0:0:
257,194,163359,1,8,0:0:0:0:
257,194,163507,1,0,0:0:0:0:
257,194,163802,1,0,0:0:0:0:
257,194,163950,1,8,0:0:0:0:
257,194,164098,1,0,0:0:0:0:
257,194,164246,1,8,0:0:0:0:
257,194,164393,1,0,0:0:0:0:
257,194,164467,1,0,0:0:0:0:
257,194,164541,1,8,0:0:0:0:
257,194,164689,1,0,0:0:0:0:
257,194,164837,1,8,0:0:0:0:
257,194,165132,1,8,0:0:0:0:
256,192,165206,1,8,0:0:0:0:
257,194,165280,1,0,0:0:0:0:
257,194,165428,1,8,0:0:0:0:
256,192,165723,1,0,0:0:0:0:
257,194,165871,1,8,0:0:0:0:
256,192,166167,1,4,0:0:0:0:
256,192,166315,1,8,0:0:0:0:
256,192,166462,1,0,0:0:0:0:
256,192,166536,1,0,0:0:0:0:
256,192,166610,1,8,0:0:0:0:
256,192,166758,1,0,0:0:0:0:
256,192,166906,1,8,0:0:0:0:
256,192,166980,1,8,0:0:0:0:
256,192,167053,1,0,0:0:0:0:
256,192,167201,1,8,0:0:0:0:
256,192,167497,1,8,0:0:0:0:
256,192,167645,1,0,0:0:0:0:
256,192,167718,1,0,0:0:0:0:
256,192,167792,1,8,0:0:0:0:
256,192,168088,1,8,0:0:0:0:
256,192,168236,1,0,0:0:0:0:
256,192,168531,1,0,0:0:0:0:
256,192,168679,1,8,0:0:0:0:
256,192,168753,1,8,0:0:0:0:
256,192,168827,1,0,0:0:0:0:
256,192,168975,1,8,0:0:0:0:
256,192,169122,1,0,0:0:0:0:
256,192,169196,1,0,0:0:0:0:
256,192,169270,1,8,0:0:0:0:
256,192,169418,1,0,0:0:0:0:
256,192,169566,1,8,0:0:0:0:
256,192,169861,1,8,0:0:0:0:
256,192,169935,1,8,0:0:0:0:
256,192,170009,1,0,0:0:0:0:
256,192,170157,1,8,0:0:0:0:
256,192,170452,1,0,0:0:0:0:
256,192,170600,1,8,0:0:0:0:
256,192,170896,1,4,0:0:0:0:
256,192,171044,1,8,0:0:0:0:
256,192,171191,1,0,0:0:0:0:
256,192,171265,1,0,0:0:0:0:
256,192,171339,1,8,0:0:0:0:
256,192,171487,1,0,0:0:0:0:
256,192,171635,1,8,0:0:0:0:
256,192,171709,1,8,0:0:0:0:
256,192,171783,1,0,0:0:0:0:
256,192,171930,1,8,0:0:0:0:
256,192,172226,1,8,0:0:0:0:
256,192,172374,1,0,0:0:0:0:
256,192,172448,1,0,0:0:0:0:
256,192,172521,1,8,0:0:0:0:
256,192,172817,1,8,0:0:0:0:
256,192,172965,1,0,0:0:0:0:
256,192,173260,1,0,0:0:0:0:
256,192,173408,1,8,0:0:0:0:
256,192,173482,1,8,0:0:0:0:
256,192,173556,1,0,0:0:0:0:
256,192,173704,1,8,0:0:0:0:
256,192,173851,1,0,0:0:0:0:
256,192,173925,1,0,0:0:0:0:
256,192,173999,1,8,0:0:0:0:
256,192,174147,1,0,0:0:0:0:
256,192,174295,1,8,0:0:0:0:
256,192,174369,1,8,0:0:0:0:
256,192,174443,1,8,0:0:0:0:
256,192,174516,1,8,0:0:0:0:
256,192,174590,5,0,0:0:0:0:
256,192,174738,1,0,0:0:0:0:
256,192,174886,1,0,0:0:0:0:
256,192,174960,1,0,0:0:0:0:
256,192,175034,1,8,0:0:0:0:
256,192,175108,1,8,0:0:0:0:
256,192,175182,1,0,0:0:0:0:
256,192,175329,1,8,0:0:0:0:
256,192,175625,1,4,0:0:0:0:
256,192,175920,1,8,0:0:0:0:
256,192,176068,1,8,0:0:0:0:
256,192,176142,1,8,0:0:0:0:
256,192,176216,1,0,0:0:0:0:
256,192,176364,1,0,0:0:0:0:
256,192,176512,1,0,0:0:0:0:
256,192,176659,1,8,0:0:0:0:
256,192,176955,1,0,0:0:0:0:
256,192,177103,1,8,0:0:0:0:
256,192,177250,1,8,0:0:0:0:
256,192,177324,1,8,0:0:0:0:
256,192,177398,1,0,0:0:0:0:
256,192,177472,1,8,0:0:0:0:
256,192,177620,1,0,0:0:0:0:
256,192,177694,1,8,0:0:0:0:
256,192,177842,1,8,0:0:0:0:
256,192,177989,1,8,0:0:0:0:
256,192,178137,1,0,0:0:0:0:
256,192,178285,1,8,0:0:0:0:
256,192,178433,1,8,0:0:0:0:
256,192,178507,1,8,0:0:0:0:
256,192,178581,1,0,0:0:0:0:
256,192,178728,1,0,0:0:0:0:
256,192,178876,1,0,0:0:0:0:
256,192,179024,1,8,0:0:0:0:
256,192,179319,1,0,0:0:0:0:
256,192,179393,1,0,0:0:0:0:
256,192,179467,1,8,0:0:0:0:
256,192,179615,1,8,0:0:0:0:
256,192,179763,1,0,0:0:0:0:
256,192,179837,1,0,0:0:0:0:
256,192,179911,1,8,0:0:0:0:
256,192,179984,1,8,0:0:0:0:
256,192,180058,1,0,0:0:0:0:
256,192,180206,1,8,0:0:0:0:
256,192,180354,1,4,0:0:0:0:
256,192,180649,5,8,0:0:0:0:
256,192,180945,1,0,0:0:0:0:
256,192,181093,1,0,0:0:0:0:
256,192,181241,5,8,0:0:0:0:
256,192,181388,1,0,0:0:0:0:
256,192,181462,1,0,0:0:0:0:
256,192,181536,1,8,0:0:0:0:
256,192,181684,1,0,1:0:0:0:
256,192,181832,5,8,0:0:0:0:
256,192,181906,1,0,0:0:0:0:
256,192,181980,1,0,0:0:0:0:
256,192,182053,1,0,0:0:0:0:
256,192,182127,1,8,0:0:0:0:
256,192,182275,1,0,0:0:0:0:
256,192,182423,5,8,0:0:0:0:
256,192,182718,1,8,0:0:0:0:
256,192,182792,1,8,0:0:0:0:
256,192,182866,1,0,0:0:0:0:
256,192,183014,5,8,0:0:0:0:
256,192,183162,1,0,0:0:0:0:
256,192,183236,1,8,0:0:0:0:
256,192,183310,1,8,0:0:0:0:
256,192,183457,1,0,0:0:0:0:
256,192,183605,5,8,0:0:0:0:
256,192,183753,1,0,0:0:0:0:
256,192,183827,1,0,0:0:0:0:
256,192,183901,1,8,0:0:0:0:
256,192,184196,5,8,0:0:0:0:
256,192,184344,1,0,0:0:0:0:
256,192,184418,1,0,0:0:0:0:
256,192,184492,1,8,0:0:0:0:
256,192,184566,1,8,0:0:0:0:
256,192,184640,1,0,0:0:0:0:
256,192,184787,5,8,0:0:0:0:
256,192,185083,5,4,0:0:0:0:
256,192,185231,1,0,0:0:0:0:
256,192,185379,1,8,0:0:0:0:
256,192,185452,1,8,0:0:0:0:
256,192,185526,1,0,0:0:0:0:
256,192,185674,1,8,0:0:0:0:
256,192,185822,1,8,0:0:0:0:
256,192,186117,1,0,0:0:0:0:
256,192,186413,1,0,0:0:0:0:
256,192,186487,1,0,0:0:0:0:
256,192,186561,1,8,0:0:0:0:
256,192,186709,1,0,0:0:0:0:
256,192,186856,1,8,0:0:0:0:
256,192,186930,1,8,0:0:0:0:
256,192,187004,1,0,0:0:0:0:
256,192,187300,1,0,0:0:0:0:
256,192,187595,1,0,0:0:0:0:
256,192,187669,1,0,0:0:0:0:
256,192,187743,1,8,0:0:0:0:
256,192,187891,1,0,0:0:0:0:
256,192,188186,1,0,0:0:0:0:
256,192,188334,1,8,0:0:0:0:
256,192,188482,1,0,0:0:0:0:
256,192,188556,1,0,0:0:0:0:
256,192,188630,1,8,0:0:0:0:
256,192,188925,1,8,0:0:0:0:
256,192,189073,1,0,0:0:0:0:
256,192,189147,1,0,0:0:0:0:
256,192,189221,1,8,0:0:0:0:
256,192,189369,1,8,0:0:0:0:
256,192,189664,1,8,0:0:0:0:
256,192,189812,1,4,0:0:0:0:
256,192,190108,5,8,0:0:0:0:
256,192,190403,1,0,0:0:0:0:
256,192,190551,1,0,0:0:0:0:
256,192,190699,5,8,0:0:0:0:
256,192,190847,1,0,0:0:0:0:
256,192,190920,1,8,0:0:0:0:
256,192,190994,1,0,0:0:0:0:
256,192,191142,1,0,0:0:0:0:
256,192,191290,5,8,0:0:0:0:
256,192,191438,1,0,0:0:0:0:
256,192,191512,1,8,0:0:0:0:
256,192,191585,1,0,0:0:0:0:
256,192,191659,1,0,0:0:0:0:
256,192,191733,1,8,0:0:0:0:
256,192,191881,5,8,0:0:0:0:
256,192,192177,1,4,0:0:0:0:
256,192,192398,1,0,0:0:0:0:
256,192,192472,5,8,0:0:0:0:
256,192,192620,1,0,0:0:0:0:
256,192,192768,1,0,0:0:0:0:
256,192,192842,1,8,0:0:0:0:
256,192,192916,1,0,0:0:0:0:
256,192,193063,5,8,0:0:0:0:
256,192,193211,1,0,0:0:0:0:
256,192,193359,1,8,0:0:0:0:
256,192,193433,1,8,0:0:0:0:
256,192,193507,1,0,0:0:0:0:
256,192,193581,1,0,0:0:0:0:
256,192,193654,1,8,0:0:0:0:
256,192,193802,1,0,0:0:0:0:
256,192,193876,1,0,0:0:0:0:
256,192,193950,1,0,0:0:0:0:
256,192,194098,1,0,0:0:0:0:
256,192,194246,1,8,0:0:0:0:
256,192,194541,1,4,0:0:0:0:
256,192,194689,1,4,0:0:0:0:
256,192,195132,1,0,0:0:0:0:
256,192,195206,1,0,0:0:0:0:
256,192,195280,1,8,0:0:0:0:
256,192,195354,1,8,0:0:0:0:
256,192,195428,1,0,0:0:0:0:
256,192,195576,1,12,0:0:0:0:
256,192,195871,1,12,0:0:0:0:
256,192,196167,1,12,0:0:0:0:
256,192,196462,1,0,0:0:0:0:
256,192,196610,1,8,0:0:0:0:
256,192,196906,1,4,0:0:0:0:
256,192,197053,1,4,0:0:0:0:
256,192,197349,1,8,0:0:0:0:
256,192,197423,1,8,0:0:0:0:
256,192,197497,1,8,0:0:0:0:
256,192,197645,1,0,0:0:0:0:
256,192,197792,1,0,0:0:0:0:
256,192,197940,1,12,0:0:0:0:
256,192,198236,1,12,0:0:0:0:
256,192,198531,1,12,0:0:0:0:
256,192,198827,1,0,0:0:0:0:
256,192,198975,1,8,0:0:0:0:
256,192,199270,1,4,0:0:0:0:
256,192,199418,1,4,0:0:0:0:
256,192,199714,1,0,0:0:0:0:
256,192,199861,1,8,0:0:0:0:
256,192,199935,1,8,0:0:0:0:
256,192,200009,1,0,0:0:0:0:
256,192,200083,1,0,0:0:0:0:
256,192,200157,1,0,0:0:0:0:
256,192,200305,1,12,0:0:0:0:
256,192,200600,1,12,0:0:0:0:
256,192,200896,1,12,0:0:0:0:
256,192,201191,1,0,0:0:0:0:
256,192,201339,1,8,0:0:0:0:
256,192,201487,1,0,0:0:0:0:
256,192,201635,1,12,0:0:0:0:
256,192,202078,1,0,0:0:0:0:
256,192,202226,1,12,0:0:0:0:
256,192,202669,1,0,0:0:0:0:
256,192,202817,1,0,0:0:0:0:
256,192,203113,1,0,0:0:0:0:
256,192,203260,1,0,0:0:0:0:
256,192,203408,1,12,0:0:0:0:
256,192,203556,1,0,0:0:0:0:
256,192,203999,1,12,0:0:0:0:
256,192,204295,1,0,0:0:0:0:
256,192,204443,1,0,0:0:0:0:
256,192,204516,1,0,0:0:0:0:
256,192,204590,1,8,0:0:0:0:
256,192,204738,1,0,0:0:0:0:
256,192,204886,1,8,0:0:0:0:
256,192,205034,1,0,0:0:0:0:
256,192,205108,1,0,0:0:0:0:
256,192,205182,1,0,0:0:0:0:
256,192,205329,1,8,0:0:0:0:
256,192,205477,1,0,0:0:0:0:
256,192,205625,1,8,0:0:0:0:
256,192,205699,1,8,0:0:0:0:
256,192,205773,1,0,0:0:0:0:
256,192,205920,1,8,0:0:0:0:
256,192,206068,1,8,0:0:0:0:
256,192,206364,1,4,0:0:0:0:
256,192,206659,1,8,0:0:0:0:
256,192,206807,1,0,0:0:0:0:
256,192,206955,1,8,0:0:0:0:
256,192,207029,1,8,0:0:0:0:
256,192,207103,1,0,0:0:0:0:
256,192,207250,1,0,0:0:0:0:
256,192,207398,1,8,0:0:0:0:
256,192,207546,1,0,0:0:0:0:
256,192,207620,1,0,0:0:0:0:
256,192,207694,1,8,0:0:0:0:
256,192,207842,1,0,0:0:0:0:
256,192,207989,1,8,0:0:0:0:
256,192,208063,1,8,0:0:0:0:
256,192,208137,1,0,0:0:0:0:
256,192,208285,1,8,0:0:0:0:
256,192,208433,1,8,0:0:0:0:
256,192,208728,1,4,0:0:0:0:
256,192,209024,1,0,0:0:0:0:
256,192,209172,1,8,0:0:0:0:
256,192,209246,1,8,0:0:0:0:
256,192,209319,1,8,0:0:0:0:
256,192,209467,1,0,0:0:0:0:
256,192,209615,1,8,0:0:0:0:
256,192,209689,1,8,0:0:0:0:
256,192,209763,1,0,0:0:0:0:
256,192,209911,1,0,0:0:0:0:
256,192,210058,1,0,0:0:0:0:
256,192,210132,1,0,0:0:0:0:
256,192,210206,1,8,0:0:0:0:
256,192,210354,1,0,0:0:0:0:
256,192,210502,1,8,0:0:0:0:
256,192,210649,1,0,0:0:0:0:
256,192,210797,1,0,0:0:0:0:
256,192,211093,1,12,0:0:0:0:
256,192,211315,1,0,0:0:0:0:
256,192,211388,1,0,0:0:0:0:
256,192,211536,1,12,0:0:0:0:
256,192,211684,1,0,0:0:0:0:
256,192,211758,1,0,0:0:0:0:
256,192,211832,1,0,0:0:0:0:
256,192,211980,1,12,0:0:0:0:
256,192,212866,5,0,0:0:0:0:
256,192,213014,1,0,0:0:0:0:
256,192,213310,1,12,0:0:0:0:
256,192,222768,5,0,0:0:0:0:
256,192,223063,1,0,0:0:0:0:
256,192,223211,1,8,0:0:0:0:
256,192,223507,1,0,0:0:0:0:
256,192,223654,1,0,0:0:0:0:
256,192,223802,1,8,0:0:0:0:
256,192,224098,1,0,0:0:0:0:
256,192,224246,1,0,0:0:0:0:
256,192,224393,1,8,0:0:0:0:
256,192,224541,1,0,0:0:0:0:
256,192,224837,1,0,0:0:0:0:
256,192,224984,1,8,0:0:0:0:
256,192,225132,1,0,0:0:0:0:
256,192,225428,1,0,0:0:0:0:
256,192,225576,1,8,0:0:0:0:
256,192,225871,1,0,0:0:0:0:
256,192,226167,1,8,0:0:0:0:
256,192,226315,1,0,0:0:0:0:
256,192,226610,1,0,0:0:0:0:
256,192,226758,1,8,0:0:0:0:
256,192,227053,1,0,0:0:0:0:
256,192,227201,1,0,0:0:0:0:
256,192,227349,1,8,0:0:0:0:
256,192,227497,1,0,0:0:0:0:
256,192,227792,1,0,0:0:0:0:
256,192,227940,1,8,0:0:0:0:
256,192,228236,1,0,0:0:0:0:
256,192,228531,1,8,0:0:0:0:
256,192,228679,1,0,0:0:0:0:
256,192,228975,1,0,0:0:0:0:
256,192,229122,1,8,0:0:0:0:
256,192,229418,1,0,0:0:0:0:
256,192,229566,1,0,0:0:0:0:
256,192,229714,1,8,0:0:0:0:
256,192,229861,1,0,0:0:0:0:
256,192,230157,1,0,0:0:0:0:
256,192,230305,1,8,0:0:0:0:
256,192,230600,1,0,0:0:0:0:
256,192,230748,1,0,0:0:0:0:
256,192,230896,1,8,0:0:0:0:
256,192,231191,5,0,0:0:0:0:
256,192,231339,1,0,0:0:0:0:
256,192,231487,1,8,0:0:0:0:
256,192,231561,1,8,0:0:0:0:
256,192,231635,1,0,0:0:0:0:
256,192,231709,1,0,0:0:0:0:
256,192,231783,1,8,0:0:0:0:
256,192,231930,1,8,0:0:0:0:
256,192,232226,5,4,0:0:0:0:
256,192,232521,5,0,0:0:0:0:
256,192,232669,5,8,0:0:0:0:
256,192,232817,1,8,0:0:0:0:
256,192,232891,1,8,0:0:0:0:
256,192,232965,5,0,0:0:0:0:
256,192,233113,1,0,0:0:0:0:
256,192,233260,5,8,0:0:0:0:
256,192,233482,1,8,0:0:0:0:
256,192,233556,5,0,0:0:0:0:
256,192,233704,1,0,0:0:0:0:
256,192,233778,1,0,0:0:0:0:
256,192,233851,5,8,0:0:0:0:
256,192,233999,5,0,0:0:0:0:
256,192,234147,1,0,0:0:0:0:
256,192,234221,1,8,0:0:0:0:
256,192,234295,5,0,0:0:0:0:
256,192,234369,1,0,0:0:0:0:
256,192,234443,5,8,0:0:0:0:
256,192,234590,5,4,0:0:0:0:
256,192,234886,5,0,0:0:0:0:
256,192,235034,5,8,0:0:0:0:
256,192,235182,1,8,0:0:0:0:
256,192,235255,1,8,0:0:0:0:
256,192,235329,1,0,0:0:0:0:
256,192,235477,5,0,0:0:0:0:
256,192,235625,5,8,0:0:0:0:
256,192,235773,5,0,0:0:0:0:
256,192,235847,1,8,0:0:0:0:
256,192,235920,5,0,0:0:0:0:
256,192,235994,1,0,0:0:0:0:
256,192,236068,1,8,0:0:0:0:
256,192,236216,5,8,0:0:0:0:
256,192,236290,1,8,0:0:0:0:
256,192,236364,5,0,0:0:0:0:
256,192,236512,1,0,0:0:0:0:
256,192,236659,5,0,0:0:0:0:
256,192,236733,1,0,0:0:0:0:
256,192,236807,5,8,0:0:0:0:
256,192,236955,5,4,0:0:0:0:
256,192,237250,5,0,0:0:0:0:
256,192,237398,5,8,0:0:0:0:
256,192,237546,1,0,0:0:0:0:
256,192,237620,1,0,0:0:0:0:
256,192,237694,5,0,0:0:0:0:
256,192,237842,1,8,0:0:0:0:
256,192,237916,1,0,0:0:0:0:
256,192,237989,5,8,0:0:0:0:
256,192,238137,5,4,0:0:0:0:
256,192,238433,5,0,0:0:0:0:
256,192,238581,5,8,0:0:0:0:
256,192,238728,1,0,0:0:0:0:
256,192,238802,1,8,0:0:0:0:
256,192,238876,5,0,0:0:0:0:
256,192,239024,1,8,0:0:0:0:
256,192,239098,1,8,0:0:0:0:
256,192,239172,5,8,0:0:0:0:
256,192,239319,5,4,0:0:0:0:
256,192,239615,5,0,0:0:0:0:
256,192,239763,5,8,0:0:0:0:
256,192,239911,1,8,0:0:0:0:
256,192,239984,1,8,0:0:0:0:
256,192,240058,5,0,0:0:0:0:
256,192,240206,1,0,0:0:0:0:
256,192,240280,1,0,0:0:0:0:
256,192,240354,5,8,0:0:0:0:
256,192,240502,5,0,0:0:0:0:
256,192,240797,5,0,0:0:0:0:
256,192,240945,5,8,0:0:0:0:
256,192,241093,1,8,0:0:0:0:
256,192,241167,1,8,0:0:0:0:
256,192,241241,5,0,0:0:0:0:
256,192,241388,5,0,0:0:0:0:
256,192,241684,5,12,0:0:0:0:
256,192,241980,5,0,0:0:0:0:
256,192,242127,5,8,0:0:0:0:
256,192,242275,1,0,0:0:0:0:
256,192,242349,1,8,0:0:0:0:
256,192,242423,5,0,0:0:0:0:
256,192,242571,1,0,0:0:0:0:
256,192,242718,5,8,0:0:0:0:
256,192,242940,1,8,0:0:0:0:
256,192,243014,5,0,0:0:0:0:
256,192,243162,1,0,0:0:0:0:
256,192,243310,5,8,0:0:0:0:
256,192,243383,1,8,0:0:0:0:
256,192,243457,5,0,0:0:0:0:
256,192,243605,1,0,0:0:0:0:
256,192,243679,1,8,0:0:0:0:
256,192,243753,5,0,0:0:0:0:
256,192,243827,1,0,0:0:0:0:
256,192,243901,5,8,0:0:0:0:
256,192,244049,5,4,0:0:0:0:
256,192,244344,5,0,0:0:0:0:
256,192,244492,5,8,0:0:0:0:
256,192,244714,1,8,0:0:0:0:
256,192,244787,5,0,0:0:0:0:
256,192,244935,1,0,0:0:0:0:
256,192,245009,1,0,0:0:0:0:
256,192,245083,5,8,0:0:0:0:
256,192,245231,5,0,0:0:0:0:
256,192,245526,5,0,0:0:0:0:
256,192,245674,5,8,0:0:0:0:
256,192,245822,1,0,0:0:0:0:
256,192,245896,1,0,0:0:0:0:
256,192,245970,5,0,0:0:0:0:
256,192,246117,1,0,0:0:0:0:
256,192,246191,1,0,0:0:0:0:
256,192,246265,5,8,0:0:0:0:
256,192,246413,5,4,0:0:0:0:
256,192,246709,5,0,0:0:0:0:
256,192,246856,5,8,0:0:0:0:
256,192,247004,1,8,0:0:0:0:
256,192,247078,1,8,0:0:0:0:
256,192,247152,5,0,0:0:0:0:
256,192,247300,1,8,0:0:0:0:
256,192,247374,1,0,0:0:0:0:
256,192,247448,5,8,0:0:0:0:
256,192,247595,5,4,0:0:0:0:
256,192,247891,5,0,0:0:0:0:
256,192,248039,5,8,0:0:0:0:
256,192,248186,1,8,0:0:0:0:
256,192,248260,1,8,0:0:0:0:
256,192,248334,5,0,0:0:0:0:
256,192,248482,1,8,0:0:0:0:
256,192,248556,1,8,0:0:0:0:
256,192,248630,5,8,0:0:0:0:
256,192,248778,5,4,0:0:0:0:
256,192,249073,5,0,0:0:0:0:
256,192,249221,5,8,0:0:0:0:
256,192,249443,1,8,0:0:0:0:
256,192,249516,5,0,0:0:0:0:
256,192,249664,1,0,0:0:0:0:
256,192,249738,1,0,0:0:0:0:
256,192,249812,5,8,0:0:0:0:
256,192,249960,5,4,0:0:0:0:
256,192,250255,5,0,0:0:0:0:
256,192,250403,5,8,0:0:0:0:
256,192,250699,5,0,0:0:0:0:
256,192,250773,1,0,0:0:0:0:
256,192,250847,1,8,0:0:0:0:
256,192,250994,5,8,0:0:0:0:
256,192,251142,5,4,0:0:0:0:
256,192,251438,5,8,0:0:0:0:
256,192,251512,5,8,0:0:0:0:
256,192,251585,5,8,0:0:0:0:
256,192,251659,5,8,0:0:0:0:
256,192,251733,5,0,0:0:0:0:
256,192,251881,5,0,0:0:0:0:
256,192,251955,5,0,0:0:0:0:
256,192,252029,5,0,0:0:0:0:
256,192,252177,5,0,0:0:0:0:
256,192,252324,5,12,0:0:0:0:
256,192,252620,5,0,0:0:0:0:
256,192,252768,5,0,0:0:0:0:
256,192,253507,12,0,254689,0:0:0:0:
256,192,254837,5,8,0:0:0:0:
256,192,254911,1,8,0:0:0:0:
256,192,254984,1,0,0:0:0:0:
256,192,255132,1,0,0:0:0:0:
256,192,255206,1,0,0:0:0:0:
256,192,255280,1,0,0:0:0:0:
256,192,255428,1,8,0:0:0:0:
256,192,255576,1,8,0:0:0:0:
256,192,255871,5,4,0:0:0:0:
256,192,256167,1,0,0:0:0:0:
256,192,256315,5,8,0:0:0:0:
256,192,256610,1,0,0:0:0:0:
256,192,256758,1,0,0:0:0:0:
256,192,256906,5,8,0:0:0:0:
256,192,257053,1,0,0:0:0:0:
256,192,257127,1,8,0:0:0:0:
256,192,257201,1,0,0:0:0:0:
256,192,257349,1,0,0:0:0:0:
256,192,257497,5,8,0:0:0:0:
256,192,257645,1,0,0:0:0:0:
256,192,257718,1,0,0:0:0:0:
256,192,257792,1,8,0:0:0:0:
256,192,257940,1,8,0:0:0:0:
256,192,258014,1,8,0:0:0:0:
256,192,258088,5,8,0:0:0:0:
256,192,258236,5,4,0:0:0:0:
256,192,258531,1,0,0:0:0:0:
256,192,258679,5,8,0:0:0:0:
256,192,258975,1,0,0:0:0:0:
256,192,259122,1,0,0:0:0:0:
256,192,259270,5,8,0:0:0:0:
256,192,259418,1,0,0:0:0:0:
256,192,259492,1,0,0:0:0:0:
256,192,259566,1,8,0:0:0:0:
256,192,259714,1,0,0:0:0:0:
256,192,259861,5,8,0:0:0:0:
256,192,260009,1,8,0:0:0:0:
256,192,260083,1,8,0:0:0:0:
256,192,260157,1,8,0:0:0:0:
256,192,260305,1,0,0:0:0:0:
256,192,260452,5,8,0:0:0:0:
256,192,260600,5,4,0:0:0:0:
256,192,260896,1,0,0:0:0:0:
256,192,261044,5,8,0:0:0:0:
256,192,261191,1,0,0:0:0:0:
256,192,261265,1,0,0:0:0:0:
256,192,261339,1,8,0:0:0:0:
256,192,261487,1,0,0:0:0:0:
256,192,261635,5,8,0:0:0:0:
256,192,261709,1,8,0:0:0:0:
256,192,261783,1,0,0:0:0:0:
256,192,262078,1,0,0:0:0:0:
256,192,262226,5,8,0:0:0:0:
256,192,262374,1,8,0:0:0:0:
256,192,262448,1,8,0:0:0:0:
256,192,262521,1,0,0:0:0:0:
256,192,262669,1,0,0:0:0:0:
256,192,262817,5,8,0:0:0:0:
256,192,262965,5,4,0:0:0:0:
256,192,263260,1,0,0:0:0:0:
256,192,263408,5,8,0:0:0:0:
256,192,263556,1,0,0:0:0:0:
256,192,263630,1,0,0:0:0:0:
256,192,263704,1,8,0:0:0:0:
256,192,263851,1,0,0:0:0:0:
256,192,263999,5,8,0:0:0:0:
256,192,264147,5,4,0:0:0:0:
256,192,264443,1,0,0:0:0:0:
256,192,264590,5,8,0:0:0:0:
256,192,264664,1,8,0:0:0:0:
256,192,264738,1,0,0:0:0:0:
256,192,264886,1,8,0:0:0:0:
256,192,265034,1,8,0:0:0:0:
256,192,265329,5,4,0:0:0:0:
256,192,265625,1,0,0:0:0:0:
256,192,265773,5,8,0:0:0:0:
256,192,266068,1,0,0:0:0:0:
256,192,266216,1,0,0:0:0:0:
256,192,266364,5,8,0:0:0:0:
256,192,266512,1,0,0:0:0:0:
256,192,266585,1,0,0:0:0:0:
256,192,266659,1,8,0:0:0:0:
256,192,266807,1,8,0:0:0:0:
256,192,266955,5,8,0:0:0:0:
256,192,267103,1,0,0:0:0:0:
256,192,267177,1,0,0:0:0:0:
256,192,267250,1,8,0:0:0:0:
256,192,267398,1,8,0:0:0:0:
256,192,267472,1,8,0:0:0:0:
256,192,267546,5,8,0:0:0:0:
256,192,267694,5,4,0:0:0:0:
256,192,267989,1,0,0:0:0:0:
256,192,268137,5,8,0:0:0:0:
256,192,268285,1,0,0:0:0:0:
256,192,268359,1,0,0:0:0:0:
256,192,268433,1,8,0:0:0:0:
256,192,268581,1,8,0:0:0:0:
256,192,268728,5,8,0:0:0:0:
256,192,268802,1,8,0:0:0:0:
256,192,268876,1,0,0:0:0:0:
256,192,269172,1,0,0:0:0:0:
256,192,269319,5,8,0:0:0:0:
256,192,269615,1,0,0:0:0:0:
256,192,269763,1,0,0:0:0:0:
256,192,269837,1,0,0:0:0:0:
256,192,269911,5,8,0:0:0:0:
256,192,270058,5,4,0:0:0:0:
256,192,270354,1,0,0:0:0:0:
256,192,270502,5,8,0:0:0:0:
256,192,270649,1,8,0:0:0:0:
256,192,270723,1,8,0:0:0:0:
256,192,270797,1,8,0:0:0:0:
256,192,270945,1,0,0:0:0:0:
256,192,271093,5,8,0:0:0:0:
256,192,271241,5,4,0:0:0:0:
256,192,271536,1,0,0:0:0:0:
256,192,271684,5,8,0:0:0:0:
256,192,271832,1,0,0:0:0:0:
256,192,271906,1,0,0:0:0:0:
256,192,271980,1,8,0:0:0:0:
256,192,272127,1,0,0:0:0:0:
256,192,272275,5,8,0:0:0:0:
256,192,272423,5,4,0:0:0:0:
256,192,272718,1,0,0:0:0:0:
256,192,272866,5,8,0:0:0:0:
256,192,273014,1,8,0:0:0:0:
256,192,273088,1,8,0:0:0:0:
256,192,273162,1,8,0:0:0:0:
256,192,273310,1,0,0:0:0:0:
256,192,273383,1,0,0:0:0:0:
256,192,273457,5,8,0:0:0:0:
256,192,273605,1,0,0:0:0:0:
256,192,273901,1,0,0:0:0:0:
256,192,274049,5,12,0:0:0:0:
256,192,274344,1,0,0:0:0:0:
256,192,274492,1,0,0:0:0:0:
256,192,274566,1,0,0:0:0:0:
256,192,274640,5,8,0:0:0:0:
256,192,274787,1,4,0:0:0:0:
256,192,275083,1,0,0:0:0:0:
256,192,275231,5,8,0:0:0:0:
256,192,275379,5,0,0:0:0:0:
256,192,275526,1,8,0:0:0:0:
256,192,275600,1,8,0:0:0:0:
256,192,275674,1,0,0:0:0:0:
256,192,275748,1,0,0:0:0:0:
256,192,275822,1,0,0:0:0:0:
256,192,275970,5,12,0:0:0:0:
256,192,276265,5,0,0:0:0:0:
256,192,276413,5,0,0:0:0:0:
256,192,277152,12,0,282029,0:0:0:0:
