osu file format v14

[General]
AudioFilename: audio.mp3
AudioLeadIn: 0
PreviewTime: 51838
Countdown: 0
SampleSet: Normal
StackLeniency: 0.7
Mode: 1
LetterboxInBreaks: 0
WidescreenStoryboard: 0

[Editor]
DistanceSpacing: 0.5
BeatDivisor: 4
GridSize: 8
TimelineZoom: 1.5

[Metadata]
Title:Yozora (TV Size)
TitleUnicode:夜空 (TV Size)
Artist:Suzuki Minori
ArtistUnicode:鈴木みのり
Creator:yuki_momoiro722
Version:Oni
Source:恋する小惑星
Tags:taiko japanese anime ending ed koisuru asteroid in love アステロイド koi suru 中村砂羽 Nakamura Sawa h-wonder
BeatmapID:2267348
BeatmapSetID:1084175

[Difficulty]
HPDrainRate:6
CircleSize:2
OverallDifficulty:5
ApproachRate:10
SliderMultiplier:1.4
SliderTickRate:1

[Events]
//Background and Video events
0,0,"bg.jpeg",0,-120
//Break Periods
//Storyboard Layer 0 (Background)
//Storyboard Layer 1 (Fail)
//Storyboard Layer 2 (Pass)
//Storyboard Layer 3 (Foreground)
//Storyboard Layer 4 (Overlay)
//Storyboard Sound Samples

[TimingPoints]
4280,705.882352941176,4,1,0,60,1,0
15574,-100,4,1,0,60,0,0
38162,-100,4,1,0,60,0,0
43809,-100,4,1,0,65,0,0
51574,-95.2380952380952,4,1,0,65,0,0
51927,-90.9090909090909,4,1,0,65,0,0
52279,-83.3333333333333,4,1,0,70,0,1
94456,-83.3333333333333,4,1,0,50,0,1
94632,-83.3333333333333,4,1,0,50,0,0
96044,-90.9090909090909,4,1,0,50,0,0
97456,-100,4,1,0,20,0,0

[HitObjects]
256,192,4280,5,0,0:0:0:0:
256,192,4985,5,0,0:0:0:0:
256,192,5691,5,8,0:0:0:0:
256,192,6044,5,0,0:0:0:0:
256,192,6397,5,8,0:0:0:0:
256,192,6750,5,8,0:0:0:0:
256,192,7103,5,0,0:0:0:0:
256,192,7809,5,0,0:0:0:0:
256,192,8515,5,8,0:0:0:0:
256,192,8868,5,8,0:0:0:0:
256,192,9221,5,0,0:0:0:0:
256,192,9574,5,8,0:0:0:0:
256,192,9927,5,0,0:0:0:0:
256,192,10632,5,0,0:0:0:0:
256,192,10985,5,0,0:0:0:0:
256,192,11338,5,8,0:0:0:0:
256,192,11691,5,0,0:0:0:0:
256,192,12044,5,8,0:0:0:0:
256,192,12397,5,8,0:0:0:0:
256,192,12750,5,0,0:0:0:0:
256,192,14162,5,8,0:0:0:0:
256,192,15397,5,0,0:0:0:0:
256,192,15574,5,8,0:0:0:0:
256,192,15927,5,0,0:0:0:0:
256,192,16103,5,0,0:0:0:0:
256,192,16632,5,8,0:0:0:0:
256,192,16809,5,0,0:0:0:0:
256,192,17338,5,0,0:0:0:0:
256,192,17691,5,8,0:0:0:0:
256,192,18044,5,0,0:0:0:0:
256,192,18221,5,0,0:0:0:0:
256,192,18397,5,0,0:0:0:0:
256,192,19103,5,8,0:0:0:0:
256,192,19632,5,0,0:0:0:0:
256,192,19809,5,8,0:0:0:0:
256,192,20515,5,8,0:0:0:0:
256,192,20868,5,0,0:0:0:0:
256,192,21221,5,8,0:0:0:0:
256,192,21574,5,8,0:0:0:0:
256,192,21750,5,0,0:0:0:0:
256,192,22279,5,0,0:0:0:0:
256,192,22456,5,8,0:0:0:0:
256,192,22985,5,0,0:0:0:0:
256,192,23338,5,8,0:0:0:0:
256,192,23691,5,0,0:0:0:0:
256,192,23868,5,0,0:0:0:0:
256,192,24044,5,8,0:0:0:0:
256,192,24750,5,8,0:0:0:0:
256,192,25103,5,0,0:0:0:0:
256,192,25456,5,0,0:0:0:0:
256,192,26162,5,8,0:0:0:0:
256,192,26515,5,0,0:0:0:0:
256,192,26868,5,8,0:0:0:0:
256,192,27221,5,0,0:0:0:0:
256,192,27397,5,8,0:0:0:0:
256,192,27750,5,8,0:0:0:0:
256,192,27927,5,0,0:0:0:0:
256,192,28632,5,0,0:0:0:0:
256,192,28985,5,8,0:0:0:0:
256,192,29162,5,0,0:0:0:0:
256,192,29338,5,0,0:0:0:0:
256,192,29691,5,0,0:0:0:0:
256,192,30397,5,0,0:0:0:0:
256,192,30750,5,8,0:0:0:0:
256,192,31103,5,8,0:0:0:0:
256,192,31456,5,0,0:0:0:0:
256,192,31809,5,8,0:0:0:0:
256,192,32162,5,0,0:0:0:0:
256,192,32515,5,8,0:0:0:0:
256,192,33221,5,8,0:0:0:0:
256,192,33574,5,0,0:0:0:0:
256,192,33927,5,8,0:0:0:0:
256,192,34279,5,8,0:0:0:0:
256,192,34632,5,0,0:0:0:0:
256,192,34985,5,0,0:0:0:0:
256,192,35338,5,8,0:0:0:0:
256,192,36044,5,8,0:0:0:0:
256,192,36397,5,0,0:0:0:0:
256,192,36750,5,8,0:0:0:0:
256,192,37103,5,8,0:0:0:0:
256,192,37456,5,0,0:0:0:0:
256,192,37809,5,8,0:0:0:0:
256,192,38162,5,0,0:0:0:0:
256,192,38868,5,8,0:0:0:0:
256,192,39221,5,8,0:0:0:0:
256,192,39397,5,8,0:0:0:0:
256,192,39927,5,0,0:0:0:0:
256,192,40103,5,0,0:0:0:0:
256,192,40632,5,8,0:0:0:0:
256,192,40809,5,8,0:0:0:0:
256,192,41691,5,8,0:0:0:0:
256,192,42221,5,0,0:0:0:0:
256,192,42397,5,0,0:0:0:0:
256,192,42750,5,8,0:0:0:0:
256,192,42927,5,0,0:0:0:0:
256,192,43456,5,8,0:0:0:0:
256,192,43809,5,0,0:0:0:0:
256,192,44162,5,0,0:0:0:0:
256,192,44515,5,8,0:0:0:0:
256,192,45221,5,0,0:0:0:0:
256,192,45574,5,0,0:0:0:0:
256,192,45927,5,8,0:0:0:0:
256,192,46632,5,0,0:0:0:0:
256,192,46985,5,0,0:0:0:0:
256,192,47338,5,8,0:0:0:0:
256,192,47691,5,0,0:0:0:0:
256,192,48044,5,0,0:0:0:0:
256,192,48397,5,8,0:0:0:0:
256,192,48750,5,8,0:0:0:0:
256,192,48927,5,8,0:0:0:0:
256,192,49103,5,0,0:0:0:0:
256,192,49456,5,8,0:0:0:0:
256,192,49809,5,0,0:0:0:0:
256,192,49985,5,0,0:0:0:0:
256,192,50338,5,0,0:0:0:0:
256,192,50515,5,8,0:0:0:0:
256,192,51044,5,8,0:0:0:0:
256,192,51221,5,0,0:0:0:0:
256,192,51574,5,8,0:0:0:0:
256,192,51927,5,0,0:0:0:0:
256,192,52279,5,4,0:0:0:0:
256,192,52632,5,0,0:0:0:0:
256,192,52809,5,0,0:0:0:0:
256,192,52985,5,8,0:0:0:0:
256,192,53338,5,0,0:0:0:0:
256,192,53515,5,8,0:0:0:0:
256,192,54044,5,0,0:0:0:0:
256,192,54397,5,8,0:0:0:0:
256,192,54750,5,8,0:0:0:0:
256,192,54927,5,8,0:0:0:0:
256,192,55103,5,0,0:0:0:0:
256,192,55456,5,0,0:0:0:0:
256,192,55809,5,8,0:0:0:0:
256,192,56162,5,0,0:0:0:0:
256,192,56338,5,8,0:0:0:0:
256,192,56515,5,0,0:0:0:0:
256,192,56868,5,0,0:0:0:0:
256,192,57221,5,8,0:0:0:0:
256,192,57574,5,0,0:0:0:0:
256,192,57927,5,8,0:0:0:0:
256,192,58279,5,0,0:0:0:0:
256,192,58456,5,8,0:0:0:0:
256,192,58985,5,8,0:0:0:0:
256,192,59338,5,0,0:0:0:0:
256,192,59691,5,8,0:0:0:0:
256,192,60044,5,8,0:0:0:0:
256,192,60397,5,0,0:0:0:0:
256,192,60750,5,8,0:0:0:0:
256,192,60927,5,8,0:0:0:0:
256,192,61279,5,0,0:0:0:0:
256,192,61456,5,8,0:0:0:0:
256,192,61632,5,8,0:0:0:0:
256,192,61809,5,0,0:0:0:0:
256,192,62162,5,12,0:0:0:0:
256,192,62515,5,8,0:0:0:0:
256,192,62691,5,8,0:0:0:0:
256,192,62868,5,4,0:0:0:0:
256,192,63221,5,0,0:0:0:0:
256,192,63397,5,0,0:0:0:0:
256,192,63574,5,12,0:0:0:0:
256,192,64279,5,8,0:0:0:0:
256,192,64632,5,0,0:0:0:0:
256,192,64809,5,8,0:0:0:0:
256,192,64985,5,0,0:0:0:0:
256,192,65162,5,0,0:0:0:0:
256,192,65338,5,0,0:0:0:0:
256,192,65691,5,8,0:0:0:0:
256,192,66044,5,0,0:0:0:0:
256,192,66221,5,0,0:0:0:0:
256,192,66397,5,8,0:0:0:0:
256,192,67103,5,8,0:0:0:0:
256,192,67456,5,0,0:0:0:0:
256,192,67632,5,0,0:0:0:0:
256,192,67809,5,8,0:0:0:0:
256,192,67985,5,8,0:0:0:0:
256,192,68162,5,0,0:0:0:0:
256,192,68515,5,8,0:0:0:0:
256,192,68868,5,8,0:0:0:0:
256,192,69044,5,8,0:0:0:0:
256,192,69221,5,4,0:0:0:0:
256,192,69927,5,8,0:0:0:0:
256,192,70279,5,0,0:0:0:0:
256,192,70456,5,0,0:0:0:0:
256,192,70632,5,8,0:0:0:0:
256,192,70985,5,8,0:0:0:0:
256,192,71162,5,0,0:0:0:0:
256,192,71338,5,8,0:0:0:0:
256,192,71691,5,8,0:0:0:0:
256,192,72044,5,4,0:0:0:0:
256,192,72397,5,0,0:0:0:0:
256,192,72750,5,8,0:0:0:0:
256,192,72927,5,8,0:0:0:0:
256,192,73103,5,0,0:0:0:0:
256,192,73456,5,8,0:0:0:0:
256,192,73809,5,0,0:0:0:0:
256,192,73985,5,0,0:0:0:0:
256,192,74162,5,8,0:0:0:0:
256,192,74338,5,8,0:0:0:0:
256,192,74515,5,0,0:0:0:0:
256,192,74868,5,12,0:0:0:0:
256,192,75221,5,0,0:0:0:0:
256,192,75397,5,0,0:0:0:0:
256,192,75574,5,8,0:0:0:0:
256,192,75927,5,0,0:0:0:0:
256,192,76103,5,8,0:0:0:0:
256,192,76632,5,0,0:0:0:0:
256,192,76985,5,8,0:0:0:0:
256,192,77338,5,8,0:0:0:0:
256,192,77515,5,0,0:0:0:0:
256,192,77691,5,8,0:0:0:0:
256,192,78044,5,0,0:0:0:0:
256,192,78397,5,8,0:0:0:0:
256,192,78750,5,0,0:0:0:0:
256,192,78927,5,8,0:0:0:0:
256,192,79103,5,0,0:0:0:0:
256,192,79456,5,0,0:0:0:0:
256,192,79809,5,8,0:0:0:0:
256,192,80162,5,0,0:0:0:0:
256,192,80515,5,12,0:0:0:0:
256,192,80868,5,0,0:0:0:0:
256,192,81044,5,8,0:0:0:0:
256,192,81574,5,8,0:0:0:0:
256,192,81927,5,0,0:0:0:0:
256,192,82279,5,0,0:0:0:0:
256,192,82456,5,0,0:0:0:0:
256,192,82632,5,8,0:0:0:0:
256,192,82985,5,0,0:0:0:0:
256,192,83338,5,8,0:0:0:0:
256,192,83515,5,8,0:0:0:0:
256,192,83868,5,0,0:0:0:0:
256,192,84044,5,8,0:0:0:0:
256,192,84221,5,8,0:0:0:0:
256,192,84397,5,0,0:0:0:0:
256,192,84750,5,4,0:0:0:0:
256,192,85103,5,0,0:0:0:0:
256,192,85279,5,0,0:0:0:0:
256,192,85456,5,12,0:0:0:0:
256,192,85809,5,8,0:0:0:0:
256,192,85985,5,0,0:0:0:0:
256,192,86162,5,12,0:0:0:0:
256,192,86868,5,8,0:0:0:0:
256,192,87221,5,0,0:0:0:0:
256,192,87397,5,8,0:0:0:0:
256,192,87574,5,0,0:0:0:0:
256,192,87750,5,0,0:0:0:0:
256,192,87927,5,0,0:0:0:0:
256,192,88279,5,8,0:0:0:0:
256,192,88632,5,0,0:0:0:0:
256,192,88809,5,0,0:0:0:0:
256,192,88985,5,8,0:0:0:0:
256,192,89691,5,12,0:0:0:0:
256,192,90044,5,0,0:0:0:0:
256,192,90397,5,8,0:0:0:0:
256,192,90750,5,8,0:0:0:0:
256,192,90927,5,8,0:0:0:0:
256,192,91103,5,0,0:0:0:0:
256,192,91279,5,0,0:0:0:0:
256,192,91456,5,0,0:0:0:0:
256,192,91809,5,12,0:0:0:0:
256,192,92338,5,0,0:0:0:0:
256,192,92515,5,8,0:0:0:0:
256,192,92868,5,0,0:0:0:0:
256,192,93221,5,8,0:0:0:0:
256,192,93397,5,8,0:0:0:0:
256,192,93574,5,0,0:0:0:0:
256,192,93750,5,8,0:0:0:0:
256,178,93927,5,0,0:0:0:0:
256,192,94279,5,0,0:0:0:0:
256,192,94632,5,8,0:0:0:0:
256,192,96044,5,0,0:0:0:0:
256,192,97456,12,0,100456,0:0:0:0:
