osu file format v14

[General]
AudioFilename: audio.mp3
AudioLeadIn: 0
PreviewTime: 51825
Countdown: 0
SampleSet: Soft
StackLeniency: 0.7
Mode: 2
LetterboxInBreaks: 0
WidescreenStoryboard: 1

[Editor]
DistanceSpacing: 1.4
BeatDivisor: 4
GridSize: 8
TimelineZoom: 2.4

[Metadata]
Title:Yozora (TV Size)
TitleUnicode:夜空 (TV Size)
Artist:Suzuki Minori
ArtistUnicode:鈴木みのり
Creator:Yumeno Himiko
Version:Salad
Source:恋する小惑星
Tags:Koisuru Asteroid アステロイド ending ed japanese anime 芳文社 houbunsha 動画工房 Douga Koubou 木ノ幡みら Konohata Mira 真中あお Manaka Ao 森野真理 Morino Mari 猪瀬舞 Inose Mai 桜井美景 Sakurai Mikage 鈴矢萌 Suzuya Moe 木ノ幡みさ Michi 遠藤幸 Endou Yuki 中村砂羽 Nakamura Sawa h-wonder Greaper Mafumafu Regraz examination exam
BeatmapID:2276345
BeatmapSetID:1088650

[Difficulty]
HPDrainRate:4
CircleSize:3
OverallDifficulty:7
ApproachRate:7
SliderMultiplier:2.1
SliderTickRate:2

[Events]
//Background and Video events
Video,17200,"Yozora.avi"
0,0,"BG.jpg",0,0
//Break Periods
//Storyboard Layer 0 (Background)
//Storyboard Layer 1 (Fail)
//Storyboard Layer 2 (Pass)
//Storyboard Layer 3 (Foreground)
//Storyboard Layer 4 (Overlay)
//Storyboard Sound Samples

[TimingPoints]
1443,705.882352941176,4,2,1,30,1,0
14855,-100,4,2,1,10,0,0
15384,-100,4,2,1,30,0,0
25443,-100,4,2,1,35,0,0
26855,-100,4,2,1,40,0,0
29325,-100,4,2,1,35,0,0
38149,-100,4,2,3,30,0,0
42208,-100,4,2,3,35,0,0
43796,-100,4,2,1,40,0,0
46972,-100,4,2,1,50,0,0
52266,-83.3333333333333,4,2,2,70,0,1
63560,-83.3333333333333,4,2,2,60,0,0
74854,-83.3333333333333,4,2,2,70,0,1
86148,-83.3333333333333,4,2,2,60,0,0
93325,-83.3333333333333,4,2,2,40,0,0
93561,-83.3333333333333,4,2,2,35,0,0
94620,-83.3333333333333,4,2,2,40,0,0
97443,-83.3333333333333,4,2,3,40,0,0
101678,-83.3333333333333,4,2,3,30,0,0
102384,-83.3333333333333,4,2,3,20,0,0
102737,-83.3333333333333,4,2,3,10,0,0
103090,-83.3333333333333,4,2,2,5,0,0

[Colours]
Combo1 : 118,197,197
Combo2 : 244,70,131
Combo3 : 198,123,177
Combo4 : 248,233,171
Combo5 : 243,143,146
Combo6 : 149,99,190
Combo7 : 184,174,165

[HitObjects]
256,192,12737,12,0,14854,0:0:0:0:
336,288,15384,5,0,0:0:0:0:
424,288,15560,6,0,P|488:240|408:160,1,210,6|8,0:0|0:0,0:0:0:0:
296,152,16619,1,0,0:0:0:0:
168,152,16972,2,0,L|64:80,2,105,8|0|8,0:0|0:0|0:0,0:0:0:0:
320,152,18031,1,4,0:0:0:0:
56,304,18384,6,0,P|16:240|112:160,1,210,6|8,0:0|0:0,0:0:0:0:
344,192,19619,1,2,0:0:0:0:
256,192,19795,2,0,P|208:144|216:88,1,105,10|0,0:0|0:0,0:0:0:0:
336,104,20501,1,8,0:0:0:0:
206,110,20854,1,4,0:0:0:0:
488,112,21207,6,0,P|480:168|344:240,1,210,6|8,0:0|0:0,0:0:0:0:
232,240,22266,1,0,0:0:0:0:
358,242,22619,2,0,L|464:184,2,105,8|0|8,0:0|0:0|0:0,0:0:0:0:
232,240,23678,1,4,0:0:0:0:
496,248,24031,6,0,P|504:192|392:80,1,210,6|8,0:0|0:0,0:0:0:0:
288,80,25090,1,2,0:0:0:0:
160,80,25442,2,0,L|144:192,1,105,10|0,0:0|0:0,0:0:0:0:
336,184,26148,2,0,L|344:296,1,105,10|4,0:0|0:0,0:0:0:0:
72,296,26854,6,0,P|48:224|160:144,1,210,6|8,0:0|0:0,0:0:0:0:
264,144,27913,1,2,0:0:0:0:
136,144,28266,2,0,L|96:32,1,105,8|0,0:0|0:0,0:0:0:0:
224,40,28972,1,8,0:0:0:0:
96,40,29325,1,6,0:0:0:0:
352,48,29678,6,0,P|416:64|336:136,1,210,6|8,0:0|0:0,0:0:0:0:
232,152,30737,1,2,0:0:0:0:
360,152,31090,2,0,L|464:152,2,105,10|0|8,0:0|0:0|0:0,0:0:0:0:
480,200,32148,1,6,0:0:0:0:
208,200,32501,6,0,P|144:192|48:64,1,210,6|8,0:0|0:0,0:0:0:0:
176,72,33560,1,2,0:0:0:0:
304,56,33913,1,10,0:0:0:0:
176,128,34266,1,2,0:0:0:0:
72,208,34619,1,8,0:0:0:0:
192,192,34972,1,6,0:0:0:0:
488,184,35325,6,0,P|504:248|384:328,1,210,6|8,0:0|0:0,0:0:0:0:
280,328,36384,1,6,0:0:0:0:
128,320,36737,2,0,L|120:184,1,105,10|2,0:0|0:0,0:0:0:0:
312,192,37442,2,0,L|320:72,1,105,2|2,0:0|0:0,0:0:0:0:
48,64,38148,5,4,0:0:0:0:
296,72,38854,2,0,L|304:184,1,105,2|2,0:0|0:0,0:0:0:0:
208,176,39384,2,0,P|152:208|208:288,1,157.5,2|2,0:0|0:0,0:0:0:0:
288,288,40090,1,2,0:0:0:0:
91,155,40619,1,2,0:0:0:0:
200,160,40795,6,0,P|272:160|392:24,1,262.5,2|0,0:0|0:0,0:0:0:0:
208,72,42207,1,2,0:0:0:0:
312,72,42384,6,0,P|360:128|312:192,1,157.5,2|2,0:0|0:0,0:0:0:0:
168,208,43442,1,2,0:0:0:0:
448,216,43795,6,0,L|456:96,1,105,4|2,0:0|0:0,0:0:0:0:
328,112,44501,1,6,0:0:0:0:
456,112,44854,1,0,0:0:0:0:
192,312,45207,2,0,L|184:184,1,105,4|2,0:0|0:0,0:0:0:0:
312,192,45913,1,6,0:0:0:0:
440,168,46266,1,0,0:0:0:0:
168,104,46619,6,0,L|32:96,1,105,2|2,3:2|0:0,0:0:0:0:
192,104,47325,2,0,L|184:216,1,105,6|4,0:0|0:0,0:0:0:0:
440,312,48031,1,4,0:0:0:0:
312,296,48384,1,6,0:0:0:0:
184,280,48737,2,0,L|168:144,1,105,6|4,0:0|0:0,0:0:0:0:
440,136,49442,5,8,3:0:0:0:
312,112,49795,2,0,L|240:96,1,52.5,4|8,0:0|3:0,0:0:0:0:
424,280,50325,2,0,L|496:272,1,52.5,4|2,0:0|3:0,0:0:0:0:
304,272,50854,6,0,L|192:248,1,105,0|8,0:0|3:0,0:0:0:0:
472,136,51560,1,8,3:0:0:0:
440,128,51913,1,2,0:0:0:0:
96,104,52266,6,0,L|88:238,1,125.999996154785,6|2,0:0|0:0,0:0:0:0:
264,240,52972,2,0,L|392:288,1,125.999996154785,8|2,0:0|0:0,0:0:0:0:
296,280,53501,1,2,0:0:0:0:
208,280,53678,2,0,L|88:208,1,125.999996154785,4|2,3:0|0:0,0:0:0:0:
456,104,54384,1,10,0:0:0:0:
280,88,54737,1,2,0:0:0:0:
120,168,55090,6,0,L|128:24,1,125.999996154785,4|4,3:0|3:0,0:0:0:0:
464,272,55795,2,0,L|472:96,1,125.999996154785,8|0,0:0|0:0,0:0:0:0:
288,128,56501,2,0,L|136:104,1,125.999996154785,4|0,3:0|0:0,0:0:0:0:
472,48,57207,1,8,0:0:0:0:
456,168,57560,1,2,0:0:0:0:
168,160,57913,6,0,L|304:152,1,125.999996154785,6|0,0:0|0:0,0:0:0:0:
136,232,58619,2,0,L|32:152,1,125.999996154785,8|2,0:0|0:0,0:0:0:0:
120,144,59148,1,0,0:0:0:0:
208,136,59325,2,0,L|344:128,1,125.999996154785,2|2,0:0|0:0,0:0:0:0:
72,72,60031,1,10,0:0:0:0:
248,80,60384,1,2,0:0:0:0:
120,168,60737,6,0,L|0:160,2,94.499997116089,2|2|2,0:0|0:0|3:2,0:0:0:0:
312,240,61442,1,8,0:0:0:0:
176,240,61795,2,0,L|168:152,1,62.9999980773926,4|0,3:0|0:0,0:0:0:0:
352,152,62148,6,0,L|488:136,1,125.999996154785,4|4,0:0|3:0,0:0:0:0:
160,320,62854,2,0,L|32:304,1,125.999996154785,4|2,0:0|3:2,0:0:0:0:
336,304,63560,6,0,P|408:304|472:152,1,251.999992309571,6|8,0:0|0:0,0:0:0:0:
336,160,64619,1,2,0:0:0:0:
192,160,64972,2,0,L|176:16,1,125.999996154785,2|4,0:0|3:0,0:0:0:0:
432,24,65678,2,0,L|280:40,1,125.999996154785,8|2,0:0|0:0,0:0:0:0:
440,128,66384,6,0,P|480:192|360:288,1,251.999992309571,2|8,0:0|0:0,0:0:0:0:
192,272,67442,1,2,0:0:0:0:
344,240,67795,2,0,L|440:240,2,62.9999980773926,2|0|4,0:0|3:0|3:0,0:0:0:0:
64,80,68501,1,8,0:0:0:0:
240,80,68854,2,0,L|312:80,1,62.9999980773926,2|2,0:0|0:0,0:0:0:0:
136,152,69207,6,0,P|104:216|240:296,1,251.999992309571,6|8,0:0|0:0,0:0:0:0:
400,280,70266,1,2,0:0:0:0:
224,240,70619,2,0,L|88:240,2,125.999996154785,2|2|10,0:0|0:0|0:0,0:0:0:0:
80,160,71678,1,2,0:0:0:0:
368,160,72031,6,0,P|432:192|352:320,1,251.999992309571,4|4,0:0|3:0,0:0:0:0:
192,320,73090,1,2,3:2:0:0:
464,328,73442,2,0,L|312:307,1,125.999996154785,2|4,3:2|3:0,0:0:0:0:
192,216,74148,2,0,L|176:80,1,125.999996154785,4|2,3:0|3:2,0:0:0:0:
472,48,74854,6,0,L|320:56,1,125.999996154785,6|2,0:0|0:0,0:0:0:0:
168,72,75560,2,0,L|160:208,1,125.999996154785,8|2,0:0|0:0,0:0:0:0:
248,200,76090,1,2,0:0:0:0:
336,200,76266,2,0,L|456:272,1,125.999996154785,4|2,3:0|0:0,0:0:0:0:
152,240,76972,1,10,0:0:0:0:
328,280,77325,1,2,0:0:0:0:
160,288,77678,6,0,L|144:144,1,125.999996154785,4|2,3:0|0:0,0:0:0:0:
440,104,78384,2,0,L|296:128,1,125.999996154785,8|0,0:0|0:0,0:0:0:0:
144,160,79090,1,0,3:0:0:0:
312,192,79442,1,0,3:0:0:0:
32,296,79795,1,12,0:0:0:0:
136,288,80148,1,2,0:0:0:0:
456,216,80501,6,0,L|464:80,1,125.999996154785,6|2,0:0|0:0,0:0:0:0:
312,64,81207,2,0,L|448:64,1,125.999996154785,10|2,0:0|0:0,0:0:0:0:
352,64,81737,1,0,0:0:0:0:
264,56,81913,2,0,L|120:56,1,125.999996154785,2|2,0:0|0:0,0:0:0:0:
432,192,82619,1,10,0:0:0:0:
272,272,82972,1,2,0:0:0:0:
416,280,83325,6,0,L|288:264,1,125.999996154785,2|8,0:0|0:0,0:0:0:0:
184,72,83854,1,2,0:0:0:0:
96,112,84031,1,8,0:0:0:0:
56,200,84207,1,4,3:0:0:0:
96,288,84384,1,0,3:0:0:0:
360,304,84737,6,0,L|504:288,1,125.999996154785,4|4,0:0|3:0,0:0:0:0:
208,168,85442,2,0,L|72:152,1,125.999996154785,4|0,0:0|3:0,0:0:0:0:
384,40,86148,6,0,P|440:80|368:224,1,251.999992309571,6|8,0:0|0:0,0:0:0:0:
224,224,87207,1,2,0:0:0:0:
376,224,87560,2,0,L|512:224,1,125.999996154785,2|4,0:0|3:0,0:0:0:0:
200,224,88266,2,0,L|184:88,1,125.999996154785,8|2,0:0|0:0,0:0:0:0:
360,96,88972,6,0,L|504:96,1,125.999996154785,2|4,0:0|3:0,0:0:0:0:
208,240,89678,1,12,0:0:0:0:
368,240,90031,1,2,0:0:0:0:
208,240,90384,2,0,L|56:240,2,125.999996154785,2|10|2,0:0|0:0|0:0,0:0:0:0:
48,160,91442,1,2,0:0:0:0:
352,160,91795,6,0,P|416:192|336:320,1,251.999992309571,6|8,0:0|0:0,0:0:0:0:
176,320,92854,1,4,3:0:0:0:
456,312,93207,6,0,L|448:176,1,125.999996154785,4|4,3:0|3:0,0:0:0:0:
264,152,93913,2,0,L|120:136,1,125.999996154785,4|4,3:0|3:0,0:0:0:0:
432,72,94619,6,0,P|496:136|336:320,1,377.999988464356,2|2,0:0|0:0,0:0:0:0:
56,320,96031,2,0,P|8:240|176:48,1,377.999988464356,2|2,0:0|0:0,0:0:0:0:
472,40,97442,6,0,L|464:184,1,125.999996154785,4|0,0:0|0:0,0:0:0:0:
320,176,98148,2,0,L|64:200,1,251.999992309571,2|2,0:0|0:0,0:0:0:0:
208,248,99207,1,0,0:0:0:0:
368,288,99560,2,0,L|384:144,1,125.999996154785,2|0,0:0|0:0,0:0:0:0:
117,147,100266,5,2,0:0:0:0:
103,132,100325,1,0,0:0:0:0:
118,121,100384,1,0,0:0:0:0:
106,103,100442,1,4,0:0:0:0:
256,192,100972,12,0,103090,0:0:0:0:
