osu file format v14

[General]
AudioFilename: audio.mp3
AudioLeadIn: 0
PreviewTime: 51825
Countdown: 0
SampleSet: Soft
StackLeniency: 0.7
Mode: 2
LetterboxInBreaks: 0
WidescreenStoryboard: 1

[Editor]
DistanceSpacing: 0.8
BeatDivisor: 4
GridSize: 16
TimelineZoom: 1.3

[Metadata]
Title:Yozora (TV Size)
TitleUnicode:夜空 (TV Size)
Artist:Suzuki Minori
ArtistUnicode:鈴木みのり
Creator:Yumeno Himiko
Version:Regraz's Rain
Source:恋する小惑星
Tags:Koisuru Asteroid アステロイド ending ed japanese anime 芳文社 houbunsha 動画工房 Douga Koubou 木ノ幡みら Konohata Mira 真中あお Manaka Ao 森野真理 Morino Mari 猪瀬舞 Inose Mai 桜井美景 Sakurai Mikage 鈴矢萌 Suzuya Moe 木ノ幡みさ Michi 遠藤幸 Endou Yuki 中村砂羽 Nakamura Sawa h-wonder Greaper Mafumafu Regraz examination exam
BeatmapID:2282273
BeatmapSetID:1088650

[Difficulty]
HPDrainRate:6
CircleSize:4
OverallDifficulty:8.8
ApproachRate:8.8
SliderMultiplier:3.59999990463257
SliderTickRate:2

[Events]
//Background and Video events
Video,17200,"Yozora.avi"
0,0,"BG.jpg",0,0
//Break Periods
//Storyboard Layer 0 (Background)
//Storyboard Layer 1 (Fail)
//Storyboard Layer 2 (Pass)
//Storyboard Layer 3 (Foreground)
//Storyboard Layer 4 (Overlay)
//Storyboard Sound Samples

[TimingPoints]
1443,705.882352941176,4,2,1,30,1,0
14855,-125,4,2,1,10,0,0
15384,-125,4,2,1,30,0,0
25443,-125,4,2,1,35,0,0
26855,-125,4,2,1,40,0,0
27561,-125,4,2,10,30,0,0
27649,-125,4,2,1,30,0,0
29325,-125,4,2,1,35,0,0
38149,-125,4,2,3,30,0,0
42208,-125,4,2,3,35,0,0
43796,-125,4,2,1,40,0,0
46972,-125,4,2,1,50,0,0
52266,-100,4,2,2,70,0,1
52267,-100,4,2,2,70,0,1
63560,-100,4,2,2,60,0,0
63561,-100,4,2,2,60,0,0
74854,-100,4,2,2,70,0,1
74855,-100,4,2,2,70,0,1
86148,-100,4,2,2,60,0,0
86149,-100,4,2,2,60,0,0
93325,-100,4,2,2,40,0,0
93561,-100,4,2,2,35,0,0
94620,-100,4,2,2,40,0,0
97443,-100,4,2,3,40,0,0
101678,-100,4,2,3,30,0,0
102384,-100,4,2,3,20,0,0
102737,-100,4,2,3,10,0,0
103090,-100,4,2,2,5,0,0

[Colours]
Combo1 : 118,197,197
Combo2 : 244,70,131
Combo3 : 198,123,177
Combo4 : 248,233,171
Combo5 : 243,143,146
Combo6 : 149,99,190
Combo7 : 184,174,165

[HitObjects]
256,192,12737,12,0,14854,0:0:0:0:
192,240,15384,5,0,0:0:0:0:
352,240,15560,2,0,P|432:224|483:172,2,143.999996185303,6|2|8,0:0|0:0|0:0,0:0:0:0:
496,208,16619,2,0,L|432:160,1,71.9999980926514,0|2,0:0|0:0,0:0:0:0:
281,147,16972,2,0,P|181:150|144:112,2,143.999996185303,8|0|8,0:0|0:0|0:0,0:0:0:0:
448,144,18031,2,0,L|384:112,1,71.9999980926514,6|0,0:0|0:0,0:0:0:0:
208,80,18384,6,0,L|3:91,1,143.999996185303,6|0,0:0|0:0,0:0:0:0:
240,128,19090,2,0,L|79:141,1,143.999996185303,8|0,0:0|0:0,0:0:0:0:
176,176,19619,1,2,0:0:0:0:
320,192,19795,2,0,P|413:187|493:136,1,143.999996185303,10|0,0:0|0:0,0:0:0:0:
192,160,20501,2,0,L|120:166,1,71.9999980926514,10|0,0:0|0:0,0:0:0:0:
28,145,20854,2,0,L|126:148,1,71.9999980926514,4|0,0:0|0:0,0:0:0:0:
288,160,21207,6,0,P|325:193|280:287,1,143.999996185303,6|0,0:0|0:0,0:0:0:0:
208,288,21737,1,2,0:0:0:0:
48,240,21913,1,8,0:0:0:0:
80,176,22266,2,0,L|160:176,1,71.9999980926514,0|2,0:0|0:0,0:0:0:0:
352,176,22619,2,0,L|496:128,2,143.999996185303,8|0|8,0:0|0:0|0:0,0:0:0:0:
512,112,23678,2,0,L|416:112,1,71.9999980926514,6|0,0:0|0:0,0:0:0:0:
240,176,24031,6,0,L|74:140,2,143.999996185303,6|0|8,0:0|0:0|0:0,0:0:0:0:
416,176,25090,2,0,L|496:160,1,71.9999980926514,2|0,0:0|0:0,0:0:0:0:
208,144,25442,1,10,0:0:0:0:
352,128,25795,1,0,0:0:0:0:
112,96,26148,2,0,L|310:87,1,143.999996185303,10|4,0:0|0:0,0:0:0:0:
368,80,26678,1,0,0:0:0:0:
112,64,26854,6,0,P|82:113|150:169,1,143.999996185303,6|0,0:0|0:0,0:0:0:0:
304,128,27384,2,0,P|395:132|431:186,1,143.999996185303,2|0,0:0|0:0,0:0:0:0:
272,176,27913,2,0,L|184:169,1,71.9999980926514,2|0,0:0|0:0,0:0:0:0:
368,208,28266,2,0,L|566:195,2,143.999996185303,8|0|8,0:0|0:0|0:0,0:0:0:0:
192,208,29325,2,0,L|128:160,1,71.9999980926514,6|0,0:0|0:0,0:0:0:0:
384,160,29678,6,0,L|400:16,1,143.999996185303,6|0,0:0|0:0,0:0:0:0:
128,112,30384,2,0,P|85:171|143:225,1,143.999996185303,8|2,0:0|0:0,0:0:0:0:
224,224,30913,1,0,0:0:0:0:
464,240,31090,2,0,L|477:97,1,143.999996185303,10|0,0:0|0:0,0:0:0:0:
332,113,31795,2,0,L|499:108,1,143.999996185303,8|6,0:0|0:0,0:0:0:0:
397,129,32325,1,0,0:0:0:0:
138,142,32501,6,0,P|38:132|5:62,2,143.999996185303,6|0|8,0:0|0:0|0:0,0:0:0:0:
41,118,33560,2,0,L|16:208,1,71.9999980926514,2|0,0:0|0:0,0:0:0:0:
208,192,33913,2,0,P|308:182|368:144,2,143.999996185303,10|0|8,0:0|0:0|0:0,0:0:0:0:
384,144,34972,2,0,L|448:192,1,71.9999980926514,6|0,0:0|0:0,0:0:0:0:
144,208,35325,5,6,0:0:0:0:
336,176,35678,1,0,0:0:0:0:
160,128,36031,1,8,0:0:0:0:
144,64,36384,1,6,0:0:0:0:
496,160,36737,2,0,L|333:143,1,143.999996185303,10|2,0:0|0:0,0:0:0:0:
496,144,37442,1,2,0:0:0:0:
496,80,37619,1,2,0:0:0:0:
448,32,37795,1,2,0:0:0:0:
186,64,38148,6,0,B|1:103|1:103|135:123,1,287.999992370606,4|2,0:0|0:0,0:0:0:0:
234,194,39207,2,0,L|241:98,1,71.9999980926514,2|2,0:0|0:0,0:0:0:0:
378,171,39560,2,0,P|247:141|278:17,1,287.999992370606,0|2,0:0|0:0,0:0:0:0:
448,16,40619,2,0,L|455:112,1,71.9999980926514,2|2,0:0|0:0,0:0:0:0:
288,80,40972,6,0,P|202:60|93:219,2,287.999992370606,0|2|2,0:0|0:0|0:0,0:0:0:0:
96,64,42737,2,0,L|16:64,2,71.9999980926514,2|2|0,0:0|0:0|0:0,0:0:0:0:
16,102,43442,1,2,0:0:0:0:
336,112,43795,6,0,L|478:55,2,143.999996185303,4|2|6,0:0|0:0|0:0,0:0:0:0:
429,89,44854,2,0,L|429:168,1,71.9999980926514,0|0,0:0|0:0,0:0:0:0:
256,128,45207,2,0,L|53:78,2,143.999996185303,4|2|6,0:0|0:0|0:0,0:0:0:0:
160,128,46266,2,0,L|173:213,1,71.9999980926514
348,184,46619,5,2,3:2:0:0:
128,224,46972,1,2,0:0:0:0:
359,228,47325,2,0,L|521:217,1,143.999996185303,6|4,0:0|0:0,0:0:0:0:
415,194,47854,1,0,0:0:0:0:
224,208,48031,2,0,L|81:227,1,143.999996185303,4|6,0:0|0:0,0:0:0:0:
160,192,48560,1,0,0:0:0:0:
342,168,48737,2,0,L|421:173,1,71.9999980926514,6|0,0:0|0:0,0:0:0:0:
512,184,49090,2,0,L|441:187,1,71.9999980926514,4|0,0:0|0:0,0:0:0:0:
160,192,49442,5,8,3:0:0:0:
192,192,49795,1,4,0:0:0:0:
389,182,49972,2,0,B|465:178|465:178|385:171,1,143.999996185303,8|4,3:0|0:0,0:0:0:0:
149,184,50501,2,0,B|72:180|72:180|153:173,1,143.999996185303,2|0,3:0|0:0,0:0:0:0:
232,174,51031,1,4,0:0:0:0:
384,176,51207,2,0,L|426:93,1,71.9999980926514,8|4,3:0|0:0,0:0:0:0:
176,144,51560,2,0,L|1:138,1,143.999996185303,8|2,3:0|0:0,0:0:0:0:
117,167,52090,1,0,0:0:0:0:
362,140,52266,6,0,P|458:172|420:288,1,179.999995231629,6|2,0:0|0:0,0:0:0:0:
384,237,52795,1,2,0:0:0:0:
142,231,52972,1,8,0:0:0:0:
384,237,53325,2,0,L|434:130,1,89.9999976158143,2|2,0:0|0:0,0:0:0:0:
224,144,53678,2,0,P|144:144|48:208,1,179.999995231629,4|2,3:0|0:0,0:0:0:0:
384,272,54384,1,10,0:0:0:0:
416,160,54737,2,0,L|326:151,1,89.9999976158143,2|2,0:0|0:0,0:0:0:0:
91,125,55090,5,4,3:0:0:0:
304,160,55442,1,4,3:0:0:0:
32,128,55795,2,0,P|8:208|98:260,1,179.999995231629,8|0,0:0|0:0,0:0:0:0:
183,242,56325,1,0,3:0:0:0:
417,224,56501,2,0,L|511:211,2,89.9999976158143,0|4|0,3:0|3:0|3:0,0:0:0:0:
128,240,57207,2,0,L|224:224,1,89.9999976158143,8|0,0:0|0:0,0:0:0:0:
128,160,57560,2,0,L|38:171,1,89.9999976158143,2|0,0:0|0:0,0:0:0:0:
321,138,57913,6,0,P|434:152|396:254,1,179.999995231629,6|0,0:0|0:0,0:0:0:0:
359,200,58442,1,2,0:0:0:0:
111,200,58619,2,0,P|29:221|20:306,1,179.999995231629,8|2,0:0|0:0,0:0:0:0:
111,296,59148,1,0,0:0:0:0:
352,288,59325,1,2,3:2:0:0:
144,240,59678,1,2,0:0:0:0:
416,272,60031,2,0,P|478:247|417:167,1,179.999995231629,10|2,0:0|0:0,0:0:0:0:
351,169,60560,1,0,0:0:0:0:
69,186,60737,6,0,L|208:112,2,134.999996423721,2|2|2,3:2|0:0|3:2,0:0:0:0:
328,196,61442,2,0,L|459:185,1,89.9999976158143,8|0,0:0|0:0,0:0:0:0:
512,204,61795,2,0,L|399:212,1,89.9999976158143,4|0,3:0|0:0,0:0:0:0:
160,208,62148,2,0,L|46:221,2,89.9999976158143,4|0|4,0:0|0:0|3:0,0:0:0:0:
67,248,62678,1,0,3:0:0:0:
304,272,62854,2,0,P|411:263|442:186,1,179.999995231629,4|2,0:0|3:2,0:0:0:0:
354,212,63384,1,0,3:0:0:0:
64,208,63560,5,6,0:0:0:0:
304,160,63913,1,4,3:0:0:0:
57,234,64266,2,0,P|28:153|105:91,1,179.999995231629,8|2,0:0|0:0,0:0:0:0:
184,90,64795,1,0,0:0:0:0:
368,80,64972,2,0,L|486:64,2,89.9999976158143,2|0|4,0:0|3:0|3:0,0:0:0:0:
64,112,65678,2,0,P|13:167|80:240,1,179.999995231629,8|2,0:0|0:0,0:0:0:0:
179,197,66207,1,0,0:0:0:0:
368,208,66384,6,0,L|470:214,1,89.9999976158143,2|0,3:2|0:0,0:0:0:0:
448,256,66737,1,4,3:0:0:0:
133,244,67090,1,8,0:0:0:0:
300,248,67442,2,0,L|321:160,1,89.9999976158143,2|0,0:0|0:0,0:0:0:0:
128,176,67795,1,2,0:0:0:0:
272,160,68148,1,4,3:0:0:0:
25,147,68501,2,0,L|119:153,1,89.9999976158143,8|0,0:0|0:0,0:0:0:0:
186,142,68854,2,0,L|63:133,1,89.9999976158143,2|2,0:0|0:0,0:0:0:0:
374,87,69207,6,0,P|462:114|486:204,1,179.999995231629,6|4,0:0|3:0,0:0:0:0:
399,195,69737,1,0,0:0:0:0:
224,192,69913,1,8,0:0:0:0:
426,184,70266,2,0,L|414:88,1,89.9999976158143,2|0,0:0|0:0,0:0:0:0:
138,142,70619,2,0,L|10:131,2,89.9999976158143,2|0|2,0:0|0:0|0:0,0:0:0:0:
448,160,71325,1,10,0:0:0:0:
192,160,71678,2,0,L|112:96,1,89.9999976158143,2|0,0:0|0:0,0:0:0:0:
411,93,72031,6,0,P|492:174|409:180,1,179.999995231629,4|4,0:0|3:0,0:0:0:0:
396,178,72560,1,0,0:0:0:0:
128,96,72737,2,0,P|47:177|130:183,1,179.999995231629,4|2,3:0|3:2,0:0:0:0:
143,181,73266,1,0,0:0:0:0:
384,192,73442,2,0,L|457:134,1,89.9999976158143,2|0,3:2|0:0,0:0:0:0:
497,167,73795,2,0,L|407:138,1,89.9999976158143,4|0,3:0|0:0,0:0:0:0:
103,218,74148,2,0,L|15:235,1,89.9999976158143,4|4,3:0|3:0,0:0:0:0:
152,221,74501,1,2,3:2:0:0:
32,192,74678,1,4,3:0:0:0:
374,172,74854,6,0,P|467:207|460:312,1,179.999995231629,6|2,0:0|0:0,0:0:0:0:
400,270,75384,1,2,0:0:0:0:
137,252,75560,2,0,L|6:375,1,179.999995231629,8|2,0:0|0:0,0:0:0:0:
128,368,76090,1,2,0:0:0:0:
272,352,76266,2,0,L|368:304,2,89.9999976158143,4|0|2,3:0|0:0|0:0,0:0:0:0:
178,352,76795,1,0,0:0:0:0:
416,349,76972,2,0,P|481:316|458:205,1,179.999995231629,10|2,0:0|0:0,0:0:0:0:
368,224,77501,1,2,0:0:0:0:
164,251,77678,6,0,P|106:241|75:129,1,179.999995231629,4|2,3:0|0:0,0:0:0:0:
368,160,78384,2,0,P|480:144|512:64,1,179.999995231629,8|0,0:0|0:0,0:0:0:0:
412,72,78913,1,0,0:0:0:0:
208,64,79090,2,0,L|93:55,2,89.9999976158143,0|4|0,3:0|3:0|3:0,0:0:0:0:
112,80,79619,1,0,0:0:0:0:
400,64,79795,2,0,P|456:78|398:171,1,179.999995231629,12|2,0:0|0:0,0:0:0:0:
352,160,80325,1,0,0:0:0:0:
96,96,80501,6,0,P|19:149|77:260,1,179.999995231629,6|2,0:0|0:0,0:0:0:0:
128,256,81031,1,0,0:0:0:0:
368,304,81207,2,0,P|454:258|484:165,1,179.999995231629,10|2,0:0|0:0,0:0:0:0:
370,150,81737,1,0,0:0:0:0:
490,153,81913,2,0,L|384:161,1,89.9999976158143,2|0,3:2|0:0,0:0:0:0:
299,196,82266,2,0,L|418:187,1,89.9999976158143,2|0,0:0|0:0,0:0:0:0:
82,206,82619,1,10,0:0:0:0:
312,216,82972,2,0,L|324:108,1,89.9999976158143,2|0,0:0|0:0,0:0:0:0:
48,160,83325,6,0,L|144:112,2,89.9999976158143,2|2|2,0:0|0:0|0:0,0:0:0:0:
144,160,83854,1,0,0:0:0:0:
384,128,84031,2,0,P|463:132|505:239,1,179.999995231629,8|0,0:0|3:0,0:0:0:0:
384,208,84560,1,0,0:0:0:0:
104,193,84737,2,0,P|78:297|131:307,1,179.999995231629,4|4,0:0|3:0,0:0:0:0:
224,304,85266,1,0,3:0:0:0:
464,288,85442,2,0,L|481:172,1,89.9999976158143,4|0,0:0|0:0,0:0:0:0:
368,192,85795,2,0,L|459:188,1,89.9999976158143,0|0,3:0|3:0,0:0:0:0:
160,192,86148,6,0,L|46:197,2,89.9999976158143,6|0|4,0:0|0:0|3:0,0:0:0:0:
448,208,86854,1,8,0:0:0:0:
288,208,87207,2,0,L|384:192,1,89.9999976158143,2|0,0:0|0:0,0:0:0:0:
192,128,87560,2,0,L|103:133,2,89.9999976158143,2|0|4,0:0|0:0|3:0,0:0:0:0:
448,128,88266,2,0,P|515:158|456:233,1,179.999995231629,8|2,0:0|0:0,0:0:0:0:
336,240,88795,1,0,0:0:0:0:
144,80,88972,6,0,P|69:142|115:237,1,179.999995231629,2|4,3:2|3:0,0:0:0:0:
192,240,89501,1,0,0:0:0:0:
432,256,89678,1,12,0:0:0:0:
480,224,90031,2,0,L|368:192,1,89.9999976158143,2|0,0:0|0:0,0:0:0:0:
240,160,90384,2,0,L|137:157,1,89.9999976158143,2|0,0:0|0:0,0:0:0:0:
311,178,90737,2,0,L|449:171,1,89.9999976158143,10|0,0:0|0:0,0:0:0:0:
192,128,91090,2,0,P|106:166|105:257,1,179.999995231629,2|2,0:0|0:0,0:0:0:0:
192,304,91619,1,0,0:0:0:0:
430,269,91795,6,0,P|494:216|452:100,1,179.999995231629,6|0,0:0|0:0,0:0:0:0:
384,96,92325,1,0,0:0:0:0:
128,96,92501,2,0,P|37:157|46:232,1,179.999995231629,8|4,0:0|3:0,0:0:0:0:
304,256,93207,5,4,3:0:0:0:
355,232,93324,1,4,3:0:0:0:
358,175,93442,1,4,3:0:0:0:
308,147,93559,1,4,3:0:0:0:
192,240,93795,1,0,0:0:0:0:
320,224,93913,2,0,L|386:226,2,59.9999984105428,4|4|4,3:0|3:0|3:0,0:0:0:0:
190,177,94266,2,0,L|124:179,2,59.9999984105428,4|4|4,3:0|3:0|3:0,0:0:0:0:
336,160,94619,6,0,P|472:192|280:344,1,539.999985694885,2|2,0:0|0:0,0:0:0:0:
16,336,96031,2,0,P|112:336|416:32,1,539.999985694885,2|2,0:0|0:0,0:0:0:0:
112,96,97442,5,4,0:0:0:0:
256,192,97795,12,0,103090,0:0:0:0:
