osu file format v14

[General]
AudioFilename: audio.mp3
AudioLeadIn: 0
PreviewTime: 51825
Countdown: 0
SampleSet: Soft
StackLeniency: 0.7
Mode: 2
LetterboxInBreaks: 0
WidescreenStoryboard: 1

[Editor]
DistanceSpacing: 1.4
BeatDivisor: 4
GridSize: 8
TimelineZoom: 2

[Metadata]
Title:Yozora (TV Size)
TitleUnicode:夜空 (TV Size)
Artist:Suzuki Minori
ArtistUnicode:鈴木みのり
Creator:Yumeno Himiko
Version:Cup
Source:恋する小惑星
Tags:Koisuru Asteroid アステロイド ending ed japanese anime 芳文社 houbunsha 動画工房 Douga Koubou 木ノ幡みら Konohata Mira 真中あお Manaka Ao 森野真理 Morino Mari 猪瀬舞 Inose Mai 桜井美景 Sakurai Mikage 鈴矢萌 Suzuya Moe 木ノ幡みさ Michi 遠藤幸 Endou Yuki 中村砂羽 Nakamura Sawa h-wonder Greaper Mafumafu Regraz examination exam
BeatmapID:2276344
BeatmapSetID:1088650

[Difficulty]
HPDrainRate:3
CircleSize:2
OverallDifficulty:6
ApproachRate:6
SliderMultiplier:1.8
SliderTickRate:2

[Events]
//Background and Video events
Video,17200,"Yozora.avi"
0,0,"BG.jpg",0,0
//Break Periods
//Storyboard Layer 0 (Background)
//Storyboard Layer 1 (Fail)
//Storyboard Layer 2 (Pass)
//Storyboard Layer 3 (Foreground)
//Storyboard Layer 4 (Overlay)
//Storyboard Sound Samples

[TimingPoints]
1443,705.882352941176,4,2,1,30,1,0
14855,-100,4,2,1,10,0,0
15384,-100,4,2,1,30,0,0
25443,-100,4,2,1,35,0,0
26855,-100,4,2,1,40,0,0
29325,-100,4,2,1,35,0,0
38149,-100,4,2,3,30,0,0
42208,-100,4,2,3,35,0,0
43796,-100,4,2,1,40,0,0
46972,-100,4,2,1,50,0,0
52266,-83.3333333333333,4,2,2,70,0,1
63560,-83.3333333333333,4,2,2,60,0,0
74854,-83.3333333333333,4,2,2,70,0,1
86148,-83.3333333333333,4,2,2,60,0,0
93325,-83.3333333333333,4,2,2,40,0,0
93561,-83.3333333333333,4,2,2,35,0,0
94620,-83.3333333333333,4,2,2,40,0,0
97443,-83.3333333333333,4,2,3,40,0,0
101678,-83.3333333333333,4,2,3,30,0,0
102384,-83.3333333333333,4,2,3,20,0,0
102737,-83.3333333333333,4,2,3,10,0,0
103090,-83.3333333333333,4,2,2,5,0,0

[Colours]
Combo1 : 118,197,197
Combo2 : 244,70,131
Combo3 : 198,123,177
Combo4 : 248,233,171
Combo5 : 243,143,146
Combo6 : 149,99,190
Combo7 : 184,174,165

[HitObjects]
256,192,12737,12,0,14855,0:0:0:0:
368,312,15561,6,0,P|400:240|336:136,1,180,6|8,0:0|0:0,0:0:0:0:
152,88,16972,1,8,0:0:0:0:
368,72,17678,1,8,0:0:0:0:
256,72,18031,1,4,0:0:0:0:
88,72,18384,6,0,P|40:112|104:208,1,180,6|8,0:0|0:0,0:0:0:0:
296,208,19796,2,0,L|88:208,1,180,10|8,0:0|0:0,0:0:0:0:
224,208,20855,1,4,0:0:0:0:
400,208,21208,6,0,P|456:248|384:320,1,180,6|8,0:0|0:0,0:0:0:0:
184,320,22620,2,0,L|160:128,1,180,8|8,0:0|0:0,0:0:0:0:
272,144,23678,1,4,0:0:0:0:
88,144,24031,6,0,P|48:176|104:288,1,180,6|8,0:0|0:0,0:0:0:0:
328,224,25443,1,10,0:0:0:0:
72,128,26149,1,10,0:0:0:0:
184,128,26502,1,4,0:0:0:0:
352,128,26854,6,0,P|416:128|480:232,1,180,6|8,0:0|0:0,0:0:0:0:
264,216,28267,2,0,P|208:168|280:104,1,180,8|8,0:0|0:0,0:0:0:0:
376,104,29325,1,6,0:0:0:0:
216,104,29678,6,0,P|135:104|72:192,1,180,6|8,0:0|0:0,0:0:0:0:
272,256,31090,1,10,0:0:0:0:
64,320,31796,1,8,0:0:0:0:
176,320,32149,1,6,0:0:0:0:
336,320,32502,6,0,P|352:248|256:184,1,180,6|8,0:0|0:0,0:0:0:0:
168,184,33561,1,2,0:0:0:0:
64,184,33914,1,10,0:0:0:0:
280,184,34620,1,8,0:0:0:0:
384,184,34972,1,6,0:0:0:0:
216,184,35325,6,0,P|160:128|232:64,1,180,6|8,0:0|0:0,0:0:0:0:
320,64,36384,1,6,0:0:0:0:
464,64,36737,2,0,L|456:168,1,90,10|2,0:0|0:0,0:0:0:0:
288,192,37443,2,0,L|272:296,1,90,2|2,0:0|0:0,0:0:0:0:
104,328,38149,5,4,0:0:0:0:
400,176,39561,1,0,0:0:0:0:
80,112,40972,5,0,0:0:0:0:
408,328,42384,2,0,P|417:227|264:144,1,270,2|2,0:0|0:0,0:0:0:0:
120,136,43796,5,4,0:0:0:0:
312,224,44502,1,6,0:0:0:0:
112,304,45208,2,0,L|104:112,1,180,4|6,0:0|0:0,0:0:0:0:
360,104,46620,6,0,L|480:96,1,90,2|2,3:2|0:0,0:0:0:0:
288,248,47325,2,0,L|80:232,1,180,6|4,0:0|0:0,0:0:0:0:
208,192,48384,1,6,0:0:0:0:
312,152,48737,1,6,0:0:0:0:
208,128,49090,1,4,0:0:0:0:
48,80,49443,5,8,3:0:0:0:
192,80,49796,2,0,L|208:144,1,45,4|8,0:0|3:0,0:0:0:0:
48,128,50325,2,0,L|40:192,1,45,4|2,0:0|3:0,0:0:0:0:
232,176,51031,2,0,L|309:175,1,45,4|8,3:0|3:0,0:0:0:0:
136,272,51561,1,8,3:0:0:0:
424,280,52267,6,0,P|480:224|408:128,1,215.999993408203,6|8,0:0|0:0,0:0:0:0:
264,128,53325,1,2,0:0:0:0:
112,128,53678,2,0,P|64:192|168:264,1,215.999993408203,4|10,3:0|0:0,0:0:0:0:
296,272,54737,1,2,0:0:0:0:
144,272,55090,6,0,L|24:272,2,107.999996704102,4|0|8,3:0|0:0|0:0,0:0:0:0:
296,272,56149,2,0,L|312:192,1,53.9999983520508,0|0,0:0|0:0,0:0:0:0:
152,192,56678,2,0,L|144:120,1,53.9999983520508,4|0,3:0|3:0,0:0:0:0:
344,128,57208,2,0,L|464:128,1,107.999996704102,8|2,0:0|0:0,0:0:0:0:
272,128,57914,6,0,P|208:160|288:248,1,215.999993408203,6|8,0:0|0:0,0:0:0:0:
424,248,58972,1,2,0:0:0:0:
272,256,59325,2,0,L|120:256,1,107.999996704102,2|2,3:2|0:0,0:0:0:0:
16,256,60031,2,0,L|24:120,1,107.999996704102,10|2,0:0|0:0,0:0:0:0:
176,144,60737,6,0,L|280:144,2,80.9999975280763,2|2|2,0:0|0:0|3:2,0:0:0:0:
88,144,61443,1,8,0:0:0:0:
240,144,61796,1,4,3:0:0:0:
64,144,62149,6,0,P|48:224|168:280,1,215.999993408203,4|4,0:0|0:0,0:0:0:0:
304,280,63208,1,2,3:2:0:0:
480,280,63561,6,0,P|488:208|376:112,1,215.999993408203,6|8,0:0|0:0,0:0:0:0:
240,120,64620,1,2,0:0:0:0:
88,120,64972,2,0,P|160:120|264:256,1,215.999993408203,2|8,0:0|0:0,0:0:0:0:
104,216,66031,1,2,0:0:0:0:
258,215,66384,6,0,P|322:215|410:87,1,215.999993408203,2|8,0:0|0:0,0:0:0:0:
256,104,67443,1,2,0:0:0:0:
408,112,67796,2,0,L|424:240,1,107.999996704102,2|4,0:0|3:0,0:0:0:0:
224,224,68502,1,8,0:0:0:0:
376,224,68855,1,2,0:0:0:0:
192,224,69208,6,0,P|112:176|192:104,1,215.999993408203,6|8,0:0|0:0,0:0:0:0:
312,104,70267,1,2,0:0:0:0:
160,104,70620,1,2,0:0:0:0:
80,192,70972,1,2,0:0:0:0:
160,280,71325,1,10,0:0:0:0:
312,280,71678,1,2,0:0:0:0:
136,280,72031,6,0,P|82:222|184:104,1,215.999993408203,4|4,0:0|3:0,0:0:0:0:
272,104,73090,1,2,3:2:0:0:
424,112,73443,2,0,P|480:168|416:280,1,215.999993408203,2|4,3:2|3:0,0:0:0:0:
272,280,74502,1,2,3:2:0:0:
72,280,74855,6,0,P|64:216|192:136,1,215.999993408203,6|8,0:0|0:0,0:0:0:0:
328,136,75914,1,2,0:0:0:0:
176,136,76267,2,0,P|112:176|200:272,1,215.999993408203,4|10,3:0|0:0,0:0:0:0:
320,280,77325,1,2,0:0:0:0:
472,288,77678,6,0,L|488:168,1,107.999996704102,4|2,3:0|0:0,0:0:0:0:
336,184,78384,1,8,0:0:0:0:
184,184,78737,2,0,L|176:112,1,53.9999983520508,0|0,0:0|0:0,0:0:0:0:
328,120,79267,2,0,L|336:48,1,53.9999983520508,4|0,3:0|3:0,0:0:0:0:
136,64,79796,2,0,L|24:64,1,107.999996704102,12|2,0:0|0:0,0:0:0:0:
224,64,80502,6,0,P|288:88|208:184,1,215.999993408203,6|10,0:0|0:0,0:0:0:0:
80,192,81561,1,2,0:0:0:0:
235,190,81914,2,0,L|355:190,1,107.999996704102,2|2,0:0|0:0,0:0:0:0:
496,192,82620,2,0,L|504:72,1,107.999996704102,10|2,0:0|0:0,0:0:0:0:
352,80,83325,6,0,L|344:16,1,53.9999983520508,2|2,0:0|0:0,0:0:0:0:
488,88,83854,1,2,0:0:0:0:
448,184,84031,2,0,L|328:184,1,107.999996704102,4|0,3:0|3:0,0:0:0:0:
216,184,84737,5,4,0:0:0:0:
488,304,85443,1,4,0:0:0:0:
344,304,85796,1,0,3:0:0:0:
176,296,86149,6,0,P|120:232|200:152,1,215.999993408203,6|8,0:0|0:0,0:0:0:0:
344,152,87208,1,2,0:0:0:0:
192,152,87561,2,0,P|112:152|32:32,1,215.999993408203,2|8,0:0|0:0,0:0:0:0:
184,56,88620,1,2,0:0:0:0:
344,56,88972,6,0,P|400:88|336:192,1,215.999993408203,2|12,0:0|0:0,0:0:0:0:
200,192,90031,1,2,0:0:0:0:
352,192,90384,1,2,0:0:0:0:
424,104,90737,1,10,0:0:0:0:
352,24,91090,1,2,0:0:0:0:
200,24,91443,1,2,0:0:0:0:
384,192,91796,6,0,P|440:224|368:336,1,215.999993408203,6|8,0:0|0:0,0:0:0:0:
240,336,92855,1,4,3:0:0:0:
96,336,93208,2,0,P|40:296|176:144,1,323.999990112305,0|4,3:0|3:0,0:0:0:0:
360,136,94620,5,2,0:0:0:0:
112,304,96031,1,2,0:0:0:0:
416,288,97443,6,0,P|464:224|368:144,1,215.999993408203,4|2,0:0|0:0,0:0:0:0:
96,288,98855,2,0,P|48:224|144:144,1,215.999993408203,2|2,0:0|0:0,0:0:0:0:
256,248,100267,5,2,0:0:0:0:
256,248,100325,1,0,0:0:0:0:
256,248,100384,1,0,0:0:0:0:
256,248,100443,1,4,0:0:0:0:
256,192,100972,12,0,103090,0:0:0:0:
