osu file format v14

[General]
AudioFilename: rewind.mp3
AudioLeadIn: 0
PreviewTime: 54005
Countdown: 0
SampleSet: Soft
StackLeniency: 0.3
Mode: 0
LetterboxInBreaks: 0
WidescreenStoryboard: 0

[Editor]
DistanceSpacing: 0.7
BeatDivisor: 4
GridSize: 32
TimelineZoom: 2.999999

[Metadata]
Title:Rewind (TV Size)
TitleUnicode:リワインド (TV Size)
Artist:Suzuki Minori
ArtistUnicode:鈴木みのり
Creator:Underforest
Version:Unprovable Heart
Source:カードキャプターさくら クリアカード編
Tags:cardcaptor captor sakura clear card hen arc second ending 2 2nd shinomoto akiho 詩之本秋穂 lanturn cris- darksonic akitoshi corinn -laura- japanese anime pop
BeatmapID:1601963
BeatmapSetID:761891

[Difficulty]
HPDrainRate:6.2
CircleSize:4.2
OverallDifficulty:8.5
ApproachRate:9.3
SliderMultiplier:1.8
SliderTickRate:1

[Events]
//Background and Video events
Video,163,"video.avi"
0,0,"bg.jpg",0,0
//Break Periods
//Storyboard Layer 0 (Background)
//Storyboard Layer 1 (Fail)
//Storyboard Layer 2 (Pass)
//Storyboard Layer 3 (Foreground)
//Storyboard Layer 4 (Overlay)
//Storyboard Sound Samples

[TimingPoints]
605,342.857142857143,4,2,1,30,1,0
1547,-66.6666666666667,4,2,1,30,0,0
1805,-66.6666666666667,4,2,1,5,0,0
1976,-133.333333333333,4,2,1,30,0,0
2147,-133.333333333333,4,2,1,5,0,0
2490,-250,4,2,1,30,0,0
2662,-250,4,2,1,5,0,0
2833,-100,4,2,1,60,0,0
3005,-200,4,2,1,70,0,0
3262,-200,4,2,1,5,0,0
3347,-100,4,2,1,70,0,0
14319,-100,4,2,1,60,0,0
15690,-100,4,2,1,40,0,0
16033,-100,4,2,1,45,0,0
16376,-100,4,2,1,50,0,0
16719,-80,4,2,1,55,0,0
17062,-100,4,2,1,60,0,0
19119,-100,4,2,1,40,0,0
19462,-133.333333333333,4,2,1,40,0,0
19805,-100,4,2,1,60,0,0
31119,-100,4,2,1,55,0,0
31462,-100,4,2,1,50,0,0
31805,-100,4,2,1,45,0,0
32147,-100,4,2,1,40,0,0
33176,-133.333333333333,4,2,1,30,0,0
33519,-100,4,2,1,60,0,0
37633,-100,4,2,1,70,0,0
51005,-100,4,2,1,60,0,0
52547,-100,4,2,1,70,0,0
52633,-222.222222222222,4,2,1,50,0,0
53490,-222.222222222222,4,2,1,5,0,0
53576,-66.6666666666667,4,2,1,70,0,0
53662,-66.6666666666667,4,2,1,5,0,0
53747,-66.6666666666667,4,2,1,70,0,0
54090,-100,4,2,1,80,0,1
64719,-100,4,2,1,70,0,0
65062,-133.333333333333,4,2,1,60,0,0
65405,-100,4,2,1,80,0,1
76033,-100,4,2,1,70,0,0
86233,-100,4,2,1,5,0,0
86662,342.857142857143,4,2,1,30,1,0
86662,-303.030303030303,4,2,1,30,0,0
86747,-303.030303030303,4,2,1,5,0,0
87347,-303.030303030303,4,2,1,30,0,0
87433,-303.030303030303,4,2,1,5,0,0
88033,-1000,4,2,1,30,0,0
88119,-1000,4,2,1,5,0,0

[Colours]
Combo1 : 255,168,222
Combo2 : 247,194,36
Combo3 : 131,206,252
SliderTrackOverride : 30,30,30
SliderBorder : 255,255,250

[HitObjects]
189,167,605,6,0,L|186:221,3,45,2|0|2|0,0:0|0:0|0:0|0:0,0:0:0:0:
185,249,947,1,2,0:0:0:0:
248,290,1119,1,0,0:0:0:0:
323,339,1290,5,0,0:0:0:0:
323,339,1376,1,0,0:0:0:0:
323,339,1462,1,0,0:0:0:0:
323,339,1547,2,0,P|393:350|459:205,1,202.500007724762,2|0,0:0|0:0,0:0:0:0:
378,191,1976,6,0,L|375:259,1,67.5000025749208,2|0,0:0|0:0,0:0:0:0:
367,179,2490,6,0,L|366:221,1,36,2|0,0:0|0:0,0:0:0:0:
361,165,2833,5,0,1:0:0:0:
108,83,3005,2,0,P|80:82|33:100,1,67.5,8|0,1:0|0:0,0:0:0:0:
48,118,3347,6,0,P|89:106|146:110,1,90,6|0,1:0|0:0,0:0:0:0:
212,135,3605,1,0,0:0:0:0:
222,150,3690,2,0,L|230:256,1,90,10|0,0:0|0:0,0:0:0:0:
330,383,4033,1,2,0:0:0:0:
407,180,4205,1,0,1:0:0:0:
199,353,4376,1,8,3:2:0:0:
199,353,4462,2,0,L|146:347,1,45,0|0,3:0|0:0,0:0:0:0:
240,225,4719,6,0,P|284:218|327:228,1,90,2|0,1:0|0:0,0:0:0:0:
389,280,4976,1,2,0:0:0:0:
386,290,5062,1,8,1:0:0:0:
479,150,5233,1,0,1:0:0:0:
348,94,5405,2,0,L|360:-9,1,90,2|0,0:0|1:0,0:0:0:0:
174,117,5747,2,0,L|184:206,1,90,8|0,0:0|3:0,0:0:0:0:
261,230,6005,1,0,3:0:0:0:
261,230,6090,6,0,L|251:139,1,90,2|0,0:0|0:0,0:0:0:0:
68,152,6433,2,0,P|5:197|6:268,1,135,10|0,0:0|0:0,0:0:0:0:
10,269,6776,1,0,1:0:0:0:
277,185,6947,2,0,L|232:176,1,45,2|0,3:2|3:2,0:0:0:0:
113,55,7119,2,0,L|259:77,1,135,8|0,0:0|0:0,0:0:0:0:
334,37,7462,5,2,1:0:0:0:
346,79,7547,1,0,0:0:0:0:
335,122,7633,1,0,0:0:0:0:
172,221,7805,1,8,0:0:0:0:
246,75,7976,1,0,1:0:0:0:
299,288,8147,1,0,0:0:0:0:
162,118,8319,2,0,L|125:123,2,30,2|2|2,1:0|0:0|0:0,0:0:0:0:
185,130,8490,2,0,L|176:265,1,135,8|0,0:0|0:0,0:0:0:0:
174,299,8833,5,2,1:0:0:0:
329,203,9005,1,0,0:0:0:0:
98,166,9176,2,0,B|3:157,1,90,10|0,0:0|0:0,0:0:0:0:
174,21,9519,1,2,0:0:0:0:
174,21,9605,1,0,0:0:0:0:
174,21,9690,1,0,1:0:0:0:
281,227,9862,1,8,3:2:0:0:
281,227,9947,2,0,L|283:281,1,45,0|0,3:0|0:0,0:0:0:0:
32,251,10205,6,0,L|33:206,1,45,0|0,3:0|0:0,0:0:0:0:
153,106,10376,2,0,L|154:150,1,45,0|0,3:0|0:0,0:0:0:0:
49,45,10547,1,8,0:0:0:0:
324,50,10719,1,2,1:0:0:0:
324,50,10805,1,2,0:0:0:0:
324,50,10890,6,0,L|423:63,1,90,2|0,0:0|1:0,0:0:0:0:
492,75,11147,1,0,3:0:0:0:
492,75,11233,1,8,0:0:0:0:
287,233,11405,1,0,0:0:0:0:
287,233,11490,1,0,0:0:0:0:
287,233,11576,6,0,L|197:221,1,90,2|0,1:0|0:0,0:0:0:0:
57,52,11919,2,0,L|147:40,1,90,8|0,0:0|1:0,0:0:0:0:
379,147,12262,1,0,3:0:0:0:
182,220,12433,1,0,1:0:0:0:
328,29,12605,1,8,0:0:0:0:
430,305,12776,1,2,0:0:0:0:
430,305,12862,1,2,0:0:0:0:
430,305,12947,5,2,1:0:0:0:
282,120,13119,1,0,1:0:0:0:
203,354,13290,1,8,0:0:0:0:
438,163,13462,1,2,0:0:0:0:
438,163,13547,1,2,0:0:0:0:
438,163,13633,5,2,0:0:0:0:
142,89,13805,1,0,1:0:0:0:
412,274,13976,1,8,0:0:0:0:
412,274,14062,2,0,L|464:266,1,45,8|0,0:0|0:0,0:0:0:0:
256,191,14319,5,6,1:0:0:0:
256,191,14662,1,0,1:0:0:0:
488,333,14833,1,0,1:0:0:0:
488,333,15176,5,0,1:0:0:0:
405,89,15347,1,0,1:0:0:0:
354,308,15519,1,0,1:0:0:0:
259,139,15690,6,0,L|206:130,1,45,0|0,3:0|3:0,0:0:0:0:
66,54,15862,2,0,L|110:46,1,45,0|0,3:0|3:0,0:0:0:0:
291,10,16033,1,8,0:0:0:0:
229,236,16205,6,0,L|262:226,1,22.5,0|0,3:0|3:0,0:0:0:0:
233,267,16290,2,0,L|262:258,1,22.5,0|0,3:0|3:0,0:0:0:0:
226,306,16376,1,0,0:0:0:0:
195,345,16462,1,0,3:0:0:0:
140,366,16547,1,0,1:0:0:0:
74,346,16633,1,0,0:0:0:0:
35,279,16719,6,0,L|43:116,1,112.5,8|0,0:0|0:0,0:0:0:0:
58,78,16976,1,0,0:0:0:0:
73,63,17062,6,0,P|113:54|182:79,1,90,6|0,1:0|0:0,0:0:0:0:
332,145,17405,1,8,0:0:0:0:
210,269,17576,1,2,0:0:0:0:
210,269,17662,1,0,3:0:0:0:
210,269,17747,6,0,L|203:336,1,45,2|0,0:0|1:0,0:0:0:0:
104,179,17919,2,0,L|108:134,1,45,2|0,0:0|1:0,0:0:0:0:
218,22,18090,1,8,0:0:0:0:
394,178,18262,1,2,3:2:0:0:
394,178,18347,1,0,3:0:0:0:
394,178,18433,6,0,L|287:194,1,90,2|0,1:0|0:0,0:0:0:0:
103,221,18776,1,8,0:0:0:0:
365,315,18947,1,0,1:0:0:0:
365,315,19033,1,0,3:0:0:0:
365,315,19462,2,0,L|367:338,3,16.8750006437302,0|0|0|0,3:0|3:0|3:0|3:0,0:0:0:0:
194,123,19805,6,0,L|87:109,1,90,2|0,0:0|1:0,0:0:0:0:
298,19,20147,1,10,0:0:0:0:
355,186,20319,1,0,3:0:0:0:
355,186,20405,1,0,3:0:0:0:
355,186,20490,6,0,L|294:189,1,45,0|0,3:0|3:0,0:0:0:0:
141,189,20662,1,0,1:0:0:0:
298,19,20833,1,8,0:0:0:0:
257,279,21005,1,0,3:0:0:0:
257,279,21090,1,0,3:0:0:0:
257,279,21176,6,0,L|196:260,1,45,0|0,1:0|3:0,0:0:0:0:
53,217,21347,1,2,0:0:0:0:
230,96,21519,1,8,0:0:0:0:
158,318,21690,6,0,L|150:347,2,22.5,2|0|2,3:2|0:0|0:0,0:0:0:0:
337,192,21947,1,0,3:0:0:0:
337,192,22033,1,0,1:0:0:0:
182,16,22205,1,8,0:0:0:0:
56,173,22376,1,0,3:0:0:0:
56,173,22462,1,0,3:0:0:0:
56,173,22547,6,0,P|104:190|165:164,1,90,2|0,1:0|3:0,0:0:0:0:
321,117,22890,1,8,0:0:0:0:
104,66,23062,1,2,0:0:0:0:
104,66,23147,1,0,3:0:0:0:
104,66,23233,6,0,L|105:110,1,45,2|0,0:0|0:0,0:0:0:0:
97,272,23405,1,0,1:0:0:0:
258,176,23576,1,8,0:0:0:0:
33,153,23747,1,2,0:0:0:0:
205,330,23919,6,0,P|258:340|299:330,1,90,2|0,1:0|0:0,0:0:0:0:
365,291,24176,1,0,3:0:0:0:
365,291,24262,1,8,0:0:0:0:
248,165,24433,1,0,1:0:0:0:
248,165,24519,1,0,3:0:0:0:
248,165,24605,6,0,L|186:121,1,45
112,75,24776,1,0,1:0:0:0:
290,234,24947,1,10,0:0:0:0:
350,52,25119,1,2,3:2:0:0:
350,52,25205,1,0,3:0:0:0:
350,52,25290,5,2,1:0:0:0:
157,186,25462,1,0,0:0:0:0:
396,294,25633,2,0,L|499:280,1,90,10|0,0:0|0:0,0:0:0:0:
326,155,25976,6,0,L|308:213,1,45,0|0,3:0|3:0,0:0:0:0:
266,323,26147,1,2,1:0:0:0:
501,186,26319,1,10,0:0:0:0:
259,68,26490,5,0,3:0:0:0:
259,68,26576,1,0,3:0:0:0:
259,68,26662,1,2,1:0:0:0:
80,272,26833,1,2,0:0:0:0:
312,197,27005,1,8,0:0:0:0:
91,129,27176,5,0,1:0:0:0:
91,129,27262,1,8,0:0:0:0:
190,370,27433,1,8,0:0:0:0:
190,370,27519,1,0,1:0:0:0:
397,215,27690,1,8,0:0:0:0:
397,215,27776,2,0,L|448:210,1,45,8|0,0:0|0:0,0:0:0:0:
376,67,28033,6,0,P|332:48|256:77,1,90,2|0,1:0|0:0,0:0:0:0:
141,132,28376,1,8,0:0:0:0:
312,293,28547,1,2,3:2:0:0:
312,293,28633,1,0,3:0:0:0:
312,293,28719,6,0,L|318:189,1,90,2|0,0:0|1:0,0:0:0:0:
128,81,29062,2,0,L|122:170,1,90,8|2,0:0|3:2,0:0:0:0:
120,255,29319,1,0,3:0:0:0:
120,255,29405,5,2,1:0:0:0:
320,127,29576,1,0,0:0:0:0:
128,81,29747,1,8,0:0:0:0:
344,257,29919,5,0,1:0:0:0:
344,257,30005,2,0,P|387:269|443:259,1,90,0|0,3:0|3:0,0:0:0:0:
465,256,30262,1,0,1:0:0:0:
395,107,30433,1,10,0:0:0:0:
313,348,30605,1,0,3:0:0:0:
396,91,30776,5,2,0:0:0:0:
235,205,30947,1,8,0:0:0:0:
235,205,31033,1,8,0:0:0:0:
57,92,31205,1,8,0:0:0:0:
57,92,31290,1,8,0:0:0:0:
254,15,31462,5,2,0:0:0:0:
360,164,31633,1,2,1:0:0:0:
360,164,31719,1,0,3:0:0:0:
360,164,31805,1,2,3:2:0:0:
253,314,31976,1,2,0:0:0:0:
253,314,32062,1,0,0:0:0:0:
253,314,32147,5,0,3:0:0:0:
163,269,32319,1,0,0:0:0:0:
270,301,32490,5,0,3:0:0:0:
148,288,32662,1,0,0:0:0:0:
289,288,32833,5,0,3:0:0:0:
139,308,33005,1,2,3:0:0:0:
314,280,33176,2,0,B|316:245,1,33.7500012874604,0|0,3:0|3:0,0:0:0:0:
333,217,33347,2,0,B|335:182,1,33.7500012874604,0|0,3:0|0:0,0:0:0:0:
357,104,33519,6,0,P|311:83|241:105,1,90,2|0,1:0|0:0,0:0:0:0:
153,243,33862,1,8,0:0:0:0:
153,243,34205,2,0,P|167:301|135:353,1,90,0|0,0:0|1:0,0:0:0:0:
27,207,34547,2,0,P|13:149|45:97,1,90,8|0,0:0|0:0,0:0:0:0:
202,161,34890,6,0,B|265:152|265:152|321:177|321:177|385:168,1,180,2|8,1:0|0:0,0:0:0:0:
244,252,35405,2,0,P|195:260|136:237,1,90,0|0,1:0|0:0,0:0:0:0:
16,160,35747,1,2,1:0:0:0:
212,71,35919,2,0,L|201:161,1,90,10|2,0:0|0:0,0:0:0:0:
352,292,36262,6,0,L|341:202,1,90,0|0,1:0|0:0,0:0:0:0:
369,22,36605,1,8,0:0:0:0:
447,212,36776,1,0,1:0:0:0:
201,160,36947,2,0,L|91:142,1,90,0|0,0:0|1:0,0:0:0:0:
299,43,37290,1,10,0:0:0:0:
174,277,37462,1,0,3:0:0:0:
22,118,37633,5,10,0:0:0:0:
333,185,37805,1,10,0:0:0:0:
37,344,37976,1,10,0:0:0:0:
239,47,38833,5,2,3:2:0:0:
239,47,38919,1,0,3:2:0:0:
239,47,39005,2,0,L|343:53,1,90,2|0,1:0|0:0,0:0:0:0:
412,226,39347,2,0,L|308:232,1,90,8|0,0:0|0:0,0:0:0:0:
108,195,39690,1,2,0:0:0:0:
368,134,39862,1,2,1:0:0:0:
247,304,40033,1,8,0:0:0:0:
99,105,40205,1,0,3:0:0:0:
99,105,40290,1,0,3:0:0:0:
99,105,40376,6,0,L|108:198,1,90,2|0,1:0|0:0,0:0:0:0:
225,379,40719,1,8,0:0:0:0:
322,233,40890,2,0,B|330:188|330:188|316:136,1,90,2|0,0:0|0:0,0:0:0:0:
143,267,41233,2,0,B|135:312|135:312|149:364,1,90,2|8,0:0|0:0,0:0:0:0:
327,250,41576,1,2,0:0:0:0:
107,194,41747,6,0,L|-7:179,1,90,2|0,1:0|0:0,0:0:0:0:
191,95,42090,2,0,L|305:80,1,90,8|0,0:0|0:0,0:0:0:0:
297,82,42347,1,0,3:0:0:0:
313,80,42433,1,2,0:0:0:0:
418,269,42605,1,2,1:0:0:0:
239,198,42776,1,8,0:0:0:0:
466,90,42947,1,0,3:0:0:0:
466,90,43033,1,0,3:0:0:0:
466,90,43119,6,0,P|476:139|467:186,1,90,2|0,1:0|0:0,0:0:0:0:
362,335,43462,1,10,0:0:0:0:
248,159,43633,2,0,L|337:148,1,90,2|0,0:0|0:0,0:0:0:0:
135,255,43976,1,8,0:0:0:0:
261,34,44147,1,8,1:0:0:0:
313,251,44319,1,0,0:0:0:0:
126,125,44490,5,2,1:0:0:0:
355,34,44662,1,0,0:0:0:0:
104,136,44833,2,0,L|14:124,1,90,10|0,0:0|0:0,0:0:0:0:
91,294,45176,1,2,0:0:0:0:
241,199,45347,2,0,P|262:140|238:81,1,90,2|8,1:0|0:0,0:0:0:0:
54,216,45690,1,0,3:0:0:0:
250,309,45862,5,2,0:0:0:0:
180,142,46033,1,0,1:0:0:0:
118,373,46205,1,10,0:0:0:0:
337,270,46376,6,0,L|426:277,1,90,2|0,1:0|0:0,0:0:0:0:
347,107,46719,2,0,L|257:114,1,90,2|8,1:0|0:0,0:0:0:0:
54,216,47062,1,2,0:0:0:0:
250,309,47233,6,0,P|260:259|246:205,1,90,2|0,1:0|0:0,0:0:0:0:
124,54,47576,1,8,0:0:0:0:
54,216,47747,1,2,1:0:0:0:
54,216,48090,1,8,0:0:0:0:
250,309,48262,6,0,B|331:274|347:340|425:309,1,180,6|0,0:0|1:0,0:0:0:0:
299,192,48776,1,0,1:0:0:0:
185,370,48947,1,10,1:0:0:0:
119,225,49119,2,0,L|108:132,1,90,2|0,0:0|0:0,0:0:0:0:
311,103,49462,2,0,L|300:192,1,90,2|8,1:0|0:0,0:0:0:0:
187,33,49805,1,2,0:0:0:0:
413,22,49976,6,0,B|427:62|427:62|415:113,1,90,2|0,1:0|0:0,0:0:0:0:
340,335,50319,1,8,0:0:0:0:
188,161,50490,1,2,1:0:0:0:
188,161,50833,5,0,1:0:0:0:
501,254,51005,1,6,0:0:0:0:
256,192,51090,12,0,52462,0:0:0:0:
252,191,52547,5,8,0:0:0:0:
252,191,52633,2,0,P|162:161|195:72,1,202.5,8|0,0:0|0:0,0:0:0:0:
187,76,53576,6,0,P|232:65|285:109,1,67.5000025749208,0|0,1:0|0:0,0:0:0:0:
439,124,53747,1,8,0:0:0:0:
271,203,53919,1,2,0:0:0:0:
271,203,54005,1,2,0:0:0:0:
271,203,54090,6,0,B|231:206|231:206|193:226|193:226|134:230,1,135,6|0,1:0|0:0,0:0:0:0:
76,279,54433,2,0,P|67:323|87:376,1,90,10|0,0:0|0:0,0:0:0:0:
174,141,54776,1,2,0:0:0:0:
268,319,54947,1,0,1:0:0:0:
186,132,55119,1,10,0:0:0:0:
124,296,55290,6,0,L|20:285,1,90,2|0,0:0|1:0,0:0:0:0:
274,197,55633,2,0,L|378:186,1,90,2|8,0:0|0:0,0:0:0:0:
141,117,55976,2,0,L|37:106,1,90,2|0,0:0|0:0,0:0:0:0:
202,253,56319,1,0,1:0:0:0:
287,35,56490,1,10,0:0:0:0:
406,211,56662,1,0,3:0:0:0:
406,211,56747,1,0,3:0:0:0:
406,211,56833,6,0,L|393:316,1,90,2|0,1:0|0:0,0:0:0:0:
214,210,57176,2,0,L|202:120,1,90,10|0,0:0|0:0,0:0:0:0:
295,316,57519,1,2,0:0:0:0:
99,198,57690,1,0,1:0:0:0:
330,70,57862,1,10,0:0:0:0:
147,262,58033,6,0,P|98:278|57:266,1,90,2|0,0:0|1:0,0:0:0:0:
261,174,58376,2,0,P|310:158|351:170,1,90,2|8,0:0|0:0,0:0:0:0:
479,327,58719,2,0,B|503:289|503:289|488:179,1,135,2|0,0:0|0:0,0:0:0:0:
484,171,59062,5,8,0:0:0:0:
234,257,59233,1,8,0:0:0:0:
289,16,59405,1,2,3:2:0:0:
289,16,59490,1,2,3:2:0:0:
289,16,59576,6,0,P|313:61|310:117,1,90,2|0,1:0|0:0,0:0:0:0:
146,211,59919,2,0,P|122:166|125:110,1,90,10|0,0:0|0:0,0:0:0:0:
319,222,60262,1,2,0:0:0:0:
74,322,60433,1,0,1:0:0:0:
208,142,60605,1,10,0:0:0:0:
300,361,60776,6,0,L|393:348,1,90,2|0,0:0|1:0,0:0:0:0:
487,200,61119,2,0,L|394:187,1,90,2|8,0:0|0:0,0:0:0:0:
263,65,61462,2,0,L|352:52,1,90,2|0,0:0|0:0,0:0:0:0:
239,234,61805,1,0,1:0:0:0:
154,0,61976,1,10,0:0:0:0:
294,148,62147,1,0,0:0:0:0:
111,220,62319,6,0,L|20:237,1,90,2|0,1:0|0:0,0:0:0:0:
205,131,62662,2,0,L|293:147,1,90,10|0,0:0|0:0,0:0:0:0:
474,245,63005,1,2,0:0:0:0:
406,14,63176,1,0,1:0:0:0:
270,249,63347,1,10,0:0:0:0:
211,15,63519,5,2,0:0:0:0:
160,285,63690,1,0,1:0:0:0:
160,285,63776,1,0,3:0:0:0:
160,285,63862,1,2,0:0:0:0:
393,192,64033,1,8,0:0:0:0:
147,102,64205,1,2,0:0:0:0:
279,312,64376,5,8,0:0:0:0:
279,312,64462,1,8,0:0:0:0:
279,312,64547,2,0,L|349:299,1,45,0|0,3:0|0:0,0:0:0:0:
185,187,64719,2,0,L|115:200,1,45,8|0,0:0|0:0,0:0:0:0:
315,95,64890,1,2,0:0:0:0:
315,95,64976,1,0,0:0:0:0:
315,95,65062,6,0,L|427:80,1,101.250003862381,2|0,0:0|0:0,0:0:0:0:
438,101,65405,6,0,P|460:157|429:219,1,90,6|0,0:0|0:0,0:0:0:0:
229,293,65747,1,2,0:0:0:0:
382,156,65919,1,0,1:0:0:0:
434,383,66090,1,10,0:0:0:0:
275,192,66262,5,2,0:0:0:0:
512,312,66433,1,0,1:0:0:0:
190,369,66605,1,10,0:0:0:0:
421,150,66776,1,8,0:0:0:0:
421,150,66862,1,8,0:0:0:0:
421,150,66947,5,10,0:0:0:0:
169,147,67119,2,0,P|160:195|179:247,1,90,0|0,3:0|1:0,0:0:0:0:
366,346,67462,2,0,P|375:298|356:246,1,90,8|0,0:0|0:0,0:0:0:0:
320,74,67805,6,0,L|211:62,1,90,2|0,1:0|0:0,0:0:0:0:
82,243,68147,2,0,L|191:231,1,90,10|0,0:0|0:0,0:0:0:0:
394,178,68490,1,2,0:0:0:0:
160,143,68662,1,0,1:0:0:0:
302,315,68833,1,10,0:0:0:0:
311,103,69005,6,0,P|320:59|308:14,1,90,2|0,0:0|1:0,0:0:0:0:
160,143,69347,2,0,P|149:186|158:229,1,90,2|8,0:0|0:0,0:0:0:0:
344,320,69690,2,0,B|283:298|283:353|211:321,1,135,2|0,0:0|0:0,0:0:0:0:
187,311,70033,1,0,1:0:0:0:
243,60,70205,1,10,0:0:0:0:
322,203,70376,1,0,0:0:0:0:
322,203,70462,1,0,0:0:0:0:
322,203,70547,6,0,L|222:191,1,90,2|0,1:0|0:0,0:0:0:0:
77,40,70890,2,0,L|166:29,1,90,10|0,1:0|0:0,0:0:0:0:
334,123,71233,1,2,0:0:0:0:
97,210,71405,1,0,1:0:0:0:
258,27,71576,1,10,0:0:0:0:
346,243,71747,6,0,L|334:332,1,90,2|0,0:0|1:0,0:0:0:0:
496,200,72090,2,0,L|484:110,1,90,2|8,0:0|0:0,0:0:0:0:
309,25,72433,2,0,L|297:114,1,90,2|0,0:0|0:0,0:0:0:0:
253,294,72776,1,8,1:0:0:0:
152,89,72947,1,10,0:0:0:0:
384,176,73119,1,0,0:0:0:0:
145,315,73290,6,0,L|38:326,1,90,2|0,1:0|0:0,0:0:0:0:
190,175,73633,2,0,L|279:184,1,90,10|0,0:0|0:0,0:0:0:0:
473,233,73976,1,2,0:0:0:0:
412,63,74147,1,0,1:0:0:0:
302,296,74319,1,10,0:0:0:0:
230,101,74490,6,0,L|214:5,1,90,2|0,0:0|1:0,0:0:0:0:
383,110,74833,1,2,0:0:0:0:
191,257,75005,1,8,0:0:0:0:
395,326,75176,2,0,P|420:260|381:175,1,135,2|0,0:0|0:0,0:0:0:0:
383,181,75519,6,0,L|331:173,1,45,10|0,0:0|0:0,0:0:0:0:
228,47,75690,2,0,L|280:39,1,45,10|0,0:0|0:0,0:0:0:0:
461,55,75862,1,10,0:0:0:0:
461,55,75947,1,8,0:0:0:0:
461,55,76033,6,0,L|474:169,1,90,6|0,1:0|0:0,0:0:0:0:
383,181,76290,1,0,0:0:0:0:
383,181,76376,2,0,L|373:90,1,90,10|0,0:0|3:0,0:0:0:0:
302,21,76633,1,0,0:0:0:0:
302,21,76719,5,2,0:0:0:0:
163,184,76890,2,0,L|157:139,1,45,0|0,1:0|0:0,0:0:0:0:
29,76,77062,1,8,3:2:0:0:
29,76,77147,1,0,3:0:0:0:
29,76,77233,2,0,L|37:137,1,45,0|0,3:0|0:0,0:0:0:0:
112,274,77405,6,0,L|170:262,3,45,2|0|0|0,3:2|3:0|3:0|3:0,0:0:0:0:
252,243,77747,1,8,0:0:0:0:
331,60,77919,1,0,3:0:0:0:
331,60,78005,1,0,3:0:0:0:
331,60,78090,6,0,P|271:38|213:49,1,90,2|0,0:0|1:0,0:0:0:0:
52,206,78433,1,8,0:0:0:0:
122,32,78605,1,0,3:0:0:0:
122,32,78690,1,0,3:0:0:0:
122,32,78776,6,0,L|139:124,1,90,2|0,0:0|0:0,0:0:0:0:
227,315,79119,2,0,L|272:321,1,45,10|0,0:0|0:0,0:0:0:0:
391,194,79290,2,0,L|341:204,1,45,0|0,3:0|0:0,0:0:0:0:
225,116,79462,5,0,3:0:0:0:
225,116,79547,1,0,3:0:0:0:
225,116,79633,2,0,L|236:169,1,45,2|0,1:0|0:0,0:0:0:0:
271,320,79805,2,0,P|315:325|362:307,1,90,8|0,0:0|3:0,0:0:0:0:
458,69,80147,6,0,L|451:114,1,45,2|0,3:2|0:0,0:0:0:0:
370,180,80319,2,0,L|362:135,1,45,2|0,0:0|0:0,0:0:0:0:
472,82,80490,6,0,L|465:127,1,45,10|0,3:2|0:0,0:0:0:0:
353,192,80662,2,0,L|345:147,1,45,2|0,0:0|0:0,0:0:0:0:
487,94,80833,6,0,L|480:139,1,45,2|0,3:2|0:0,0:0:0:0:
338,204,81005,2,0,L|330:159,1,45,2|0,1:0|0:0,0:0:0:0:
504,106,81176,6,0,L|497:151,1,45,10|0,3:2|0:0,0:0:0:0:
324,217,81347,2,0,L|316:172,1,45,2|0,0:0|0:0,0:0:0:0:
180,67,81519,6,0,B|142:41|142:41|61:54,1,90,2|0,1:0|0:0,0:0:0:0:
27,117,81776,1,0,0:0:0:0:
27,117,81862,2,0,P|21:177|51:229,1,90,10|0,0:0|0:0,0:0:0:0:
106,270,82119,1,0,0:0:0:0:
106,270,82205,6,0,L|166:278,1,45,0|0,3:0|0:0,0:0:0:0:
300,133,82376,2,0,L|255:138,1,45,2|0,1:0|0:0,0:0:0:0:
112,156,82547,1,8,0:0:0:0:
299,279,82719,1,0,3:0:0:0:
299,279,82805,1,0,3:0:0:0:
299,279,82890,6,0,L|298:216,3,45,2|0|0|0,3:2|0:0|3:2|0:0,0:0:0:0:
300,133,83233,1,8,0:0:0:0:
403,283,83405,1,0,0:0:0:0:
399,306,83490,1,0,0:0:0:0:
387,325,83576,5,2,0:0:0:0:
354,355,83662,1,0,0:0:0:0:
312,371,83747,1,2,1:0:0:0:
267,370,83833,1,0,0:0:0:0:
226,353,83919,2,0,L|160:337,1,45,10|2,0:0|0:0,0:0:0:0:
33,240,84090,2,0,L|99:223,1,45,2|2,0:0|0:0,0:0:0:0:
222,146,84262,6,0,L|211:89,3,45,2|0|0|0,1:0|3:0|0:0|0:0,0:0:0:0:
390,126,84605,1,8,0:0:0:0:
390,126,84690,1,0,0:0:0:0:
390,126,84776,2,0,L|398:170,1,45,2|0,1:0|3:0,0:0:0:0:
347,326,84947,6,0,P|322:338|270:332,1,45,2|0,0:0|0:0,0:0:0:0:
180,239,85119,2,0,P|204:226|256:232,1,45,2|0,0:0|0:0,0:0:0:0:
414,260,85290,1,10,1:0:0:0:
158,366,85462,1,2,0:0:0:0:
363,152,85633,6,0,L|440:130,1,45,0|0,3:0|3:0,0:0:0:0:
217,83,85805,2,0,L|195:6,1,45,10|0,0:0|3:0,0:0:0:0:
147,229,85976,2,0,L|70:251,1,45,10|0,0:0|3:0,0:0:0:0:
294,298,86147,2,0,L|316:375,1,45,2|0,1:0|0:0,0:0:0:0:
306,342,86662,6,0,L|304:356,1,14.8499999546814,2|0,0:0|0:0,0:0:0:0:
202,194,87347,6,0,L|203:208,1,14.8499999546814,2|0,0:0|0:0,0:0:0:0:
313,37,88033,6,0,L|307:102,1,63,2|0,0:0|0:0,0:0:0:0:
