osu file format v14

[General]
AudioFilename: rewind.mp3
AudioLeadIn: 0
PreviewTime: 54005
Countdown: 0
SampleSet: Soft
StackLeniency: 0.7
Mode: 0
LetterboxInBreaks: 0
WidescreenStoryboard: 0

[Editor]
DistanceSpacing: 1.3
BeatDivisor: 8
GridSize: 32
TimelineZoom: 1

[Metadata]
Title:Rewind (TV Size)
TitleUnicode:リワインド (TV Size)
Artist:Suzuki Minori
ArtistUnicode:鈴木みのり
Creator:Underforest
Version:Hard
Source:カードキャプターさくら クリアカード編
Tags:cardcaptor captor sakura clear card hen arc second ending 2 2nd shinomoto akiho 詩之本秋穂 lanturn cris- darksonic akitoshi corinn -laura- japanese anime pop
BeatmapID:1602301
BeatmapSetID:761891

[Difficulty]
HPDrainRate:5
CircleSize:4
OverallDifficulty:6
ApproachRate:8
SliderMultiplier:1.4
SliderTickRate:1

[Events]
//Background and Video events
Video,163,"video.avi"
0,0,"bg.jpg",0,0
//Break Periods
//Storyboard Layer 0 (Background)
//Storyboard Layer 1 (Fail)
//Storyboard Layer 2 (Pass)
//Storyboard Layer 3 (Foreground)
//Storyboard Layer 4 (Overlay)
//Storyboard Sound Samples

[TimingPoints]
605,342.857142857143,4,2,1,30,1,0
605,-133.333333333333,4,2,1,30,0,0
2833,-100,4,2,1,60,0,0
3005,-100,4,2,1,70,0,0
6690,-100,4,2,1,5,0,0
6775,-100,4,2,1,70,0,0
14319,-100,4,2,1,60,0,0
15690,-100,4,2,1,40,0,0
16033,-100,4,2,1,45,0,0
16376,-100,4,2,1,50,0,0
16719,-100,4,2,1,55,0,0
17062,-100,4,2,1,60,0,0
19462,-100,4,2,1,40,0,0
19633,-100,4,2,1,60,0,0
31119,-100,4,2,1,55,0,0
31461,-100,4,2,1,50,0,0
31805,-100,4,2,1,45,0,0
32147,-100,4,2,1,40,0,0
33519,-100,4,2,1,60,0,0
37632,-100,4,2,1,70,0,0
51005,-100,4,2,1,60,0,0
52547,-100,4,2,1,70,0,0
52719,-100,4,2,1,50,0,0
53576,-100,4,2,1,70,0,0
54090,-100,4,2,1,80,0,1
54347,-100,4,2,1,5,0,1
54433,-100,4,2,1,80,0,1
64719,-100,4,2,1,70,0,0
65405,-100,4,2,1,80,0,1
76033,-100,4,2,1,70,0,0
86662,342.857142857143,4,2,1,30,1,0
88033,-200,4,2,1,30,0,0
88119,-200,4,2,1,5,0,0

[Colours]
Combo1 : 255,168,222
Combo2 : 247,194,36
Combo3 : 131,206,252
SliderTrackOverride : 30,30,30
SliderBorder : 255,255,250

[HitObjects]
87,79,605,6,0,L|209:67,1,105.000004005432,2|2,0:0|0:0,0:0:0:0:
248,144,1119,1,0,0:0:0:0:
248,144,1290,2,0,L|131:157,1,105.000004005432,0|0,0:0|0:0,0:0:0:0:
49,169,1805,1,0,0:0:0:0:
49,169,1976,6,0,P|30:227|59:276,1,105.000004005432,2|0,0:0|0:0,0:0:0:0:
101,342,2490,1,2,0:0:0:0:
273,282,2833,1,0,1:0:0:0:
359,252,3005,1,8,1:0:0:0:
359,252,3347,6,0,B|390:220|390:220|374:99,1,140,6|10,1:0|0:0,0:0:0:0:
298,78,3862,1,0,0:0:0:0:
217,35,4033,2,0,P|182:27|138:41,1,70,2|0,0:0|1:0,0:0:0:0:
148,118,4376,2,0,P|183:126|227:112,1,70,8|0,3:2|3:0,0:0:0:0:
298,78,4719,6,0,B|341:74|341:74|389:91|389:91|435:85,1,140,2|8,1:0|1:0,0:0:0:0:
494,153,5233,1,0,1:0:0:0:
475,242,5405,2,0,L|461:325,1,70,2|0,0:0|1:0,0:0:0:0:
385,357,5747,2,0,L|373:287,1,70,8|0,0:0|3:0,0:0:0:0:
355,198,6090,5,2,0:0:0:0:
187,269,6433,2,0,P|136:283|42:237,1,140,10|0,0:0|1:0,0:0:0:0:
63,162,6947,2,0,P|114:148|208:194,1,140,2|0,3:2|0:0,0:0:0:0:
258,113,7462,6,0,L|263:36,1,70,2|0,1:0|0:0,0:0:0:0:
347,9,7805,2,0,L|342:78,1,70,8|0,0:0|1:0,0:0:0:0:
422,120,8147,2,0,L|427:43,1,70,0|2,0:0|1:0,0:0:0:0:
511,16,8490,2,0,L|506:85,1,70,8|0,0:0|0:0,0:0:0:0:
500,176,8833,6,0,P|466:217|378:232,1,140,2|10,1:0|0:0,0:0:0:0:
294,216,9347,1,0,0:0:0:0:
203,200,9519,2,0,L|195:276,1,70,2|0,0:0|1:0,0:0:0:0:
105,281,9862,2,0,L|112:211,1,70,8|0,3:2|3:0,0:0:0:0:
149,127,10205,6,0,P|183:86|271:71,1,140,0|8,3:0|0:0,0:0:0:0:
352,34,10719,1,2,1:0:0:0:
414,99,10890,2,0,B|422:135|422:135|414:183,1,70,2|0,0:0|1:0,0:0:0:0:
336,211,11233,2,0,B|328:247|328:247|336:295,1,70,8|0,0:0|0:0,0:0:0:0:
409,329,11576,6,0,L|255:342,1,140,2|8,1:0|0:0,0:0:0:0:
180,360,12090,1,0,1:0:0:0:
101,314,12262,2,0,P|83:275|87:234,2,70,0|0|8,3:0|1:0|0:0,0:0:0:0:
174,260,12776,1,2,0:0:0:0:
264,252,12947,6,0,L|349:243,1,70,2|0,1:0|1:0,0:0:0:0:
421,270,13290,1,8,0:0:0:0:
421,270,13462,2,0,L|413:200,1,70,2|2,0:0|0:0,0:0:0:0:
409,109,13805,1,0,1:0:0:0:
409,109,13976,2,0,L|403:71,1,35,8|8,0:0|0:0,0:0:0:0:
289,150,14319,6,0,L|123:165,1,140,6|0,1:0|1:0,0:0:0:0:
133,252,14833,2,0,L|275:240,1,140,0|0,1:0|1:0,0:0:0:0:
362,256,15347,1,0,1:0:0:0:
405,175,15519,1,0,1:0:0:0:
441,91,15690,5,0,3:0:0:0:
353,64,15862,2,0,L|264:72,1,70,0|8,3:0|0:0,0:0:0:0:
193,85,16205,2,0,L|187:63,4,17.5,0|0|0|0|0,3:0|3:0|3:0|3:0|0:0,0:0:0:0:
232,166,16547,1,0,1:0:0:0:
322,152,16719,2,0,P|375:154|428:115,1,105,8|0,0:0|0:0,0:0:0:0:
451,96,17062,6,0,L|447:251,1,140,6|8,1:0|0:0,0:0:0:0:
380,298,17576,1,2,0:0:0:0:
304,348,17747,2,0,P|273:354|234:346,1,70,2|2,0:0|0:0,0:0:0:0:
147,323,18090,1,0,0:0:0:0:
58,344,18262,1,2,3:2:0:0:
58,344,18347,1,0,3:0:0:0:
58,344,18433,6,0,P|25:287|49:206,1,140,2|8,1:0|0:0,0:0:0:0:
61,128,18947,1,0,1:0:0:0:
61,128,19462,2,0,L|131:117,1,70,0|0,3:0|0:0,0:0:0:0:
211,75,19805,6,0,L|281:86,1,70,2|0,0:0|1:0,0:0:0:0:
363,122,20147,2,0,P|426:98|488:126,1,140,10|0,0:0|3:0,0:0:0:0:
485,218,20662,1,0,1:0:0:0:
422,284,20833,2,0,P|386:292|342:277,1,70,8|0,0:0|3:0,0:0:0:0:
265,307,21176,6,0,L|181:299,2,70,0|2|8,1:0|0:0|0:0,0:0:0:0:
246,217,21690,2,0,L|94:203,1,140,2|0,3:2|1:0,0:0:0:0:
15,193,22205,1,8,0:0:0:0:
121,46,22547,6,0,B|162:28|162:28|278:58,1,140,2|8,1:0|0:0,0:0:0:0:
331,100,23062,1,2,0:0:0:0:
404,154,23233,2,0,P|443:146|491:161,1,70,2|0,0:0|1:0,0:0:0:0:
473,242,23576,2,0,P|439:249|404:244,1,70,8|2,0:0|0:0,0:0:0:0:
323,199,23919,6,0,L|156:212,1,140,2|8,1:0|0:0,0:0:0:0:
93,218,24433,1,0,1:0:0:0:
93,218,24776,1,0,1:0:0:0:
127,133,24947,2,0,P|116:96|127:48,1,70,10|2,0:0|3:2,0:0:0:0:
207,90,25290,6,0,L|298:92,1,70,2|0,1:0|0:0,0:0:0:0:
351,144,25633,2,0,L|511:141,1,140,10|0,0:0|3:0,0:0:0:0:
499,232,26147,1,2,1:0:0:0:
417,271,26319,2,0,P|384:277|343:269,1,70,10|0,0:0|3:0,0:0:0:0:
279,211,26662,6,0,P|246:205|205:213,2,70,2|2|8,1:0|0:0|0:0,0:0:0:0:
348,271,27176,2,0,P|315:328|243:343,1,140,0|0,1:0|1:0,0:0:0:0:
155,346,27690,2,0,L|74:335,1,70,8|0,0:0|0:0,0:0:0:0:
51,252,28033,6,0,L|56:81,1,140,2|8,1:0|0:0,0:0:0:0:
138,73,28547,1,2,3:2:0:0:
224,43,28719,2,0,P|259:37|315:53,1,70,2|0,0:0|1:0,0:0:0:0:
361,104,29062,2,0,P|395:109|429:104,1,70,8|2,0:0|3:2,0:0:0:0:
488,33,29405,6,0,L|483:172,1,140,2|8,1:0|0:0,0:0:0:0:
324,260,30090,2,0,L|248:250,2,70,2|0|10,1:0|1:0|0:0,0:0:0:0:
272,335,30605,6,0,L|202:325,1,70,0|2,3:0|0:0,0:0:0:0:
111,323,30947,1,8,0:0:0:0:
111,323,31119,1,2,0:0:0:0:
27,359,31290,1,8,0:0:0:0:
27,359,31462,2,0,L|15:260,1,70,2|2,0:0|1:0,0:0:0:0:
16,197,31805,2,0,L|4:98,1,70,2|2,3:2|0:0,0:0:0:0:
44,44,32147,5,0,3:0:0:0:
44,44,33519,6,0,P|93:22|177:66,1,140,2|8,1:0|0:0,0:0:0:0:
351,55,34205,2,0,L|343:150,1,70,0|0,0:0|1:0,0:0:0:0:
303,205,34547,2,0,L|295:300,1,70,8|0,0:0|0:0,0:0:0:0:
354,345,34890,6,0,P|305:367|221:323,2,140,2|8|0,1:0|0:0|0:0,0:0:0:0:
425,287,35747,1,2,1:0:0:0:
483,217,35919,2,0,L|488:147,1,70,10|2,0:0|0:0,0:0:0:0:
455,61,36262,6,0,B|412:57|412:57|364:74|364:74|318:68,1,140,0|8,1:0|0:0,0:0:0:0:
228,54,36776,1,0,1:0:0:0:
228,54,37119,1,0,1:0:0:0:
157,110,37290,2,0,P|152:157|166:188,1,70,10|0,0:0|3:0,0:0:0:0:
208,254,37633,5,10,0:0:0:0:
298,236,37805,1,10,0:0:0:0:
386,213,37976,1,10,0:0:0:0:
386,213,38833,1,2,3:2:0:0:
386,213,38919,1,0,3:0:0:0:
386,213,39005,6,0,L|370:63,1,140,2|8,1:0|0:0,0:0:0:0:
283,49,39519,1,0,0:0:0:0:
193,61,39690,2,0,P|135:51|99:64,1,70,2|2,0:0|1:0,0:0:0:0:
57,115,40033,1,8,0:0:0:0:
68,205,40205,1,0,3:0:0:0:
68,205,40290,1,0,3:0:0:0:
68,205,40376,6,0,P|100:250|198:249,1,140,2|8,1:0|0:0,0:0:0:0:
266,286,40890,2,0,B|302:291|302:291|336:286,1,70,2|0,0:0|0:0,0:0:0:0:
417,247,41233,2,0,B|422:211|422:211|417:177,1,70,2|8,0:0|0:0,0:0:0:0:
417,86,41576,1,2,0:0:0:0:
330,59,41747,6,0,L|162:74,1,140,2|8,1:0|0:0,0:0:0:0:
140,148,42262,1,0,0:0:0:0:
91,224,42433,2,0,L|96:293,1,70,2|2,0:0|1:0,0:0:0:0:
184,317,42776,1,8,0:0:0:0:
272,338,42947,1,0,3:0:0:0:
272,338,43033,1,0,3:0:0:0:
272,338,43119,6,0,P|320:351|410:291,1,140,2|10,1:0|0:0,0:0:0:0:
459,245,43633,2,0,L|447:159,1,70,2|0,0:0|0:0,0:0:0:0:
418,89,43976,1,8,0:0:0:0:
327,98,44147,2,0,P|296:89|253:98,1,70,8|0,1:0|0:0,0:0:0:0:
173,126,44490,6,0,P|142:135|99:126,1,70,2|0,1:0|0:0,0:0:0:0:
58,50,44833,2,0,L|50:213,1,140,10|2,0:0|0:0,0:0:0:0:
18,275,45347,1,2,1:0:0:0:
81,340,45519,2,0,P|126:356|156:352,1,70,8|0,0:0|3:0,0:0:0:0:
231,317,45862,6,0,P|276:301|306:305,1,70,2|0,0:0|1:0,0:0:0:0:
381,338,46205,1,10,0:0:0:0:
470,324,46376,2,0,L|484:159,1,140,2|2,1:0|1:0,0:0:0:0:
425,112,46890,2,0,L|420:24,1,70,8|2,0:0|0:0,0:0:0:0:
329,38,47233,6,0,L|177:40,1,140,2|8,1:0|0:0,0:0:0:0:
167,128,47747,2,0,L|306:126,1,140,2|8,1:0|0:0,0:0:0:0:
336,213,48262,6,0,L|196:214,1,140,6|0,0:0|1:0,0:0:0:0:
106,194,48776,1,0,1:0:0:0:
91,283,48947,1,10,1:0:0:0:
179,305,49119,2,0,L|247:319,1,70,2|0,0:0|0:0,0:0:0:0:
337,328,49462,2,0,L|405:314,1,70,2|8,1:0|0:0,0:0:0:0:
490,281,49805,1,2,0:0:0:0:
462,193,49976,6,0,L|460:41,1,140,2|8,1:0|0:0,0:0:0:0:
370,33,50490,2,0,L|372:172,1,140,2|0,1:0|1:0,0:0:0:0:
402,259,51005,1,6,0:0:0:0:
256,192,51090,12,2,52719,0:0:0:0:
64,142,53576,5,0,1:0:0:0:
138,89,53747,1,8,0:0:0:0:
138,89,54090,6,0,B|202:62|214:114|275:89,2,140,6|10|2,1:0|0:0|0:0,0:0:0:0:
64,142,54947,1,0,1:0:0:0:
106,222,55119,1,10,0:0:0:0:
106,222,55290,6,0,P|149:232|194:219,1,70,2|0,0:0|1:0,0:0:0:0:
263,208,55633,2,0,P|306:198|351:211,1,70,2|8,0:0|0:0,0:0:0:0:
414,239,55976,2,0,P|422:193|395:145,1,70,2|0,0:0|0:0,0:0:0:0:
491,120,56319,1,0,1:0:0:0:
410,77,56490,2,0,L|340:57,1,70,10|0,0:0|3:0,0:0:0:0:
253,78,56833,6,0,B|189:105|177:53|118:78,2,140,2|10|2,1:0|0:0|0:0,0:0:0:0:
344,82,57690,1,0,1:0:0:0:
434,95,57862,1,10,0:0:0:0:
434,95,58033,6,0,P|447:148|436:183,1,70,2|0,0:0|1:0,0:0:0:0:
408,246,58376,2,0,P|355:259|320:248,1,70,2|8,0:0|0:0,0:0:0:0:
274,193,58719,2,0,P|261:140|272:105,1,70,2|0,0:0|0:0,0:0:0:0:
228,42,59062,1,8,0:0:0:0:
318,54,59233,1,8,0:0:0:0:
193,186,59576,6,0,B|166:250|218:262|193:323,2,140,2|10|2,0:0|0:0|0:0,0:0:0:0:
115,137,60433,1,0,1:0:0:0:
30,171,60605,1,10,0:0:0:0:
30,171,60776,6,0,P|5:115|11:83,1,70,2|0,0:0|1:0,0:0:0:0:
63,38,61119,2,0,L|145:27,1,70,2|8,0:0|0:0,0:0:0:0:
220,52,61462,2,0,L|289:61,1,70,2|0,0:0|0:0,0:0:0:0:
371,100,61805,1,0,1:0:0:0:
362,191,61976,2,0,P|369:237|349:277,1,70,10|0,0:0|0:0,0:0:0:0:
428,320,62319,6,0,P|368:305|289:337,1,140,2|10,1:0|0:0,0:0:0:0:
209,360,62833,1,0,0:0:0:0:
133,308,63005,2,0,L|124:237,1,70,2|0,0:0|1:0,0:0:0:0:
120,147,63347,1,10,0:0:0:0:
181,79,63519,6,0,L|252:70,1,70,2|0,0:0|1:0,0:0:0:0:
339,89,63862,2,0,L|410:80,1,70,2|8,0:0|0:0,0:0:0:0:
489,122,64205,1,2,0:0:0:0:
477,212,64376,1,8,0:0:0:0:
477,212,64462,1,8,0:0:0:0:
477,212,64547,2,0,L|472:287,1,70,0|8,3:0|0:0,0:0:0:0:
397,333,64890,1,2,0:0:0:0:
397,333,65405,6,0,B|354:329|354:329|306:346|306:346|260:340,1,140,6|2,0:0|0:0,0:0:0:0:
171,318,65919,1,0,1:0:0:0:
83,293,66090,1,10,0:0:0:0:
83,293,66262,6,0,L|75:206,1,70,2|0,0:0|1:0,0:0:0:0:
72,132,66605,1,10,0:0:0:0:
162,132,66776,1,8,0:0:0:0:
162,132,66862,1,8,0:0:0:0:
162,132,66947,2,0,P|195:123|230:130,1,70,10|0,0:0|0:0,0:0:0:0:
319,146,67290,1,0,1:0:0:0:
406,170,67462,2,0,L|412:239,1,70,8|0,0:0|0:0,0:0:0:0:
356,312,67805,6,0,B|310:318|310:318|262:301|262:301|219:305,2,140,2|10|2,1:0|0:0|0:0,0:0:0:0:
412,239,68662,1,0,1:0:0:0:
466,166,68833,1,10,0:0:0:0:
466,166,69005,6,0,P|412:154|391:160,1,70,2|0,0:0|1:0,0:0:0:0:
313,188,69347,2,0,P|278:191|245:179,1,70,2|8,0:0|0:0,0:0:0:0:
174,121,69690,2,0,P|120:109|99:115,1,70,2|0,0:0|0:0,0:0:0:0:
26,156,70033,1,0,1:0:0:0:
21,247,70205,2,0,L|31:335,1,70,10|0,0:0|0:0,0:0:0:0:
117,335,70547,6,0,B|160:331|160:331|208:348|208:348|254:342,2,140,2|10|2,1:0|1:0|0:0,0:0:0:0:
28,316,71405,1,0,1:0:0:0:
11,226,71576,1,10,0:0:0:0:
11,226,71747,6,0,L|81:219,1,70,2|0,0:0|1:0,0:0:0:0:
134,145,72090,2,0,L|203:137,1,70,2|8,0:0|0:0,0:0:0:0:
293,124,72433,2,0,P|344:143|429:96,1,140,2|8,0:0|1:0,0:0:0:0:
349,50,72947,1,10,0:0:0:0:
352,232,73290,6,0,L|329:394,1,140,2|10,1:0|0:0,0:0:0:0:
240,370,73805,1,0,0:0:0:0:
188,295,73976,2,0,P|150:282|118:285,1,70,2|0,0:0|1:0,0:0:0:0:
58,352,74319,1,10,0:0:0:0:
13,272,74490,6,0,L|21:180,1,70,2|0,0:0|1:0,0:0:0:0:
42,113,74833,2,0,L|50:21,1,70,2|8,0:0|0:0,0:0:0:0:
133,74,75176,2,0,L|126:143,1,70,2|0,0:0|0:0,0:0:0:0:
117,234,75519,1,10,0:0:0:0:
152,318,75690,1,10,0:0:0:0:
227,268,75862,1,10,0:0:0:0:
227,268,75947,1,8,0:0:0:0:
227,268,76033,6,0,B|196:236|196:236|212:115,1,140,6|10,1:0|0:0,0:0:0:0:
279,81,76547,1,0,3:0:0:0:
359,38,76719,2,0,P|394:30|438:44,1,70,2|0,0:0|1:0,0:0:0:0:
428,121,77062,2,0,P|393:129|349:115,1,70,8|0,3:2|3:0,0:0:0:0:
279,81,77405,6,0,B|236:77|236:77|188:94|188:94|142:88,1,140,2|8,3:2|0:0,0:0:0:0:
65,136,77919,1,0,3:0:0:0:
61,227,78090,2,0,L|75:310,1,70,2|0,0:0|1:0,0:0:0:0:
148,346,78433,2,0,L|159:276,1,70,8|0,0:0|3:0,0:0:0:0:
169,186,78776,5,2,0:0:0:0:
323,281,79119,2,0,P|374:295|468:249,1,140,10|0,0:0|3:0,0:0:0:0:
438,175,79633,2,0,P|387:161|293:207,1,140,2|0,1:0|0:0,0:0:0:0:
255,115,80147,6,0,L|250:38,1,70,2|2,3:2|0:0,0:0:0:0:
166,11,80490,2,0,L|171:80,1,70,10|2,3:2|0:0,0:0:0:0:
91,122,80833,2,0,L|86:45,1,70,2|2,3:2|1:0,0:0:0:0:
2,18,81176,2,0,L|7:87,1,70,10|2,3:2|0:0,0:0:0:0:
13,178,81519,6,0,P|47:219|135:234,1,140,2|10,1:0|0:0,0:0:0:0:
219,220,82033,1,0,0:0:0:0:
308,202,82205,2,0,L|316:278,1,70,0|2,3:0|1:0,0:0:0:0:
405,287,82547,2,0,L|398:217,1,70,8|0,0:0|3:0,0:0:0:0:
366,131,82890,6,0,P|332:90|244:75,1,140,2|8,3:2|0:0,0:0:0:0:
175,20,83405,1,0,0:0:0:0:
110,84,83576,2,0,B|102:120|102:120|110:168,1,70,2|2,0:0|1:0,0:0:0:0:
180,209,83919,2,0,B|225:222,3,35,10|2|2|2,0:0|0:0|0:0|0:0,0:0:0:0:
249,245,84262,6,0,P|287:252|321:244,1,70,2|0,1:0|0:0,0:0:0:0:
397,202,84605,2,0,P|403:167|396:133,1,70,8|2,0:0|1:0,0:0:0:0:
334,67,84947,1,2,0:0:0:0:
249,100,85119,1,2,0:0:0:0:
173,49,85290,1,10,1:0:0:0:
91,90,85462,1,2,0:0:0:0:
91,90,85805,5,10,0:0:0:0:
122,175,85976,1,10,0:0:0:0:
154,260,86147,1,2,1:0:0:0:
154,260,86662,5,2,0:0:0:0:
122,175,87347,5,2,0:0:0:0:
91,90,88033,6,0,B|209:38|209:134|328:90,1,245,2|0,0:0|0:0,0:0:0:0:
