osu file format v14

[General]
AudioFilename: audio.mp3
AudioLeadIn: 0
PreviewTime: 45456
Countdown: 0
SampleSet: Normal
StackLeniency: 0.7
Mode: 1
LetterboxInBreaks: 0
WidescreenStoryboard: 0

[Editor]
Bookmarks: 706,5506,19906,32706,45506,58306,72706,87106
DistanceSpacing: 0.6
BeatDivisor: 4
GridSize: 32
TimelineZoom: 1.9

[Metadata]
Title:FEELING AROUND (TV Size)
TitleUnicode:FEELING AROUND (TV Size)
Artist:Suzuki Minori
ArtistUnicode:鈴木みのり
Creator:iceOC
Version:Oni
Source:ラーメン大好き小泉さん
Tags:ramen daisuki koizumi san love noodles だいすき こいずみ フレデリック Frederic Chromoxx
BeatmapID:1549092
BeatmapSetID:734121

[Difficulty]
HPDrainRate:6
CircleSize:0
OverallDifficulty:6
ApproachRate:5
SliderMultiplier:1.4
SliderTickRate:1

[Events]
//Background and Video events
0,0,"BG.jpg",0,120
//Break Periods
//Storyboard Layer 0 (Background)
//Storyboard Layer 1 (Fail)
//Storyboard Layer 2 (Pass)
//Storyboard Layer 3 (Foreground)
//Storyboard Sound Samples

[TimingPoints]
706,400,4,1,0,80,1,0
5506,-100,4,1,0,80,0,1
19906,-100,4,1,0,80,0,0
45506,-100,4,1,0,80,0,1
58306,-100,4,1,0,80,0,0
58706,-100,4,1,0,80,0,1
72706,-100,4,1,0,80,0,0

[HitObjects]
256,192,706,12,0,1906,0:0:0:0:
256,192,2306,5,4,0:0:0:0:
256,192,3906,1,0,0:0:0:0:
256,192,4706,1,8,0:0:0:0:
256,192,4806,1,8,0:0:0:0:
256,192,5106,1,8,0:0:0:0:
256,192,5206,1,8,0:0:0:0:
256,192,5506,1,4,0:0:0:0:
256,192,5706,1,8,0:0:0:0:
256,192,5806,1,8,0:0:0:0:
256,192,5906,1,0,0:0:0:0:
256,192,6106,1,8,0:0:0:0:
256,192,6306,1,0,0:0:0:0:
256,192,6406,1,0,0:0:0:0:
256,192,6506,1,0,0:0:0:0:
256,192,6706,1,8,0:0:0:0:
256,192,6906,1,0,0:0:0:0:
256,192,7006,1,0,0:0:0:0:
256,192,7106,1,8,0:0:0:0:
256,192,7306,1,8,0:0:0:0:
256,192,7506,1,0,0:0:0:0:
256,192,7706,1,8,0:0:0:0:
256,192,7906,1,0,0:0:0:0:
256,192,8106,1,12,0:0:0:0:
256,192,8306,1,12,0:0:0:0:
256,192,8706,1,8,0:0:0:0:
256,192,8906,1,8,0:0:0:0:
256,192,9106,1,0,0:0:0:0:
256,192,9206,1,0,0:0:0:0:
256,192,9306,1,0,0:0:0:0:
256,192,9506,1,8,0:0:0:0:
256,192,9606,1,0,0:0:0:0:
256,192,9706,1,0,0:0:0:0:
256,192,9906,1,8,0:0:0:0:
256,192,10106,1,8,0:0:0:0:
256,192,10306,1,0,0:0:0:0:
256,192,10406,1,0,0:0:0:0:
256,192,10606,1,0,0:0:0:0:
256,192,10706,1,0,0:0:0:0:
256,192,10906,1,8,0:0:0:0:
256,192,11006,1,8,0:0:0:0:
256,192,11306,1,4,0:0:0:0:
256,192,11506,1,12,0:0:0:0:
256,192,11906,1,4,0:0:0:0:
256,192,12106,1,8,0:0:0:0:
256,192,12206,1,8,0:0:0:0:
256,192,12306,1,0,0:0:0:0:
256,192,12506,1,8,0:0:0:0:
256,192,12706,1,0,0:0:0:0:
256,192,12806,1,0,0:0:0:0:
256,192,12906,1,8,0:0:0:0:
256,192,13006,1,8,0:0:0:0:
256,192,13106,1,0,0:0:0:0:
256,192,13306,1,8,0:0:0:0:
256,192,13506,1,0,0:0:0:0:
256,192,13706,1,8,0:0:0:0:
256,192,13806,1,8,0:0:0:0:
256,192,13906,1,0,0:0:0:0:
256,192,14106,1,8,0:0:0:0:
256,192,14306,1,0,0:0:0:0:
256,192,14506,1,12,0:0:0:0:
256,192,14706,1,12,0:0:0:0:
256,192,14906,1,0,0:0:0:0:
256,192,15006,1,0,0:0:0:0:
256,192,15106,1,8,0:0:0:0:
256,192,15406,1,0,0:0:0:0:
256,192,15506,1,8,0:0:0:0:
256,192,15706,1,0,0:0:0:0:
256,192,15806,1,0,0:0:0:0:
256,192,15906,1,8,0:0:0:0:
256,192,16106,1,0,0:0:0:0:
256,192,16306,1,8,0:0:0:0:
256,192,16406,1,8,0:0:0:0:
256,192,16506,1,8,0:0:0:0:
256,192,16706,1,4,0:0:0:0:
256,192,17106,1,8,0:0:0:0:
256,192,17306,1,4,0:0:0:0:
256,192,17706,1,8,0:0:0:0:
256,192,17906,1,4,0:0:0:0:
256,192,18306,1,8,0:0:0:0:
256,192,18506,1,12,0:0:0:0:
256,192,18906,1,0,0:0:0:0:
256,192,19106,1,8,0:0:0:0:
256,192,19206,1,8,0:0:0:0:
256,192,19306,1,0,0:0:0:0:
256,192,19506,1,12,0:0:0:0:
256,192,19906,1,0,0:0:0:0:
256,192,20706,1,0,0:0:0:0:
256,192,20906,1,8,0:0:0:0:
256,192,21506,1,0,0:0:0:0:
256,192,21706,1,0,0:0:0:0:
256,192,21906,1,0,0:0:0:0:
256,192,22106,1,8,0:0:0:0:
256,192,22506,1,8,0:0:0:0:
256,192,22706,1,0,0:0:0:0:
256,192,23106,1,0,0:0:0:0:
256,192,23506,1,8,0:0:0:0:
256,192,23906,1,0,0:0:0:0:
256,192,24106,1,0,0:0:0:0:
256,192,24306,1,8,0:0:0:0:
256,192,24506,1,8,0:0:0:0:
256,192,24906,1,0,0:0:0:0:
256,192,25106,1,0,0:0:0:0:
256,192,25506,1,8,0:0:0:0:
256,192,25706,1,8,0:0:0:0:
256,192,25906,1,0,0:0:0:0:
256,192,26306,1,4,0:0:0:0:
256,192,26506,1,0,0:0:0:0:
256,192,26706,1,8,0:0:0:0:
256,192,27106,1,0,0:0:0:0:
256,192,27306,1,8,0:0:0:0:
256,192,27906,1,0,0:0:0:0:
256,192,28106,1,0,0:0:0:0:
256,192,28306,1,0,0:0:0:0:
256,192,28506,1,8,0:0:0:0:
256,192,28906,1,8,0:0:0:0:
256,192,29106,1,0,0:0:0:0:
256,192,29506,1,0,0:0:0:0:
256,192,29706,1,0,0:0:0:0:
256,192,29906,1,8,0:0:0:0:
256,192,30106,1,8,0:0:0:0:
256,192,30306,1,0,0:0:0:0:
256,192,30506,1,0,0:0:0:0:
256,192,30906,1,8,0:0:0:0:
256,192,31106,1,0,0:0:0:0:
256,192,31206,1,0,0:0:0:0:
256,192,31306,1,8,0:0:0:0:
256,192,32106,1,12,0:0:0:0:
256,192,32306,1,12,0:0:0:0:
256,192,32706,1,0,0:0:0:0:
256,192,33106,1,8,0:0:0:0:
256,192,33306,1,8,0:0:0:0:
256,192,33506,1,0,0:0:0:0:
256,192,33606,1,0,0:0:0:0:
256,192,33706,1,0,0:0:0:0:
256,192,33906,1,8,0:0:0:0:
256,192,34306,1,0,0:0:0:0:
256,192,34506,1,0,0:0:0:0:
256,192,34706,1,8,0:0:0:0:
256,192,34906,1,8,0:0:0:0:
256,192,35006,1,8,0:0:0:0:
256,192,35106,1,0,0:0:0:0:
256,192,35306,1,0,0:0:0:0:
256,192,35506,1,8,0:0:0:0:
256,192,35906,1,0,0:0:0:0:
256,192,36106,1,0,0:0:0:0:
256,192,36206,1,0,0:0:0:0:
256,192,36306,1,8,0:0:0:0:
256,192,36506,1,8,0:0:0:0:
256,192,36706,1,0,0:0:0:0:
256,192,36906,1,8,0:0:0:0:
256,192,37006,1,8,0:0:0:0:
256,192,37106,1,8,0:0:0:0:
256,192,37306,1,0,0:0:0:0:
256,192,37706,1,0,0:0:0:0:
256,192,37906,1,8,0:0:0:0:
256,192,38006,1,8,0:0:0:0:
256,192,38106,1,0,0:0:0:0:
256,192,38306,1,0,0:0:0:0:
256,192,38506,1,12,0:0:0:0:
256,192,38706,1,12,0:0:0:0:
256,192,39106,1,0,0:0:0:0:
256,192,39306,1,0,0:0:0:0:
256,192,39506,1,8,0:0:0:0:
256,192,39906,1,0,0:0:0:0:
256,192,40106,1,8,0:0:0:0:
256,192,40706,1,4,0:0:0:0:
256,192,41106,1,12,0:0:0:0:
256,192,41506,1,4,0:0:0:0:
256,192,41906,1,8,0:0:0:0:
256,192,42306,1,4,0:0:0:0:
256,192,42506,1,8,0:0:0:0:
256,192,42606,1,8,0:0:0:0:
256,192,42706,1,0,0:0:0:0:
256,192,42906,1,8,0:0:0:0:
256,192,43106,1,0,0:0:0:0:
256,192,43206,1,0,0:0:0:0:
256,192,43306,1,0,0:0:0:0:
256,192,43506,1,8,0:0:0:0:
256,192,43706,1,8,0:0:0:0:
256,192,43906,1,0,0:0:0:0:
256,192,44006,1,0,0:0:0:0:
256,192,44206,1,8,0:0:0:0:
256,192,44406,1,8,0:0:0:0:
256,192,44506,1,8,0:0:0:0:
256,192,44906,1,0,0:0:0:0:
256,192,45106,1,8,0:0:0:0:
256,192,45206,1,8,0:0:0:0:
256,192,45306,1,8,0:0:0:0:
256,192,45506,1,4,0:0:0:0:
256,192,45706,1,8,0:0:0:0:
256,192,45806,1,8,0:0:0:0:
256,192,45906,1,0,0:0:0:0:
256,192,46106,1,8,0:0:0:0:
256,192,46306,1,0,0:0:0:0:
256,192,46406,1,0,0:0:0:0:
256,192,46506,1,8,0:0:0:0:
256,192,46606,1,8,0:0:0:0:
256,192,46706,1,0,0:0:0:0:
256,192,46906,1,8,0:0:0:0:
256,192,47006,1,8,0:0:0:0:
256,192,47106,1,0,0:0:0:0:
256,192,47306,1,8,0:0:0:0:
256,192,47506,1,0,0:0:0:0:
256,192,47606,1,0,0:0:0:0:
256,192,47706,1,8,0:0:0:0:
256,192,47906,1,0,0:0:0:0:
256,192,48106,1,8,0:0:0:0:
256,192,48206,1,0,0:0:0:0:
256,192,48306,1,8,0:0:0:0:
256,192,48406,1,8,0:0:0:0:
256,192,48506,1,0,0:0:0:0:
256,192,48706,1,8,0:0:0:0:
256,192,48806,1,8,0:0:0:0:
256,192,48906,1,0,0:0:0:0:
256,192,49006,1,0,0:0:0:0:
256,192,49106,1,8,0:0:0:0:
256,192,49306,1,0,0:0:0:0:
256,192,49506,1,8,0:0:0:0:
256,192,49706,1,8,0:0:0:0:
256,192,49806,1,0,0:0:0:0:
256,192,49906,1,0,0:0:0:0:
256,192,50106,1,8,0:0:0:0:
256,192,50306,1,0,0:0:0:0:
256,192,50406,1,0,0:0:0:0:
256,192,50506,1,8,0:0:0:0:
256,192,50606,1,8,0:0:0:0:
256,192,50706,1,0,0:0:0:0:
256,192,50906,1,8,0:0:0:0:
256,192,51106,1,0,0:0:0:0:
256,192,51206,1,0,0:0:0:0:
256,192,51306,1,0,0:0:0:0:
256,192,51506,1,12,0:0:0:0:
256,192,51706,1,0,0:0:0:0:
256,192,51806,1,8,0:0:0:0:
256,192,51906,1,0,0:0:0:0:
256,192,52306,1,12,0:0:0:0:
256,192,52506,1,8,0:0:0:0:
256,192,52606,1,8,0:0:0:0:
256,192,52706,1,0,0:0:0:0:
256,192,52906,1,0,0:0:0:0:
256,192,53106,1,8,0:0:0:0:
256,192,53306,1,8,0:0:0:0:
256,192,53406,1,0,0:0:0:0:
256,192,53506,1,0,0:0:0:0:
256,192,53706,1,8,0:0:0:0:
256,192,53906,1,8,0:0:0:0:
256,192,54106,1,0,0:0:0:0:
256,192,54306,1,8,0:0:0:0:
256,192,54406,1,8,0:0:0:0:
256,192,54506,1,0,0:0:0:0:
256,192,54606,1,8,0:0:0:0:
256,192,54706,1,8,0:0:0:0:
256,192,54906,1,8,0:0:0:0:
256,192,55306,1,8,0:0:0:0:
256,192,55506,1,8,0:0:0:0:
256,192,55706,1,0,0:0:0:0:
256,192,55906,1,8,0:0:0:0:
256,192,56006,1,8,0:0:0:0:
256,192,56106,1,8,0:0:0:0:
256,192,56206,1,8,0:0:0:0:
256,192,56306,1,0,0:0:0:0:
256,192,56506,1,0,0:0:0:0:
256,192,56706,1,12,0:0:0:0:
256,192,56906,1,8,0:0:0:0:
256,192,57106,1,0,0:0:0:0:
256,192,57506,1,12,0:0:0:0:
256,192,57906,1,12,0:0:0:0:
256,192,58306,1,0,0:0:0:0:
256,192,58406,1,8,0:0:0:0:
256,192,58506,1,0,0:0:0:0:
256,192,58706,1,12,0:0:0:0:
256,192,59106,1,0,0:0:0:0:
256,192,59306,1,8,0:0:0:0:
256,192,59506,1,0,0:0:0:0:
256,192,59606,1,0,0:0:0:0:
256,192,59706,1,8,0:0:0:0:
256,192,59806,1,8,0:0:0:0:
256,192,59906,1,0,0:0:0:0:
256,192,60106,1,8,0:0:0:0:
256,192,60206,1,8,0:0:0:0:
256,192,60306,1,0,0:0:0:0:
256,192,60506,1,8,0:0:0:0:
256,192,60706,1,0,0:0:0:0:
256,192,60806,1,0,0:0:0:0:
256,192,60906,1,8,0:0:0:0:
256,192,61006,1,0,0:0:0:0:
256,192,61106,1,8,0:0:0:0:
256,192,61306,1,0,0:0:0:0:
256,192,61506,1,8,0:0:0:0:
256,192,61606,1,8,0:0:0:0:
256,192,61706,1,0,0:0:0:0:
256,192,61806,1,0,0:0:0:0:
256,192,61906,1,8,0:0:0:0:
256,192,62106,1,0,0:0:0:0:
256,192,62206,1,0,0:0:0:0:
256,192,62306,1,8,0:0:0:0:
256,192,62506,1,0,0:0:0:0:
256,192,62706,1,8,0:0:0:0:
256,192,62806,1,0,0:0:0:0:
256,192,62906,1,8,0:0:0:0:
256,192,63006,1,8,0:0:0:0:
256,192,63106,1,0,0:0:0:0:
256,192,63306,1,8,0:0:0:0:
256,192,63506,1,0,0:0:0:0:
256,192,63606,1,0,0:0:0:0:
256,192,63706,1,8,0:0:0:0:
256,192,63806,1,8,0:0:0:0:
256,192,63906,1,0,0:0:0:0:
256,192,64106,1,8,0:0:0:0:
256,192,64306,1,4,0:0:0:0:
256,192,64506,1,0,0:0:0:0:
256,192,64606,1,8,0:0:0:0:
256,192,64706,1,0,0:0:0:0:
256,192,65106,1,12,0:0:0:0:
256,192,65306,1,0,0:0:0:0:
256,192,65406,1,8,0:0:0:0:
256,192,65506,1,8,0:0:0:0:
256,192,65706,1,0,0:0:0:0:
256,192,65906,1,8,0:0:0:0:
256,192,66006,1,8,0:0:0:0:
256,192,66106,1,0,0:0:0:0:
256,192,66206,1,8,0:0:0:0:
256,192,66306,1,0,0:0:0:0:
256,192,66506,1,8,0:0:0:0:
256,192,66706,1,0,0:0:0:0:
256,192,66806,1,0,0:0:0:0:
256,192,66906,1,8,0:0:0:0:
256,192,67006,1,8,0:0:0:0:
256,192,67106,1,0,0:0:0:0:
256,192,67306,1,0,0:0:0:0:
256,192,67506,1,8,0:0:0:0:
256,192,67906,1,4,0:0:0:0:
256,192,68106,1,8,0:0:0:0:
256,192,68306,1,8,0:0:0:0:
256,192,68506,1,0,0:0:0:0:
256,192,68606,1,0,0:0:0:0:
256,192,68706,1,8,0:0:0:0:
256,192,68906,1,8,0:0:0:0:
256,192,69106,1,0,0:0:0:0:
256,192,69206,1,8,0:0:0:0:
256,192,69306,1,0,0:0:0:0:
256,192,69406,1,8,0:0:0:0:
256,192,69506,1,0,0:0:0:0:
256,192,69906,1,8,0:0:0:0:
256,192,70106,1,4,0:0:0:0:
256,192,70506,1,8,0:0:0:0:
256,192,70706,1,4,0:0:0:0:
256,192,70906,1,8,0:0:0:0:
256,192,71006,1,8,0:0:0:0:
256,192,71106,1,0,0:0:0:0:
256,192,72106,1,0,0:0:0:0:
256,192,72306,1,8,0:0:0:0:
256,192,72406,1,8,0:0:0:0:
256,192,72506,1,8,0:0:0:0:
256,192,72706,1,4,0:0:0:0:
256,192,72906,1,8,0:0:0:0:
256,192,73106,1,0,0:0:0:0:
256,192,73206,1,0,0:0:0:0:
256,192,73306,1,8,0:0:0:0:
256,192,73406,1,8,0:0:0:0:
256,192,73506,1,0,0:0:0:0:
256,192,73706,1,8,0:0:0:0:
256,192,73806,1,0,0:0:0:0:
256,192,74106,1,8,0:0:0:0:
256,192,74306,1,0,0:0:0:0:
256,192,74406,1,0,0:0:0:0:
256,192,74506,1,8,0:0:0:0:
256,192,74606,1,0,0:0:0:0:
256,192,74706,1,8,0:0:0:0:
256,192,74906,1,8,0:0:0:0:
256,192,75006,1,8,0:0:0:0:
256,192,75106,1,0,0:0:0:0:
256,192,75306,1,0,0:0:0:0:
256,192,75506,1,8,0:0:0:0:
256,192,75706,1,8,0:0:0:0:
256,192,75906,1,4,0:0:0:0:
256,192,76306,1,0,0:0:0:0:
256,192,76406,1,0,0:0:0:0:
256,192,76506,1,8,0:0:0:0:
256,192,76606,1,8,0:0:0:0:
256,192,76706,1,0,0:0:0:0:
256,192,76906,1,8,0:0:0:0:
256,192,77006,1,0,0:0:0:0:
256,192,77206,1,8,0:0:0:0:
256,192,77306,1,8,0:0:0:0:
256,192,77406,1,8,0:0:0:0:
256,192,77506,1,0,0:0:0:0:
256,192,78506,1,0,0:0:0:0:
256,192,78706,1,8,0:0:0:0:
256,192,78806,1,8,0:0:0:0:
256,192,78906,1,8,0:0:0:0:
256,192,79106,1,4,0:0:0:0:
256,192,79506,1,8,0:0:0:0:
256,192,79606,1,8,0:0:0:0:
256,192,79706,1,0,0:0:0:0:
256,192,79806,1,0,0:0:0:0:
256,192,79906,1,8,0:0:0:0:
256,192,80106,1,8,0:0:0:0:
256,192,80206,1,0,0:0:0:0:
256,192,80506,1,0,0:0:0:0:
256,192,80706,1,8,0:0:0:0:
256,192,80806,1,0,0:0:0:0:
256,192,80906,1,8,0:0:0:0:
256,192,81006,1,8,0:0:0:0:
256,192,81106,1,0,0:0:0:0:
256,192,81306,1,8,0:0:0:0:
256,192,81406,1,0,0:0:0:0:
256,192,81506,1,0,0:0:0:0:
256,192,81706,1,8,0:0:0:0:
256,192,81906,1,8,0:0:0:0:
256,192,82106,1,0,0:0:0:0:
256,192,82306,5,4,0:0:0:0:
256,192,82506,1,8,0:0:0:0:
256,192,82606,1,0,0:0:0:0:
256,192,82706,1,0,0:0:0:0:
256,192,82806,1,8,0:0:0:0:
256,192,82906,1,8,0:0:0:0:
256,192,83006,1,8,0:0:0:0:
256,192,83106,1,0,0:0:0:0:
256,192,83306,5,8,0:0:0:0:
256,192,83406,1,0,0:0:0:0:
256,192,83706,1,8,0:0:0:0:
256,192,83906,1,4,0:0:0:0:
256,192,84306,1,8,0:0:0:0:
256,192,84506,1,4,0:0:0:0:
256,192,84906,1,8,0:0:0:0:
256,192,85106,1,4,0:0:0:0:
256,192,85506,1,8,0:0:0:0:
256,192,85706,1,12,0:0:0:0:
256,192,86106,1,0,0:0:0:0:
256,192,86306,1,12,0:0:0:0:
256,192,86706,1,12,0:0:0:0:
