osu file format v14

[General]
AudioFilename: audio.mp3
AudioLeadIn: 0
PreviewTime: 45456
Countdown: 0
SampleSet: Normal
StackLeniency: 0.7
Mode: 1
LetterboxInBreaks: 0
WidescreenStoryboard: 1

[Editor]
Bookmarks: 706,5506,19906,32706,45506,58306,72706,87106
DistanceSpacing: 0.6
BeatDivisor: 2
GridSize: 32
TimelineZoom: 0.4999999

[Metadata]
Title:FEELING AROUND (TV Size)
TitleUnicode:FEELING AROUND (TV Size)
Artist:Suzuki Minori
ArtistUnicode:鈴木みのり
Creator:iceOC
Version:Kantan
Source:ラーメン大好き小泉さん
Tags:ramen daisuki koizumi san love noodles だいすき こいずみ フレデリック Frederic Chromoxx
BeatmapID:1564425
BeatmapSetID:734121

[Difficulty]
HPDrainRate:7
CircleSize:0
OverallDifficulty:3
ApproachRate:5
SliderMultiplier:1.4
SliderTickRate:1

[Events]
//Background and Video events
0,0,"BG.jpg",0,120
//Break Periods
//Storyboard Layer 0 (Background)
//Storyboard Layer 1 (Fail)
//Storyboard Layer 2 (Pass)
//Storyboard Layer 3 (Foreground)
//Storyboard Sound Samples

[TimingPoints]
706,400,4,1,0,80,1,0
5506,-100,4,1,0,80,0,1
19906,-100,4,1,0,80,0,0
45506,-100,4,1,0,80,0,1
58306,-100,4,1,0,80,0,0
58706,-100,4,1,0,80,0,1
72706,-100,4,1,0,80,0,0

[HitObjects]
256,192,706,12,0,1906,0:0:0:0:
256,192,2306,5,4,0:0:0:0:
256,192,3906,1,0,0:0:0:0:
256,192,5506,1,4,0:0:0:0:
256,192,6306,1,8,0:0:0:0:
256,192,7106,1,0,0:0:0:0:
256,192,7506,1,0,0:0:0:0:
256,192,7906,1,0,0:0:0:0:
256,192,8706,1,8,0:0:0:0:
256,192,9506,1,0,0:0:0:0:
256,192,10306,1,8,0:0:0:0:
256,192,11906,1,4,0:0:0:0:
256,192,12706,1,8,0:0:0:0:
256,192,13506,1,0,0:0:0:0:
256,192,13906,1,0,0:0:0:0:
256,192,14306,1,0,0:0:0:0:
256,192,15106,1,8,0:0:0:0:
256,192,15906,1,8,0:0:0:0:
256,192,16706,1,4,0:0:0:0:
256,192,17906,1,4,0:0:0:0:
256,192,19106,1,12,0:0:0:0:
256,192,19506,1,12,0:0:0:0:
256,192,19906,1,0,0:0:0:0:
256,192,20706,1,0,0:0:0:0:
256,192,21506,1,0,0:0:0:0:
256,192,23106,1,8,0:0:0:0:
256,192,23906,1,8,0:0:0:0:
256,192,24706,1,8,0:0:0:0:
256,192,25106,1,8,0:0:0:0:
256,192,25506,1,8,0:0:0:0:
256,192,26306,1,4,0:0:0:0:
256,192,27106,1,8,0:0:0:0:
256,192,27906,1,0,0:0:0:0:
256,192,29506,1,8,0:0:0:0:
256,192,30306,1,0,0:0:0:0:
256,192,31106,1,8,0:0:0:0:
256,192,32706,1,8,0:0:0:0:
256,192,33506,1,8,0:0:0:0:
256,192,34306,1,8,0:0:0:0:
256,192,35906,1,0,0:0:0:0:
256,192,36706,1,0,0:0:0:0:
256,192,37506,1,0,0:0:0:0:
256,192,37906,1,0,0:0:0:0:
256,192,38306,1,0,0:0:0:0:
256,192,39106,1,12,0:0:0:0:
256,192,39906,1,8,0:0:0:0:
256,192,40706,1,0,0:0:0:0:
256,192,41106,1,8,0:0:0:0:
256,192,41506,1,0,0:0:0:0:
256,192,42306,1,4,0:0:0:0:
256,192,43106,1,8,0:0:0:0:
256,192,43906,1,0,0:0:0:0:
256,192,45506,1,4,0:0:0:0:
256,192,46306,1,8,0:0:0:0:
256,192,47106,1,0,0:0:0:0:
256,192,47506,1,0,0:0:0:0:
256,192,47906,1,8,0:0:0:0:
256,192,48706,1,0,0:0:0:0:
256,192,49506,1,8,0:0:0:0:
256,192,50306,1,0,0:0:0:0:
256,192,50706,1,8,0:0:0:0:
256,192,51106,1,0,0:0:0:0:
256,192,51906,1,0,0:0:0:0:
256,192,53506,1,0,0:0:0:0:
256,192,54306,1,8,0:0:0:0:
256,192,55106,1,0,0:0:0:0:
256,192,55506,1,8,0:0:0:0:
256,192,55906,1,0,0:0:0:0:
256,192,56706,1,8,0:0:0:0:
256,192,57506,1,12,0:0:0:0:
256,192,57906,1,12,0:0:0:0:
256,192,58706,1,12,0:0:0:0:
256,192,59106,1,0,0:0:0:0:
256,192,59906,1,8,0:0:0:0:
256,192,60306,1,8,0:0:0:0:
256,192,60706,1,0,0:0:0:0:
256,192,61506,1,8,0:0:0:0:
256,192,62306,1,0,0:0:0:0:
256,192,63106,1,8,0:0:0:0:
256,192,63506,1,0,0:0:0:0:
256,192,63906,1,8,0:0:0:0:
256,192,64706,1,8,0:0:0:0:
256,192,66306,1,8,0:0:0:0:
256,192,67106,1,0,0:0:0:0:
256,192,67906,1,8,0:0:0:0:
256,192,68306,1,0,0:0:0:0:
256,192,68706,1,8,0:0:0:0:
256,192,69506,1,4,0:0:0:0:
256,192,70106,1,4,0:0:0:0:
256,192,70706,1,4,0:0:0:0:
256,192,71106,1,4,0:0:0:0:
256,192,72706,1,0,0:0:0:0:
256,192,73506,1,8,0:0:0:0:
256,192,74306,1,0,0:0:0:0:
256,192,74706,1,0,0:0:0:0:
256,192,75106,1,8,0:0:0:0:
256,192,75906,1,0,0:0:0:0:
256,192,76706,1,8,0:0:0:0:
256,192,77506,1,4,0:0:0:0:
256,192,79106,1,4,0:0:0:0:
256,192,79906,1,8,0:0:0:0:
256,192,80706,1,0,0:0:0:0:
256,192,81106,1,0,0:0:0:0:
256,192,81506,1,8,0:0:0:0:
256,192,82306,1,0,0:0:0:0:
256,192,83106,1,8,0:0:0:0:
256,192,83906,1,4,0:0:0:0:
256,192,85106,1,4,0:0:0:0:
256,192,86306,1,12,0:0:0:0:
256,192,86706,1,12,0:0:0:0:
