osu file format v14

[General]
AudioFilename: audio.mp3
AudioLeadIn: 0
PreviewTime: 45456
Countdown: 0
SampleSet: Normal
StackLeniency: 0.7
Mode: 1
LetterboxInBreaks: 0
WidescreenStoryboard: 0

[Editor]
Bookmarks: 706,5506,19906,32706,45506,58306,72706,87106
DistanceSpacing: 0.6
BeatDivisor: 4
GridSize: 32
TimelineZoom: 1

[Metadata]
Title:FEELING AROUND (TV Size)
TitleUnicode:FEELING AROUND (TV Size)
Artist:Suzuki Minori
ArtistUnicode:鈴木みのり
Creator:iceOC
Version:Chromoxx' Futsuu
Source:ラーメン大好き小泉さん
Tags:ramen daisuki koizumi san love noodles だいすき こいずみ フレデリック Frederic Chromoxx
BeatmapID:1627962
BeatmapSetID:734121

[Difficulty]
HPDrainRate:6
CircleSize:0
OverallDifficulty:4
ApproachRate:5
SliderMultiplier:1.4
SliderTickRate:1

[Events]
//Background and Video events
0,0,"BG.jpg",0,120
//Break Periods
//Storyboard Layer 0 (Background)
//Storyboard Layer 1 (Fail)
//Storyboard Layer 2 (Pass)
//Storyboard Layer 3 (Foreground)
//Storyboard Sound Samples

[TimingPoints]
706,400,4,1,0,80,1,0
5506,-100,4,1,0,80,0,1
19906,-100,4,1,0,80,0,0
45506,-100,4,1,0,80,0,1
58306,-100,4,1,0,80,0,0
58706,-100,4,1,0,80,0,1
72706,-100,4,1,0,80,0,0

[HitObjects]
256,192,706,12,0,1906,0:0:0:0:
288,256,2306,5,4,0:0:0:0:
352,256,3906,1,0,0:0:0:0:
256,256,4706,1,8,0:0:0:0:
256,256,5506,1,0,0:0:0:0:
384,192,5906,1,8,0:0:0:0:
224,288,6306,1,8,0:0:0:0:
224,288,6706,1,0,0:0:0:0:
320,224,6906,1,8,0:0:0:0:
320,224,7106,1,0,0:0:0:0:
320,224,7506,1,8,0:0:0:0:
320,224,7906,1,0,0:0:0:0:
416,256,8706,1,8,0:0:0:0:
416,256,9106,1,0,0:0:0:0:
416,256,9506,1,0,0:0:0:0:
288,192,9906,1,8,0:0:0:0:
288,192,10106,1,0,0:0:0:0:
288,192,10306,1,8,0:0:0:0:
288,192,10706,1,8,0:0:0:0:
160,128,10906,1,8,0:0:0:0:
352,256,11506,1,8,0:0:0:0:
224,224,11906,1,0,0:0:0:0:
224,224,12306,1,8,0:0:0:0:
256,192,12706,1,0,0:0:0:0:
288,256,13106,1,8,0:0:0:0:
288,256,13306,1,0,0:0:0:0:
288,256,13506,1,0,0:0:0:0:
416,128,13906,1,8,0:0:0:0:
416,128,14306,1,0,0:0:0:0:
320,224,15106,1,8,0:0:0:0:
256,256,15506,1,0,0:0:0:0:
256,256,15906,1,8,0:0:0:0:
416,256,16106,1,0,0:0:0:0:
288,224,16306,1,8,0:0:0:0:
288,128,16706,1,4,0:0:0:0:
192,128,17306,1,12,0:0:0:0:
192,128,17906,1,4,0:0:0:0:
288,160,18506,1,12,0:0:0:0:
288,160,19106,1,12,0:0:0:0:
320,128,19506,1,12,0:0:0:0:
384,224,19906,1,0,0:0:0:0:
384,224,20306,1,8,0:0:0:0:
384,256,20706,1,0,0:0:0:0:
288,192,21506,1,0,0:0:0:0:
288,192,21706,1,0,0:0:0:0:
288,192,21906,1,8,0:0:0:0:
128,192,22306,1,0,0:0:0:0:
224,96,23106,1,8,0:0:0:0:
224,224,23506,1,0,0:0:0:0:
224,224,23906,1,8,0:0:0:0:
224,224,24706,1,8,0:0:0:0:
224,224,24906,1,8,0:0:0:0:
192,96,25106,1,0,0:0:0:0:
256,192,25506,1,8,0:0:0:0:
352,224,26306,1,0,0:0:0:0:
352,224,26706,1,8,0:0:0:0:
256,288,27106,1,0,0:0:0:0:
256,288,27306,1,0,0:0:0:0:
256,288,27506,1,8,0:0:0:0:
256,288,27906,1,0,0:0:0:0:
320,160,28306,1,8,0:0:0:0:
160,160,28506,1,0,0:0:0:0:
352,192,29106,1,0,0:0:0:0:
352,192,29506,1,8,0:0:0:0:
352,192,29906,1,0,0:0:0:0:
320,192,30306,1,8,0:0:0:0:
256,224,30506,1,8,0:0:0:0:
256,224,30706,1,0,0:0:0:0:
192,288,31106,1,8,0:0:0:0:
192,288,31306,1,8,0:0:0:0:
256,64,32106,1,12,0:0:0:0:
256,64,32306,1,12,0:0:0:0:
384,192,32706,1,0,0:0:0:0:
288,224,33106,1,8,0:0:0:0:
224,224,33506,1,8,0:0:0:0:
288,256,33706,1,0,0:0:0:0:
288,256,33906,1,8,0:0:0:0:
288,256,34306,1,0,0:0:0:0:
256,192,34706,1,8,0:0:0:0:
192,160,35106,1,0,0:0:0:0:
320,288,35906,1,8,0:0:0:0:
352,192,36306,1,0,0:0:0:0:
288,224,36706,1,0,0:0:0:0:
352,192,36906,1,8,0:0:0:0:
352,192,37106,1,0,0:0:0:0:
352,192,37506,1,8,0:0:0:0:
256,192,37906,1,0,0:0:0:0:
224,128,38306,1,8,0:0:0:0:
192,160,39106,1,0,0:0:0:0:
192,160,39506,1,8,0:0:0:0:
192,160,39906,1,0,0:0:0:0:
256,288,40106,1,0,0:0:0:0:
256,288,40306,1,8,0:0:0:0:
384,256,40706,1,0,0:0:0:0:
352,96,41106,1,8,0:0:0:0:
384,256,41506,1,4,0:0:0:0:
256,160,42306,1,8,0:0:0:0:
256,192,42706,1,0,0:0:0:0:
256,192,43106,1,8,0:0:0:0:
256,192,43306,1,8,0:0:0:0:
256,192,43506,1,0,0:0:0:0:
256,192,43906,1,8,0:0:0:0:
256,192,44906,1,12,0:0:0:0:
256,192,45106,1,12,0:0:0:0:
384,224,45506,1,0,0:0:0:0:
256,192,45906,1,0,0:0:0:0:
320,192,46306,1,8,0:0:0:0:
192,256,46706,1,0,0:0:0:0:
192,256,46906,1,8,0:0:0:0:
192,256,47306,1,8,0:0:0:0:
192,256,47506,1,0,0:0:0:0:
320,224,47906,1,8,0:0:0:0:
256,256,48306,1,0,0:0:0:0:
256,256,48706,1,8,0:0:0:0:
416,224,48906,1,0,0:0:0:0:
288,128,49106,1,8,0:0:0:0:
256,256,49506,1,0,0:0:0:0:
192,288,49906,1,8,0:0:0:0:
192,288,50306,1,0,0:0:0:0:
192,288,50506,1,0,0:0:0:0:
192,288,50706,1,8,0:0:0:0:
256,160,50906,1,8,0:0:0:0:
128,128,51106,1,0,0:0:0:0:
256,192,51506,1,8,0:0:0:0:
352,224,51906,1,0,0:0:0:0:
256,192,52706,1,0,0:0:0:0:
256,192,53106,1,8,0:0:0:0:
256,192,53306,1,0,0:0:0:0:
256,192,53706,1,0,0:0:0:0:
256,192,53906,1,8,0:0:0:0:
256,64,54106,1,0,0:0:0:0:
256,64,54306,1,8,0:0:0:0:
352,192,54706,1,8,0:0:0:0:
352,192,55106,1,0,0:0:0:0:
288,256,55506,1,0,0:0:0:0:
256,224,55906,1,8,0:0:0:0:
288,96,56106,1,8,0:0:0:0:
288,96,56306,1,0,0:0:0:0:
352,224,56706,1,8,0:0:0:0:
320,288,57506,1,12,0:0:0:0:
320,288,57906,1,12,0:0:0:0:
352,192,58706,1,4,0:0:0:0:
256,192,59106,1,0,0:0:0:0:
352,288,59506,1,8,0:0:0:0:
352,288,59706,1,0,0:0:0:0:
352,288,60106,1,0,0:0:0:0:
352,288,60306,1,8,0:0:0:0:
288,224,60706,1,0,0:0:0:0:
288,224,61106,1,8,0:0:0:0:
352,224,61506,1,0,0:0:0:0:
352,224,61706,1,8,0:0:0:0:
352,224,61906,1,0,0:0:0:0:
352,224,62306,1,8,0:0:0:0:
352,224,62706,1,0,0:0:0:0:
256,256,63106,1,8,0:0:0:0:
256,256,63306,1,8,0:0:0:0:
256,256,63506,1,0,0:0:0:0:
256,256,63706,1,0,0:0:0:0:
256,256,63906,1,8,0:0:0:0:
160,192,64306,1,8,0:0:0:0:
160,192,64706,1,0,0:0:0:0:
256,128,65506,1,8,0:0:0:0:
256,128,65906,1,0,0:0:0:0:
320,160,66106,1,8,0:0:0:0:
320,160,66506,1,8,0:0:0:0:
320,160,66706,1,0,0:0:0:0:
256,224,66906,1,8,0:0:0:0:
256,224,67106,1,0,0:0:0:0:
192,256,67506,1,8,0:0:0:0:
192,256,67906,1,0,0:0:0:0:
320,224,68306,1,8,0:0:0:0:
320,224,68706,1,8,0:0:0:0:
256,256,69106,1,0,0:0:0:0:
256,256,69306,1,0,0:0:0:0:
384,192,69506,1,12,0:0:0:0:
384,192,70106,1,12,0:0:0:0:
384,192,70706,1,12,0:0:0:0:
352,160,71106,1,4,0:0:0:0:
320,224,72706,1,0,0:0:0:0:
320,224,73106,1,8,0:0:0:0:
224,224,73306,1,8,0:0:0:0:
320,224,73506,1,0,0:0:0:0:
224,256,73906,1,8,0:0:0:0:
224,256,74306,1,0,0:0:0:0:
288,224,74506,1,0,0:0:0:0:
288,224,74706,1,8,0:0:0:0:
224,96,75106,1,0,0:0:0:0:
256,256,75906,1,0,0:0:0:0:
256,224,76306,1,0,0:0:0:0:
256,224,76506,1,8,0:0:0:0:
256,224,76706,1,0,0:0:0:0:
256,224,77106,1,8,0:0:0:0:
320,224,77506,1,4,0:0:0:0:
352,256,79106,1,0,0:0:0:0:
352,256,79506,1,8,0:0:0:0:
352,256,79706,1,8,0:0:0:0:
352,256,79906,1,0,0:0:0:0:
352,256,80306,1,8,0:0:0:0:
352,256,80706,1,0,0:0:0:0:
352,256,80906,1,0,0:0:0:0:
352,256,81106,1,8,0:0:0:0:
352,256,81506,1,0,0:0:0:0:
224,224,82306,1,0,0:0:0:0:
224,224,82706,1,0,0:0:0:0:
224,224,82906,1,8,0:0:0:0:
224,224,83106,1,0,0:0:0:0:
224,224,83506,1,8,0:0:0:0:
288,160,83906,1,4,0:0:0:0:
352,192,84506,1,12,0:0:0:0:
320,288,85106,1,4,0:0:0:0:
320,288,85706,1,4,0:0:0:0:
320,288,86306,1,12,0:0:0:0:
320,288,86706,1,12,0:0:0:0:
