osu file format v14

[General]
AudioFilename: audio.mp3
AudioLeadIn: 0
PreviewTime: 45423
Countdown: 0
SampleSet: Soft
StackLeniency: 0.7
Mode: 0
LetterboxInBreaks: 0
WidescreenStoryboard: 0

[Editor]
Bookmarks: 5506,86706,88706
DistanceSpacing: 1
BeatDivisor: 2
GridSize: 32
TimelineZoom: 1

[Metadata]
Title:FEELING AROUND (TV Size)
TitleUnicode:FEELING AROUND (TV Size)
Artist:Suzuki Minori
ArtistUnicode:鈴木みのり
Creator:DreaM117er
Version:Normal
Source:ラーメン大好き小泉さん
Tags:Ramen Daisuki Koizumi san love noodles だいすき こいずみ tv size m1223961117
BeatmapID:1517159
BeatmapSetID:717752

[Difficulty]
HPDrainRate:4
CircleSize:3
OverallDifficulty:3
ApproachRate:4
SliderMultiplier:1.1
SliderTickRate:1

[Events]
//Background and Video events
0,0,"BG.jpg",0,0
Video,0,"VDO.avi"
//Break Periods
//Storyboard Layer 0 (Background)
//Storyboard Layer 1 (Fail)
//Storyboard Layer 2 (Pass)
//Storyboard Layer 3 (Foreground)
//Storyboard Sound Samples

[TimingPoints]
723,400,4,2,1,50,1,0
723,-125,4,2,1,50,0,0
5523,-111.111111111111,4,2,1,60,0,0
19923,-111.111111111111,4,2,1,50,0,0
45523,-111.111111111111,4,2,1,70,0,1
58323,-111.111111111111,4,2,1,70,0,0
58723,-111.111111111111,4,2,1,70,0,1
72723,-111.111111111111,4,2,1,70,0,0

[Colours]
Combo1 : 255,218,104
Combo2 : 252,207,148
Combo3 : 249,175,94
Combo4 : 238,149,28

[HitObjects]
32,58,723,6,0,L|55:169,1,88,2|2,0:0|0:0,0:0:0:0:
41,231,1523,1,2,0:0:0:0:
122,196,1923,1,2,0:0:0:0:
159,275,2323,2,0,B|172:324|147:357|147:357|178:337|211:335|211:335|253:358|253:358|319:328,1,264,4|0,0:1|0:0,0:0:0:0:
387,293,3923,2,0,B|438:266|438:266|472:138,1,176,2|2,0:0|0:0,0:0:0:0:
495,68,5123,1,2,0:0:0:0:
421,19,5523,6,0,P|371:14|329:60,1,98.9999969787599,4|0,0:0|1:0,0:0:0:0:
292,133,6323,2,0,L|315:240,1,98.9999969787599,0|0,3:0|1:0,0:0:0:0:
305,278,6923,1,0,0:0:0:0:
295,326,7123,2,0,P|335:359|391:358,2,98.9999969787599,0|0|0,3:0|1:0|3:0,0:0:0:0:
256,296,8123,2,0,L|194:310,1,49.4999984893799,2|2,0:1|1:0,0:0:0:0:
116,269,8723,6,0,L|91:376,2,98.9999969787599,4|0|0,0:0|1:0|3:0,0:0:0:0:
113,219,9723,1,0,0:0:0:0:
104,171,9923,2,0,P|84:162|43:158,1,49.4999984893799,0|0,1:0|0:0,0:0:0:0:
14,131,10323,6,0,L|-5:42,2,74.2499977340699,8|8|8,0:0|0:0|0:0,0:0:0:0:
16,229,11323,2,0,L|4:290,1,49.4999984893799,8|8,0:0|0:0,0:0:0:0:
77,346,11923,6,0,P|118:370|183:361,1,98.9999969787599,4|0,0:0|1:0,0:0:0:0:
251,314,12723,2,0,P|292:290|357:299,1,98.9999969787599,0|0,3:0|1:0,0:0:0:0:
384,317,13323,1,0,0:0:0:0:
426,342,13523,2,0,L|448:232,1,98.9999969787599,0|0,3:0|1:0,0:0:0:0:
381,169,14323,2,0,L|332:180,2,49.4999984893799,0|2|2,3:0|0:1|1:0,0:0:0:0:
462,112,15123,5,4,0:0:0:0:
395,38,15523,1,0,1:0:0:0:
298,17,15923,1,0,3:0:0:0:
211,64,16323,1,0,1:0:0:0:
115,46,16723,6,0,P|84:74|22:79,1,98.9999969787599,4|0,0:0|1:0,0:0:0:0:
10,127,17323,2,0,P|38:158|43:220,1,98.9999969787599,4|0,0:0|1:0,0:0:0:0:
89,234,17923,2,0,P|120:206|182:201,1,98.9999969787599,4|0,0:0|1:0,0:0:0:0:
199,155,18523,2,0,P|171:124|166:62,1,98.9999969787599,4|0,0:0|1:0,0:0:0:0:
180,21,19123,1,4,0:0:0:0:
275,45,19523,1,4,0:0:0:0:
367,79,19923,6,0,L|344:203,1,98.9999969787599,4|8,0:3|0:0,0:0:0:0:
372,272,20723,2,0,L|404:309,2,49.4999984893799,0|0|8,3:0|3:0|0:0,0:0:0:0:
277,244,21523,1,0,3:0:0:0:
277,244,21723,2,0,L|228:254,1,49.4999984893799,0|8,3:0|0:0,0:0:0:0:
194,290,22123,2,0,P|148:278|90:273,1,98.9999969787599,0|0,3:0|3:0,0:0:0:0:
50,290,22723,1,8,0:0:0:0:
10,199,23123,6,0,P|18:146|34:89,1,98.9999969787599,4|8,0:3|0:0,0:0:0:0:
117,55,23923,2,0,L|104:-11,2,49.4999984893799,0|0|8,3:0|3:0|0:0,0:0:0:0:
134,101,24523,2,0,P|175:72|241:75,1,98.9999969787599,0|0,3:0|3:0,0:0:0:0:
257,105,25123,2,0,P|296:131|365:120,1,98.9999969787599,8|0,0:0|3:0,0:0:0:0:
392,110,25723,2,0,L|404:56,1,49.4999984893799,0|8,3:0|0:0,0:0:0:0:
501,68,26323,6,0,L|477:177,1,98.9999969787599,4|8,0:3|0:0,0:0:0:0:
473,263,27123,2,0,L|521:304,2,49.4999984893799,0|0|8,3:0|3:0|0:0,0:0:0:0:
388,210,27923,1,0,3:0:0:0:
388,210,28123,2,0,L|310:223,2,49.4999984893799,0|8|0,3:0|0:0|3:0,0:0:0:0:
479,164,28923,1,0,3:0:0:0:
479,164,29123,1,8,0:0:0:0:
443,71,29523,6,0,P|395:60|346:52,1,98.9999969787599,4|8,0:0|0:0,0:0:0:0:
297,63,30123,1,0,0:0:0:0:
250,80,30323,2,0,L|235:11,2,49.4999984893799,0|0|8,3:0|3:0|0:0,0:0:0:0:
281,118,30923,2,0,L|272:173,1,49.4999984893799,0|0,0:0|1:0,0:0:0:0:
263,215,31323,5,8,0:0:0:0:
134,365,32123,2,0,L|126:316,1,49.4999984893799,8|8,0:0|0:0,0:0:0:0:
154,221,32723,6,0,P|105:215|62:238,2,98.9999969787599,4|8|0,0:0|0:0|3:0,0:0:0:0:
195,247,33723,2,0,P|225:255|263:259,1,49.4999984893799,0|8,3:0|0:0,0:0:0:0:
299,339,34323,1,0,3:0:0:0:
299,339,34523,2,0,P|329:330|367:327,1,49.4999984893799,0|8,3:0|0:0,0:0:0:0:
388,355,34923,2,0,P|435:356|483:319,1,98.9999969787599,0|0,3:0|3:0,0:0:0:0:
501,284,35523,1,8,0:0:0:0:
487,185,35923,6,0,L|366:214,1,98.9999969787599,4|8,0:3|0:0,0:0:0:0:
316,273,36723,1,0,3:0:0:0:
316,273,36923,2,0,L|297:336,2,49.4999984893799,0|8|0,3:0|0:0|3:0,0:0:0:0:
294,176,37723,1,0,3:0:0:0:
294,176,37923,2,0,B|264:137|264:137|200:123,1,98.9999969787599,8|0,0:0|3:0,0:0:0:0:
179,92,38523,2,0,L|123:106,1,49.4999984893799,0|8,3:0|0:0,0:0:0:0:
33,83,39123,6,0,P|36:141|72:186,1,98.9999969787599,4|8,0:0|0:0,0:0:0:0:
80,270,39923,2,0,L|56:337,2,49.4999984893799,0|0|8,3:0|3:0|0:0,0:0:0:0:
154,204,40723,1,8,3:2:0:0:
248,232,41123,1,8,0:0:0:0:
295,318,41523,1,0,1:0:0:0:
383,273,41923,1,0,1:0:0:0:
474,235,42323,6,0,P|504:285|494:346,2,98.9999969787599,0|0|0,0:0|1:0|0:0,0:0:0:0:
438,199,43323,2,0,L|451:136,1,49.4999984893799,0|0,3:0|1:0,0:0:0:0:
436,102,43723,1,0,0:0:0:0:
424,53,43923,6,0,P|459:32|506:36,2,74.2499977340699,8|8|8,0:0|0:0|0:0,0:0:0:0:
349,118,44923,1,8,0:0:0:0:
349,118,45123,2,0,P|328:108|286:105,1,49.4999984893799,8|0,0:0|0:0,0:0:0:0:
252,99,45523,6,0,L|273:217,2,98.9999969787599,4|0|0,0:0|1:0|3:0,0:0:0:0:
164,53,46723,2,0,L|149:128,1,49.4999984893799,0|2,1:0|0:0,0:0:0:0:
143,149,47123,2,0,P|100:119|56:122,1,98.9999969787599,0|0,3:0|1:0,0:0:0:0:
10,210,47923,2,0,L|-3:272,2,49.4999984893799,0|2|0,3:0|0:0|1:0,0:0:0:0:
103,241,48723,6,0,P|113:302|129:359,1,98.9999969787599,4|0,3:1|1:0,0:0:0:0:
216,368,49523,1,0,3:0:0:0:
253,276,49923,2,0,P|278:264|311:263,1,49.4999984893799,2|0,1:2|0:0,0:0:0:0:
342,236,50323,2,0,P|388:269|447:263,1,98.9999969787599,0|0,3:0|1:0,0:0:0:0:
510,213,51123,2,0,L|499:143,1,49.4999984893799,0|2,3:0|0:0,0:0:0:0:
465,131,51523,2,0,L|454:61,1,49.4999984893799,0|2,1:0|1:2,0:0:0:0:
424,44,51923,6,0,P|460:14|526:22,2,98.9999969787599,4|0|0,0:0|1:0|3:0,0:0:0:0:
345,104,53123,2,0,L|280:92,1,49.4999984893799,2|0,1:2|0:0,0:0:0:0:
247,84,53523,2,0,L|127:62,1,98.9999969787599,0|0,3:0|1:0,0:0:0:0:
100,73,54123,1,2,0:0:0:0:
52,85,54323,2,0,P|26:138|31:180,1,98.9999969787599,0|0,3:0|1:0,0:0:0:0:
88,256,55123,5,4,0:0:0:0:
176,210,55523,1,0,3:0:0:0:
263,255,55923,2,0,L|295:329,2,49.4999984893799,0|0|0,3:0|0:0|1:0,0:0:0:0:
260,155,56723,2,0,L|288:89,2,49.4999984893799,0|0|0,3:0|1:0|3:0,0:0:0:0:
176,210,57523,2,0,P|165:157|153:92,1,98.9999969787599,8|8,0:0|0:0,0:0:0:0:
96,34,58323,6,0,L|49:12,2,49.4999984893799,0|0|4,1:0|1:0|0:0,0:0:0:0:
178,88,59123,2,0,P|227:75|283:62,1,98.9999969787599,0|0,3:0|1:0,0:0:0:0:
322,52,59723,1,2,0:0:0:0:
371,45,59923,2,0,L|346:161,1,98.9999969787599,0|0,3:0|1:0,0:0:0:0:
293,222,60723,2,0,L|306:279,2,49.4999984893799,0|2|0,3:0|0:0|1:0,0:0:0:0:
197,194,61523,6,0,P|169:237|176:294,1,98.9999969787599,4|0,3:1|1:0,0:0:0:0:
244,350,62323,1,0,3:0:0:0:
338,318,62723,2,0,L|352:254,1,49.4999984893799,2|0,1:2|0:0,0:0:0:0:
361,221,63123,2,0,L|382:123,1,98.9999969787599,0|0,3:0|1:0,0:0:0:0:
339,34,63923,2,0,P|311:47|276:52,1,49.4999984893799,0|2,3:0|0:0,0:0:0:0:
264,91,64323,2,0,P|236:84|194:63,1,49.4999984893799,0|2,1:0|1:2,0:0:0:0:
171,96,64723,6,0,P|139:56|141:-7,2,98.9999969787599,4|0|0,0:0|1:0|3:0,0:0:0:0:
222,180,65923,2,0,L|207:240,1,49.4999984893799,2|0,1:2|0:0,0:0:0:0:
196,275,66323,2,0,P|143:263|93:247,1,98.9999969787599,0|0,3:0|1:0,0:0:0:0:
65,285,66923,1,2,0:0:0:0:
74,333,67123,2,0,P|127:345|177:361,1,98.9999969787599,0|0,3:0|1:0,0:0:0:0:
267,342,67923,5,4,0:0:0:0:
356,299,68323,1,0,1:0:0:0:
450,327,68723,2,0,L|477:385,2,49.4999984893799,0|0|0,3:0|0:0|1:0,0:0:0:0:
356,299,69523,2,0,P|368:253|386:193,1,98.9999969787599,4|0,0:0|1:0,0:0:0:0:
418,169,70123,2,0,P|414:120|381:85,1,98.9999969787599,4|0,0:0|1:0,0:0:0:0:
351,45,70723,2,0,L|295:59,1,49.4999984893799,4|0,0:0|1:0,0:0:0:0:
255,71,71123,5,0,0:0:0:0:
173,304,72123,1,0,3:0:0:0:
173,304,72323,2,0,L|229:318,2,49.4999984893799,0|8|4,1:0|0:0|0:3,0:0:0:0:
77,329,73123,6,0,L|59:265,1,49.4999984893799,8|2,0:0|0:0,0:0:0:0:
25,249,73523,2,0,P|36:197|46:137,1,98.9999969787599,0|8,3:0|0:0,0:0:0:0:
115,83,74323,1,0,3:0:0:0:
206,120,74723,1,10,0:0:0:0:
270,195,75123,2,0,P|294:192|328:178,1,49.4999984893799,0|2,3:0|0:0,0:0:0:0:
367,187,75523,2,0,P|375:163|381:130,1,49.4999984893799,8|2,0:0|0:0,0:0:0:0:
419,109,75923,6,0,P|406:55|394:2,2,98.9999969787599,4|8|0,0:0|0:0|3:0,0:0:0:0:
501,164,77123,2,0,L|479:228,1,49.4999984893799,0|8,1:0|0:0,0:0:0:0:
479,259,77523,6,0,B|401:223|374:262|305:297|225:223,1,247.4999924469,4|8,0:0|0:0,0:0:0:0:
207,201,78723,2,0,L|195:258,2,49.4999984893799,0|8|0,1:0|0:0|0:0,0:0:0:0:
289,146,79523,6,0,L|276:83,1,49.4999984893799,8|2,0:0|0:0,0:0:0:0:
302,54,79923,2,0,P|259:23|195:37,1,98.9999969787599,0|8,3:0|0:0,0:0:0:0:
136,86,80723,1,0,3:0:0:0:
157,182,81123,1,10,0:0:0:0:
61,207,81523,2,0,P|49:235|44:265,1,49.4999984893799,0|2,3:0|0:0,0:0:0:0:
4,281,81923,2,0,P|9:305|19:327,1,49.4999984893799,8|2,0:0|0:0,0:0:0:0:
14,377,82323,6,0,L|132:360,1,98.9999969787599,4|8,0:0|0:0,0:0:0:0:
194,308,83123,1,0,3:0:0:0:
279,357,83523,1,8,0:0:0:0:
366,310,83923,6,0,P|406:285|472:292,1,98.9999969787599,4|0,0:0|1:0,0:0:0:0:
487,246,84523,2,0,P|462:206|469:140,1,98.9999969787599,4|0,0:0|1:0,0:0:0:0:
418,132,85123,2,0,P|378:157|312:150,1,98.9999969787599,4|0,0:0|1:0,0:0:0:0:
304,200,85723,2,0,P|329:240|322:306,1,98.9999969787599,4|0,0:0|1:0,0:0:0:0:
311,336,86323,1,4,0:0:0:0:
213,317,86723,1,4,0:0:0:0:
