osu file format v14

[General]
AudioFilename: audio.mp3
AudioLeadIn: 0
PreviewTime: 45423
Countdown: 0
SampleSet: Soft
StackLeniency: 0.7
Mode: 0
LetterboxInBreaks: 0
WidescreenStoryboard: 0

[Editor]
Bookmarks: 5506,86706,88706
DistanceSpacing: 0.2
BeatDivisor: 4
GridSize: 32
TimelineZoom: 1

[Metadata]
Title:FEELING AROUND (TV Size)
TitleUnicode:FEELING AROUND (TV Size)
Artist:Suzuki Minori
ArtistUnicode:鈴木みのり
Creator:DreaM117er
Version:Insane
Source:ラーメン大好き小泉さん
Tags:Ramen Daisuki Koizumi san love noodles だいすき こいずみ tv size m1223961117
BeatmapID:1517687
BeatmapSetID:717752

[Difficulty]
HPDrainRate:6
CircleSize:4
OverallDifficulty:7
ApproachRate:8.2
SliderMultiplier:1.7
SliderTickRate:1

[Events]
//Background and Video events
0,0,"BG.jpg",0,0
Video,0,"VDO.avi"
//Break Periods
//Storyboard Layer 0 (Background)
//Storyboard Layer 1 (Fail)
//Storyboard Layer 2 (Pass)
//Storyboard Layer 3 (Foreground)
//Storyboard Sound Samples

[TimingPoints]
723,400,4,2,1,50,1,0
723,-133.333333333333,4,2,1,50,0,0
1023,-133.333333333333,4,2,1,5,0,0
1123,-133.333333333333,4,2,1,50,0,0
1423,-133.333333333333,4,2,1,5,0,0
1523,-133.333333333333,4,2,1,50,0,0
1823,-133.333333333333,4,2,1,5,0,0
1923,-133.333333333333,4,2,1,50,0,0
2323,-166.666666666667,4,2,1,50,0,0
3823,-166.666666666667,4,2,1,5,0,0
3923,-133.333333333333,4,2,1,50,0,0
4523,-133.333333333333,4,2,1,10,0,0
4723,-133.333333333333,4,2,1,50,0,0
5523,-100,4,2,1,60,0,0
10323,-66.6666666666667,4,2,1,60,0,0
11923,-100,4,2,1,60,0,0
19923,-111.111111111111,4,2,1,50,0,0
32323,-80,4,2,1,50,0,0
32623,-90.9090909090909,4,2,1,5,0,0
32723,-111.111111111111,4,2,1,50,0,0
40723,-142.857142857143,4,2,1,50,0,0
41523,-125,4,2,1,50,0,0
41923,-99.9999999999999,4,2,1,50,0,0
42323,-111.111111111111,4,2,1,50,0,0
43923,-66.6666666666667,4,2,1,50,0,0
45523,-100,4,2,1,70,0,1
57523,-200,4,2,1,70,0,1
57823,-200,4,2,1,5,0,1
57923,-83.3333333333333,4,2,1,70,0,1
58323,-100,4,2,1,70,0,0
58723,-100,4,2,1,70,0,1
72723,-100,4,2,1,70,0,0
77523,-133.333333333333,4,2,1,70,0,0
78523,-100,4,2,1,70,0,0

[Colours]
Combo1 : 255,218,104
Combo2 : 252,207,148
Combo3 : 249,175,94
Combo4 : 238,149,28

[HitObjects]
286,50,723,6,0,P|334:41|384:7,1,95.6250036478044,2|0,0:0|0:0,0:0:0:0:
406,29,1123,2,0,P|415:77|449:127,1,95.6250036478044,2|0,0:0|0:0,0:0:0:0:
427,149,1523,2,0,P|379:158|329:192,1,95.6250036478044,2|0,0:0|0:0,0:0:0:0:
317,209,1923,1,2,0:0:0:0:
232,173,2123,1,0,0:0:0:0:
232,173,2223,1,0,0:0:0:0:
232,173,2323,6,0,B|177:165|115:148|115:148|138:228|138:228|211:243|226:321|189:351|161:369,1,382.499988327027,4|0,0:1|0:0,0:0:0:0:
132,301,3923,6,0,B|187:277|231:302|249:331|228:358|312:377|347:331,1,223.125008511544,2|0,0:0|0:0,0:0:0:0:
392,293,4723,1,2,0:0:0:0:
387,267,4823,1,2,0:0:0:0:
510,36,5123,1,8,0:0:0:0:
475,21,5223,1,8,0:0:0:0:
437,24,5323,1,8,0:0:0:0:
403,41,5423,1,8,0:0:0:0:
383,74,5523,6,0,L|406:188,1,85,4|0,0:0|0:0,0:0:0:0:
463,279,5923,1,0,1:0:0:0:
374,248,6123,1,0,0:0:0:0:
482,304,6323,1,0,3:0:0:0:
482,304,6423,1,2,0:0:0:0:
482,304,6523,1,0,0:0:0:0:
354,343,6723,1,0,1:0:0:0:
283,232,6923,1,0,0:0:0:0:
357,128,7123,5,0,3:0:0:0:
379,262,7323,1,0,0:0:0:0:
418,67,7523,1,0,1:0:0:0:
482,304,7723,1,0,0:0:0:0:
357,128,7923,1,0,3:0:0:0:
486,202,8123,5,2,0:1:0:0:
300,336,8323,1,2,1:0:0:0:
44,20,8723,6,0,L|65:103,1,85,4|0,0:0|0:0,0:0:0:0:
25,230,9123,1,0,1:0:0:0:
122,171,9323,1,0,0:0:0:0:
25,105,9523,1,0,3:0:0:0:
25,105,9623,1,2,0:0:0:0:
25,105,9723,1,0,0:0:0:0:
157,153,9923,1,0,1:0:0:0:
0,247,10123,1,0,0:0:0:0:
200,81,10323,5,8,0:0:0:0:
220,96,10423,2,0,P|238:133|241:163,1,63.7500024318696,8|0,0:0|0:0,0:0:0:0:
151,300,10623,1,8,0:0:0:0:
153,275,10723,2,0,P|176:240|200:223,1,63.7500024318696,8|0,0:0|0:0,0:0:0:0:
364,233,10923,1,8,0:0:0:0:
341,244,11023,2,0,P|299:241|272:228,1,63.7500024318696,8|0,0:0|0:0,0:0:0:0:
23,49,11323,1,8,0:0:0:0:
66,37,11423,1,0,0:0:0:0:
109,26,11523,6,0,B|136:41|146:60|146:60|196:56|247:90,1,127.500004863739,8|8,0:0|0:0,0:0:0:0:
285,126,11823,1,8,0:0:0:0:
317,150,11923,6,0,P|332:110|333:68,1,85,4|0,0:0|0:0,0:0:0:0:
164,148,12323,2,0,P|165:190|180:229,1,85,0|0,1:0|0:0,0:0:0:0:
220,339,12723,2,0,L|267:352,2,42.5,0|2|0,3:0|0:0|0:0,0:0:0:0:
104,373,13123,1,0,1:0:0:0:
226,309,13323,1,0,0:0:0:0:
81,221,13523,5,0,3:0:0:0:
170,244,13723,1,0,0:0:0:0:
98,130,13923,1,0,1:0:0:0:
178,253,14123,1,0,0:0:0:0:
23,354,14323,1,0,3:0:0:0:
185,262,14523,5,2,0:1:0:0:
3,106,14723,1,2,1:0:0:0:
484,345,15123,6,0,P|405:366|345:311,1,170,4|0,0:0|1:0,0:0:0:0:
312,227,15723,1,0,0:0:0:0:
268,362,15923,1,0,3:0:0:0:
345,311,16123,1,0,0:0:0:0:
161,307,16323,2,0,P|193:280|235:275,1,85,0|0,1:0|0:0,0:0:0:0:
425,284,16723,6,0,B|398:154|398:154|385:205,1,170,4|0,0:0|1:0,0:0:0:0:
450,369,17323,2,0,P|501:324|467:211,1,170,4|0,0:0|1:0,0:0:0:0:
260,118,17923,2,0,P|242:197|299:257,1,170,4|0,0:0|1:0,0:0:0:0:
472,125,18523,2,0,B|410:184|410:184|326:173,1,170,4|0,0:0|1:0,0:0:0:0:
315,12,19123,2,0,P|338:46|339:88,1,85,4|0,0:0|0:0,0:0:0:0:
243,191,19523,1,4,0:0:0:0:
243,191,19923,6,0,P|250:151|260:94,1,76.4999976654053,4|0,0:3|0:0,0:0:0:0:
309,278,20323,2,0,P|316:316|323:354,1,76.4999976654053,8|0,0:0|0:0,0:0:0:0:
334,187,20723,1,0,3:0:0:0:
223,279,20923,1,0,3:0:0:0:
334,187,21123,2,0,P|377:194|418:206,1,76.4999976654053,8|0,0:0|0:0,0:0:0:0:
510,170,21523,5,0,3:0:0:0:
392,287,21723,1,0,3:0:0:0:
494,258,21923,1,8,0:0:0:0:
344,206,22123,2,0,P|302:257|321:350,1,152.999995330811,0|0,3:0|3:0,0:0:0:0:
131,281,22723,2,0,P|182:272|213:262,1,76.4999976654053,8|0,0:0|0:0,0:0:0:0:
385,130,23123,6,0,P|347:124|310:113,1,76.4999976654053,4|0,0:3|0:0,0:0:0:0:
177,57,23523,2,0,P|189:94|199:131,1,76.4999976654053,8|0,0:0|0:0,0:0:0:0:
243,243,23923,1,0,3:0:0:0:
132,196,24123,1,0,3:0:0:0:
170,294,24323,1,8,0:0:0:0:
199,131,24523,6,0,P|161:91|61:96,1,152.999995330811,0|0,3:0|3:0,0:0:0:0:
57,222,25123,2,0,P|98:241|156:237,1,76.4999976654053,8|0,0:0|0:0,0:0:0:0:
270,191,25523,1,0,3:0:0:0:
270,191,25723,1,0,3:0:0:0:
240,295,25923,2,0,P|232:332|222:381,1,76.4999976654053,8|0,0:0|0:0,0:0:0:0:
454,268,26323,5,4,0:3:0:0:
384,208,26523,1,0,0:0:0:0:
292,216,26723,1,8,0:0:0:0:
59,330,27123,5,0,3:0:0:0:
104,325,27323,1,0,3:0:0:0:
138,293,27523,1,8,0:0:0:0:
261,52,27923,5,0,3:0:0:0:
172,26,28123,1,0,3:0:0:0:
299,132,28323,1,8,0:0:0:0:
189,167,28523,2,0,B|131:182|96:158|80:135|80:135|93:102,1,152.999995330811,0|0,3:0|3:0,0:0:0:0:
266,108,29123,2,0,P|286:153|283:191,1,76.4999976654053,8|0,0:0|0:0,0:0:0:0:
284,337,29523,6,0,P|235:331|203:310,1,76.4999976654053,4|0,0:0|0:0,0:0:0:0:
140,231,29923,1,8,0:0:0:0:
270,255,30123,1,0,0:0:0:0:
106,335,30323,1,0,3:0:0:0:
106,335,30523,1,0,3:0:0:0:
212,318,30723,1,8,0:0:0:0:
135,139,30923,1,0,0:0:0:0:
101,363,31123,5,0,1:0:0:0:
101,363,31223,1,0,1:0:0:0:
101,363,31323,1,0,1:0:0:0:
111,355,32123,1,8,0:0:0:0:
285,271,32323,2,0,B|306:284|316:300|316:300|359:291|359:291|390:320|429:319,1,159.375,8|0,0:0|0:0,0:0:0:0:
503,298,32723,6,0,L|486:208,1,76.4999976654053,4|0,0:0|0:0,0:0:0:0:
418,109,33123,2,0,L|435:19,1,76.4999976654053,8|0,0:0|0:0,0:0:0:0:
368,190,33523,1,0,3:0:0:0:
496,133,33723,1,0,3:0:0:0:
314,111,33923,2,0,P|328:162|336:193,1,76.4999976654053,8|0,0:0|0:0,0:0:0:0:
388,344,34323,1,0,3:0:0:0:
434,253,34523,1,0,3:0:0:0:
239,199,34723,1,8,0:0:0:0:
346,263,34923,6,0,P|408:209|387:124,1,152.999995330811,0|0,3:0|3:0,0:0:0:0:
402,144,35423,1,0,0:0:0:0:
402,144,35523,1,8,0:0:0:0:
320,64,35723,1,0,0:0:0:0:
254,201,35923,6,0,P|290:191|330:180,1,76.4999976654053,4|0,0:3|0:0,0:0:0:0:
185,312,36323,1,8,0:0:0:0:
297,330,36523,1,0,0:0:0:0:
132,196,36723,1,0,3:0:0:0:
246,214,36923,1,0,3:0:0:0:
80,94,37123,1,8,0:0:0:0:
147,277,37323,6,0,P|210:223|201:149,1,152.999995330811,0|0,3:0|3:0,0:0:0:0:
10,155,37923,2,0,P|73:174|100:180,1,76.4999976654053,8|0,0:0|0:0,0:0:0:0:
280,89,38323,1,0,3:0:0:0:
280,89,38523,1,0,3:0:0:0:
184,35,38723,2,0,P|146:44|110:56,1,76.4999976654053,8|0,0:0|0:0,0:0:0:0:
16,244,39123,5,4,0:0:0:0:
103,270,39323,1,0,0:0:0:0:
190,299,39523,1,8,0:0:0:0:
460,148,39923,5,0,3:0:0:0:
415,160,40123,1,0,3:0:0:0:
371,174,40323,1,8,0:0:0:0:
214,143,40723,6,0,P|204:94|201:66,1,59.4999981842042,8|0,0:0|0:0,0:0:0:0:
304,239,41123,2,0,P|299:268|292:297,1,59.4999981842042,8|0,0:0|0:0,0:0:0:0:
100,246,41523,2,0,P|137:238|193:223,1,68,0|0,1:0|0:0,0:0:0:0:
413,88,41923,2,0,P|375:78|312:63,1,85,0|0,1:0|0:0,0:0:0:0:
116,169,42323,6,0,P|188:154|241:205,1,152.999995330811,4|0,0:0|1:0,0:0:0:0:
295,328,42923,1,0,0:0:0:0:
327,166,43123,1,0,3:0:0:0:
293,342,43323,1,0,3:0:0:0:
204,289,43523,1,0,1:0:0:0:
377,238,43723,1,0,0:0:0:0:
177,158,43923,5,8,0:0:0:0:
156,148,44023,2,0,P|124:143|85:135,1,63.7500024318696,8|0,0:0|0:0,0:0:0:0:
350,87,44223,2,0,P|382:82|421:74,1,63.7500024318696,8|0,0:0|0:0,0:0:0:0:
229,4,44423,1,8,0:0:0:0:
239,25,44523,2,0,P|244:57|252:96,1,63.7500024318696,8|0,0:0|0:0,0:0:0:0:
293,342,44923,5,8,0:0:0:0:
503,202,45123,1,8,0:0:0:0:
462,182,45223,1,8,0:0:0:0:
417,183,45323,1,8,0:0:0:0:
379,206,45423,1,8,0:0:0:0:
359,245,45523,6,0,B|305:241|259:218|259:218|227:249|173:257,1,170,4|0,0:0|1:0,0:0:0:0:
37,304,46123,1,0,0:0:0:0:
155,344,46323,1,0,3:0:0:0:
190,164,46523,1,0,0:0:0:0:
116,278,46723,2,0,P|125:319|135:360,1,85,0|2,1:0|0:0,0:0:0:0:
71,200,47123,5,0,3:0:0:0:
203,249,47323,1,0,0:0:0:0:
27,296,47523,2,0,P|34:256|45:196,1,85,0|0,1:0|0:0,0:0:0:0:
150,66,47923,1,0,3:0:0:0:
126,180,48123,1,2,0:0:0:0:
246,35,48323,2,0,P|199:33|156:56,1,85,0|0,1:0|0:0,0:0:0:0:
96,257,48723,6,0,P|143:259|186:236,1,85,4|0,3:1|0:0,0:0:0:0:
266,160,49123,1,0,1:0:0:0:
314,276,49323,1,2,0:0:0:0:
381,195,49523,1,0,3:0:0:0:
294,356,49723,1,0,0:0:0:0:
405,225,49923,2,0,P|447:232|489:240,1,85,0|0,1:0|0:0,0:0:0:0:
335,122,50323,5,0,3:0:0:0:
235,189,50523,1,0,0:0:0:0:
278,34,50723,1,2,1:2:0:0:
317,232,50923,1,0,0:0:0:0:
155,150,51123,1,0,3:0:0:0:
315,246,51323,1,2,0:0:0:0:
196,288,51523,1,0,1:0:0:0:
357,137,51723,1,10,0:0:0:0:
357,137,51823,1,8,0:0:0:0:
357,137,51923,6,0,P|349:178|342:220,1,85,4|0,0:0|0:0,0:0:0:0:
243,359,52323,2,0,P|236:317|227:275,1,85,0|0,1:0|0:0,0:0:0:0:
176,154,52723,1,0,3:0:0:0:
324,231,52923,1,2,0:0:0:0:
207,283,53123,2,0,P|165:273|106:265,1,85,0|0,1:0|0:0,0:0:0:0:
17,109,53523,6,0,P|53:66|175:86,1,170,0|0,3:0|1:2,0:0:0:0:
237,191,54123,1,2,0:0:0:0:
123,266,54323,2,0,P|131:222|140:172,1,85,0|0,3:2|0:0,0:0:0:0:
286,91,54723,2,0,P|277:134|269:185,1,85,0|0,1:2|0:0,0:0:0:0:
471,303,55123,6,0,B|430:268|381:251|381:251|339:257|298:287,1,170,4|0,0:0|1:0,0:0:0:0:
241,354,55723,1,0,0:0:0:0:
205,219,55923,1,0,3:0:0:0:
112,298,56123,1,0,0:0:0:0:
184,122,56323,1,0,1:0:0:0:
100,307,56523,1,0,0:0:0:0:
209,234,56723,5,0,3:0:0:0:
74,159,56923,1,8,0:0:0:0:
215,255,57123,1,0,3:0:0:0:
247,245,57223,1,0,3:0:0:0:
280,249,57323,1,0,3:0:0:0:
309,266,57423,1,0,3:0:0:0:
329,294,57523,6,0,L|317:372,1,63.75,4|0,0:0|0:0,0:0:0:0:
293,366,57923,6,0,L|309:266,1,101.999996887207,4|0,0:0|0:0,0:0:0:0:
140,8,58323,1,0,1:0:0:0:
137,16,58423,1,0,1:0:0:0:
134,24,58523,1,0,1:0:0:0:
132,32,58623,1,0,1:0:0:0:
129,40,58723,6,0,P|136:88|145:142,1,85,4|0,0:0|0:0,0:0:0:0:
195,326,59123,1,0,3:0:0:0:
309,265,59323,1,0,0:0:0:0:
162,221,59523,2,0,P|123:213|61:204,1,85,0|0,1:0|0:0,0:0:0:0:
252,277,59923,5,0,3:0:0:0:
201,127,60123,1,0,0:0:0:0:
144,309,60323,2,0,P|194:306|229:282,1,85,0|0,1:0|0:0,0:0:0:0:
369,169,60723,1,0,3:0:0:0:
369,169,60923,1,2,0:0:0:0:
287,85,61123,2,0,P|244:85|208:105,1,85,0|0,1:0|0:0,0:0:0:0:
135,200,61523,5,4,3:1:0:0:
89,47,61723,1,0,0:0:0:0:
194,124,61923,1,0,1:0:0:0:
43,207,62123,1,2,0:0:0:0:
212,135,62323,2,0,P|204:178|191:229,1,85,0|0,3:0|0:0,0:0:0:0:
333,367,62723,2,0,P|324:328|315:283,1,85,0|0,1:0|0:0,0:0:0:0:
386,125,63123,5,0,3:0:0:0:
296,170,63323,1,0,0:0:0:0:
464,226,63523,1,2,1:2:0:0:
280,165,63723,1,0,0:0:0:0:
309,37,63923,1,0,3:0:0:0:
183,198,64123,1,2,0:0:0:0:
311,157,64323,1,0,1:0:0:0:
191,89,64523,1,10,0:0:0:0:
191,89,64623,1,8,0:0:0:0:
191,89,64723,6,0,P|145:80|104:74,1,85,4|0,0:0|0:0,0:0:0:0:
324,151,65123,2,0,B|373:126|440:120|440:120|492:161,1,170,0|0,1:0|3:0,0:0:0:0:
360,246,65723,1,2,0:0:0:0:
225,140,65923,2,0,P|207:100|211:47,1,85,0|0,1:0|0:0,0:0:0:0:
346,259,66323,6,0,P|346:301|328:339,1,85,0|0,3:0|0:0,0:0:0:0:
261,228,66723,1,0,1:2:0:0:
375,166,66923,1,2,0:0:0:0:
243,314,67123,2,0,P|200:304|150:296,1,85,0|0,3:0|0:0,0:0:0:0:
361,177,67523,2,0,P|402:169|444:160,1,85,0|0,1:0|0:0,0:0:0:0:
360,348,67923,6,0,P|336:302|339:264,1,85,4|0,0:0|0:0,0:0:0:0:
299,43,68323,2,0,P|298:85|276:120,1,85,0|0,1:0|0:0,0:0:0:0:
163,208,68723,1,0,3:0:0:0:
337,270,68923,1,0,0:0:0:0:
193,127,69123,1,0,1:0:0:0:
158,120,69223,1,0,1:0:0:0:
123,128,69323,1,0,1:0:0:0:
94,149,69423,1,0,1:0:0:0:
76,180,69523,6,0,P|68:131|54:85,1,85,4|0,0:0|0:0,0:0:0:0:
58,97,69923,1,0,1:0:0:0:
266,180,70123,6,0,P|228:211|195:247,1,85,4|0,0:0|0:0,0:0:0:0:
203,237,70523,1,0,1:0:0:0:
166,11,70723,6,0,P|212:28|259:38,1,85,4|8,0:0|0:0,0:0:0:0:
247,36,71123,1,2,0:0:0:0:
247,36,71523,5,2,0:0:0:0:
247,36,71923,5,2,0:0:0:0:
302,134,72123,1,8,0:0:0:0:
342,2,72323,1,8,0:0:0:0:
342,2,72423,1,8,0:0:0:0:
342,2,72523,1,0,3:0:0:0:
221,121,72723,6,0,P|246:198|337:208,1,170,0|8,3:0|0:0,0:0:0:0:
348,202,73223,1,2,0:0:0:0:
372,196,73323,1,2,0:0:0:0:
397,193,73423,1,2,0:0:0:0:
421,199,73523,1,0,3:0:0:0:
493,264,73723,1,0,0:0:0:0:
354,327,73923,2,0,P|324:320|252:304,1,85,8|0,0:0|0:0,0:0:0:0:
126,282,74323,5,0,3:0:0:0:
105,286,74423,1,2,0:0:0:0:
84,291,74523,1,2,0:0:0:0:
63,296,74623,1,2,0:0:0:0:
42,300,74723,2,0,P|25:262|31:221,1,85,8|0,0:0|0:0,0:0:0:0:
97,140,75123,1,0,3:0:0:0:
190,195,75323,1,2,0:0:0:0:
31,221,75523,1,8,0:0:0:0:
219,97,75723,1,2,0:0:0:0:
96,40,75923,6,0,P|103:84|111:127,1,85,4|0,0:0|0:0,0:0:0:0:
261,319,76323,1,8,0:0:0:0:
261,319,76423,1,2,0:0:0:0:
261,319,76523,1,2,0:0:0:0:
261,319,76623,1,2,0:0:0:0:
261,319,76723,2,0,P|268:277|275:235,1,85,0|0,3:0|0:0,0:0:0:0:
375,91,77123,1,8,0:0:0:0:
396,127,77223,1,8,0:0:0:0:
432,148,77323,1,8,0:0:0:0:
474,150,77423,1,8,0:0:0:0:
512,131,77523,5,4,0:0:0:0:
506,118,78523,1,8,0:0:0:0:
432,18,78723,1,8,0:0:0:0:
432,18,78823,1,8,0:0:0:0:
432,18,78923,1,0,3:0:0:0:
386,168,79123,6,0,B|338:151|280:132|280:132|252:138|208:158,1,170,0|8,3:0|0:0,0:0:0:0:
206,162,79623,1,2,0:0:0:0:
211,182,79723,1,2,0:0:0:0:
216,202,79823,1,2,0:0:0:0:
221,222,79923,1,0,3:0:0:0:
243,323,80123,1,0,0:0:0:0:
124,373,80323,2,0,L|144:283,1,85,8|0,0:0|0:0,0:0:0:0:
302,196,80723,5,0,3:0:0:0:
302,196,80823,1,2,0:0:0:0:
302,196,80923,1,2,0:0:0:0:
302,196,81023,1,2,0:0:0:0:
302,196,81123,2,0,L|214:223,1,85,8|0,0:0|0:0,0:0:0:0:
49,129,81523,1,0,3:0:0:0:
123,190,81723,1,2,0:0:0:0:
80,33,81923,1,8,0:0:0:0:
12,236,82123,1,2,0:0:0:0:
149,97,82323,6,0,P|191:75|249:83,1,85,4|0,0:0|0:0,0:0:0:0:
424,231,82723,1,8,0:0:0:0:
424,231,82823,1,2,0:0:0:0:
424,231,82923,1,2,0:0:0:0:
424,231,83023,1,2,0:0:0:0:
424,231,83123,2,0,P|382:253|324:245,1,85,0|0,3:0|0:0,0:0:0:0:
209,155,83523,2,0,P|256:163|301:174,1,85,8|0,0:0|0:0,0:0:0:0:
445,57,83923,6,0,B|384:74|333:91|333:91|261:76,1,170,4|0,0:0|1:0,0:0:0:0:
94,193,84523,2,0,B|157:206|226:222|226:222|216:200|209:178,1,170,4|0,0:0|1:0,0:0:0:0:
63,105,85123,2,0,P|7:156|12:249,1,170,4|0,0:0|1:0,0:0:0:0:
266,329,85723,2,0,P|271:246|212:189,1,170,4|0,0:0|1:0,0:0:0:0:
15,343,86323,2,0,P|58:335|103:322,1,85,4|0,0:0|0:0,0:0:0:0:
184,283,86723,5,4,0:0:0:0:
