osu file format v14

[General]
AudioFilename: audio.mp3
AudioLeadIn: 0
PreviewTime: 32642
Countdown: 0
SampleSet: Soft
StackLeniency: 0.7
Mode: 0
LetterboxInBreaks: 0
WidescreenStoryboard: 1

[Editor]
DistanceSpacing: 0.9
BeatDivisor: 4
GridSize: 4
TimelineZoom: 1.550002

[Metadata]
Title:Dame wa Dame (TV Size)
TitleUnicode:ダメハダメ (TV Size)
Artist:Suzuki Minori
ArtistUnicode:鈴木みのり
Creator:EmPao
Version:Magical Normal
Source:手品先輩
Tags:magical sempai tejina senpai anime japanese ending ED theme outro J-pop HabiHolic
BeatmapID:2088717
BeatmapSetID:997405

[Difficulty]
HPDrainRate:3
CircleSize:3.2
OverallDifficulty:4
ApproachRate:5
SliderMultiplier:1
SliderTickRate:1

[Events]
//Background and Video events
0,0,"bg.jpg",0,0
//Break Periods
//Storyboard Layer 0 (Background)
//Storyboard Layer 1 (Fail)
//Storyboard Layer 2 (Pass)
//Storyboard Layer 3 (Foreground)
//Storyboard Layer 4 (Overlay)
//Storyboard Sound Samples

[TimingPoints]
-303,329.67032967033,4,2,1,70,1,0
2499,-100,4,2,2,70,0,0
2581,-100,4,2,1,70,0,0
2828,-100,4,2,2,70,0,0
2911,-100,4,2,1,70,0,0
3642,329.67032967033,4,2,1,70,1,0
5620,-100,4,2,2,70,0,0
5702,-100,4,2,1,70,0,0
5949,-100,4,2,2,70,0,0
6032,-100,4,2,1,70,0,0
16828,-100,4,2,87,80,0,0
20774,329.67032967033,4,2,87,80,1,0
24235,-100,4,2,1,50,0,0
24730,-100,4,2,1,60,0,0
29510,-100,4,2,1,70,0,0
32642,-100,4,2,1,70,0,1
43109,-100,4,2,1,70,0,0
43191,-100,4,2,1,70,0,1
48466,-100,4,2,1,70,0,0
53741,-100,4,2,66,30,0,0
56543,-100,4,2,2,50,0,0
58026,402.684563758389,4,2,2,50,1,0
58227,294.117647058824,4,2,2,50,1,0
58521,329.67032967033,4,2,2,60,1,0

[Colours]
Combo1 : 255,128,255
Combo2 : 128,128,255
Combo3 : 87,163,255

[HitObjects]
158,215,521,6,0,L|95:220,2,50,8|8|8,0:0|0:0|0:0,0:0:0:0:
195,189,1015,2,0,P|214:149|208:95,1,100,4|8,0:0|0:0,0:0:0:0:
137,39,1675,2,0,P|117:80|125:135,1,100,2|8,0:0|0:0,0:0:0:0:
212,99,2334,1,2,0:0:0:0:
212,99,2499,2,0,P|260:109|308:86,1,100,2|2,0:0|0:0,0:0:0:0:
341,61,2993,2,0,P|385:40|442:52,1,100,8|8,0:3|0:0,0:0:0:0:
497,109,3642,6,0,L|481:224,1,100,4|12,0:0|3:3,0:0:0:0:
443,188,4136,2,0,L|458:288,1,100,4|0,0:0|3:3,0:0:0:0:
465,332,4631,1,12,3:3:0:0:
374,324,4960,1,4,0:0:0:0:
240,340,5455,6,0,L|189:347,2,50,0|2|0,0:0|0:0|0:0,0:0:0:0:
280,318,5949,2,0,P|301:271|292:222,1,100,2|4,0:0|0:0,0:0:0:0:
210,261,6609,2,0,P|198:212|221:164,1,100,8|2,0:0|0:0,0:0:0:0:
244,132,7103,2,0,L|297:126,2,50,0|8|0,0:0|0:0|0:0,0:0:0:0:
218,94,7598,6,0,P|179:66|125:71,1,100,2|8,0:0|0:0,0:0:0:0:
44,100,8257,2,0,L|33:203,1,100,2|8,0:0|0:0,0:0:0:0:
84,273,8916,2,0,B|95:321|95:321|133:354,1,100,2|8,0:0|0:0,0:0:0:0:
226,340,9576,1,2,0:0:0:0:
226,340,9740,2,0,B|276:332|276:332|325:347,1,100
366,361,10235,5,2,0:0:0:0:
439,307,10565,1,8,0:0:0:0:
439,307,10729,2,0,L|490:298,2,50,0|2|0,0:0|0:0|0:0,0:0:0:0:
409,273,11224,2,0,P|398:224|416:179,1,100,8|2,0:0|0:0,0:0:0:0:
484,119,11883,2,0,P|441:90|392:93,1,100,8|2,0:0|0:0,0:0:0:0:
352,109,12378,2,0,L|355:59,2,50,0|8|0,0:0|0:0|0:0,0:0:0:0:
310,126,12872,6,0,P|262:133|216:108,1,100,2|8,0:0|0:0,0:0:0:0:
151,48,13532,2,0,P|100:38|58:59,1,100,2|8,0:0|0:0,0:0:0:0:
13,136,14191,2,0,L|19:240,1,100,2|8,0:0|0:0,0:0:0:0:
69,317,14850,1,2,0:0:0:0:
69,317,15015,2,0,P|113:337|163:328,1,100
203,309,15510,5,2,0:0:0:0:
261,240,15839,1,8,0:0:0:0:
212,164,16169,2,0,L|218:62,1,100,8|8,3:3|0:0,0:0:0:0:
302,32,16828,6,0,P|382:14|440:45,1,150,4|8,0:0|0:0,0:0:0:0:
468,79,17488,1,0,0:0:0:0:
432,161,17817,2,0,L|439:225,1,50,8|2,0:0|0:0,0:0:0:0:
479,229,18147,2,0,L|470:284,1,50,2|0,0:0|0:0,0:0:0:0:
460,325,18477,1,8,0:0:0:0:
460,325,18642,2,0,P|415:345|363:331,1,100,8|2,0:0|0:0,0:0:0:0:
327,312,19136,1,8,0:0:0:0:
247,268,19466,6,0,P|167:250|109:281,1,150,2|8,0:0|0:0,0:0:0:0:
82,316,20126,1,0,0:0:0:0:
18,252,20455,2,0,L|11:202,1,50,8|2,0:0|0:0,0:0:0:0:
43,175,20774,2,0,L|50:123,1,50,2|0,0:0|0:0,0:0:0:0:
75,90,21103,1,8,0:0:0:0:
75,90,21268,2,0,P|119:67|173:76,1,100,8|2,0:0|0:0,0:0:0:0:
204,99,21763,1,8,0:0:0:0:
172,183,22092,6,0,L|177:234,1,50,2|0,0:0|0:0,0:0:0:0:
163,278,22421,1,8,0:0:0:0:
163,278,22586,2,0,B|202:313|202:313|250:320,1,100,8|2,0:0|0:0,0:0:0:0:
294,322,23081,1,8,0:0:0:0:
371,275,23411,1,4,0:0:0:0:
440,332,23741,1,8,0:0:0:0:
504,269,24070,2,0,B|499:209,1,50,2|0,0:0|1:1,0:0:0:0:
496,174,24400,1,0,1:1:0:0:
434,110,24730,6,0,P|387:93|337:111,1,100,4|8,0:0|0:0,0:0:0:0:
308,137,25224,2,0,L|297:242,1,100,4|2,0:0|0:0,0:0:0:0:
293,281,25719,1,8,0:0:0:0:
217,330,26048,2,0,P|168:341|123:319,1,100,4|8,0:0|3:3,0:0:0:0:
91,289,26543,2,0,L|79:186,1,100,4|2,0:0|0:0,0:0:0:0:
75,145,27037,1,8,0:0:0:0:
143,84,27367,6,0,P|189:73|240:94,1,100,4|0,0:0|0:0,0:0:0:0:
293,162,28026,2,0,P|335:184|391:177,1,100,8|0,0:0|0:0,0:0:0:0:
453,119,28686,2,0,L|460:69,1,50,2|8,0:0|0:0,0:0:0:0:
471,29,29015,1,2,0:0:0:0:
471,29,29180,1,2,0:0:0:0:
381,36,29510,2,0,P|359:27|333:30,2,50,8|8|8,3:3|3:3|3:3,0:0:0:0:
353,71,30004,6,0,L|339:170,1,100,4|8,0:0|0:0,0:0:0:0:
294,164,30499,2,0,L|308:263,1,100,4|0,0:0|0:0,0:0:0:0:
317,307,30993,1,4,0:0:0:0:
396,350,31323,2,0,P|444:346|481:307,2,100,4|0|8,0:0|0:0|0:0,0:0:0:0:
216,338,32642,6,0,L|164:331,1,50,2|0,0:0|0:0,0:0:0:0:
127,310,32971,2,0,P|105:264|113:215,1,100,12|2,0:0|0:0,0:0:0:0:
136,179,33466,1,2,0:0:0:0:
136,179,33631,2,0,B|125:74,1,100,8|2,0:0|0:0,0:0:0:0:
208,43,34290,2,0,P|253:27|311:40,2,100,8|2|8,0:0|0:0|0:0,0:0:0:0:
125,79,35279,6,0,L|136:180,1,100,2|8,0:0|0:0,0:0:0:0:
95,259,35938,2,0,P|145:272|190:250,1,100,2|8,0:0|0:0,0:0:0:0:
217,219,36433,2,0,L|227:169,1,50,0|2,0:0|0:0,0:0:0:0:
241,130,36763,1,0,0:0:0:0:
241,130,36927,2,0,P|281:114|336:129,2,100,12|2|12,0:0|0:0|0:0,0:0:0:0:
290,205,37916,6,0,L|293:259,1,50,6|0,0:0|0:0,0:0:0:0:
312,295,38246,2,0,P|354:318|403:310,1,100,8|2,0:0|0:0,0:0:0:0:
437,280,38741,1,2,0:0:0:0:
437,280,38905,2,0,L|446:213,1,50,8|0,0:0|0:0,0:0:0:0:
450,186,39235,1,2,0:0:0:0:
420,100,39565,2,0,P|468:95|512:121,2,100,8|2|8,0:0|0:0|0:0,0:0:0:0:
339,139,40554,6,0,P|292:148|242:122,1,100,2|8,0:0|0:0,0:0:0:0:
173,84,41213,1,2,0:0:0:0:
173,84,41378,2,0,P|128:68|75:85,1,100,8|2,0:0|0:0,0:0:0:0:
46,112,41872,1,4,0:0:0:0:
52,156,42037,1,2,0:0:0:0:
92,177,42202,2,0,L|106:280,2,100,12|4|8,0:0|0:0|0:0,0:0:0:0:
80,87,43191,6,0,L|72:36,1,50,4|8,0:0|0:0,0:0:0:0:
116,26,43521,2,0,P|164:19|209:40,1,100,0|0,1:1|1:1,0:0:0:0:
236,82,44015,1,8,0:0:0:0:
236,82,44180,2,0,L|222:146,1,50,0|8,1:1|0:0,0:0:0:0:
216,175,44510,1,4,0:0:0:0:
159,244,44839,2,0,P|149:292|176:337,1,100,0|0,1:1|1:1,0:0:0:0:
256,368,45499,1,0,1:1:0:0:
334,324,45828,6,0,B|386:335|386:335|429:312,1,100,0|0,1:1|1:1,0:0:0:0:
481,242,46488,2,0,L|512:283,2,50,0|8|0,1:1|0:0|1:1,0:0:0:0:
453,207,46982,2,0,P|412:184|358:195,1,100,4|8,0:0|0:0,0:0:0:0:
321,213,47477,1,0,1:1:0:0:
243,258,47806,2,0,P|194:269|151:249,1,100,8|4,3:3|0:0,0:0:0:0:
89,181,48466,6,0,L|85:130,2,50,8|8|12,0:0|0:0|0:0,0:0:0:0:
206,112,49290,6,0,L|203:63,2,50,8|8|12,0:0|0:0|0:0,0:0:0:0:
215,247,50114,6,0,L|223:347,2,100
269,175,51103,6,0,P|315:149|368:162,1,100,4|0,0:0|0:0,0:0:0:0:
426,217,51763,2,0,L|417:317,1,100,8|0,0:0|0:0,0:0:0:0:
335,354,52422,2,0,P|285:361|243:335,1,100,4|0,0:0|0:0,0:0:0:0:
183,269,53081,2,0,L|175:169,1,100,8|8,0:0|3:3,0:0:0:0:
247,115,53741,5,2,0:0:0:0:
324,162,54070,1,2,0:0:0:0:
313,250,54400,1,2,0:0:0:0:
228,281,54730,2,0,L|225:340,2,50,2|2|2,0:0|0:0|0:0,0:0:0:0:
197,248,55224,1,2,0:0:0:0:
111,277,55554,1,2,0:0:0:0:
127,189,55883,2,0,L|112:141,2,50,2|2|2,0:0|0:0|0:0,0:0:0:0:
410,172,58521,6,0,L|425:222,2,50,0|0|4,1:1|1:1|1:2,0:0:0:0:
