osu file format v14

[General]
AudioFilename: audio.mp3
AudioLeadIn: 0
PreviewTime: 32642
Countdown: 0
SampleSet: Soft
StackLeniency: 0.7
Mode: 0
LetterboxInBreaks: 0
WidescreenStoryboard: 1

[Editor]
DistanceSpacing: 1.2
BeatDivisor: 4
GridSize: 4
TimelineZoom: 2.250001

[Metadata]
Title:Dame wa Dame (TV Size)
TitleUnicode:ダメハダメ (TV Size)
Artist:Suzuki Minori
ArtistUnicode:鈴木みのり
Creator:EmPao
Version:Magical Hard
Source:手品先輩
Tags:magical sempai tejina senpai anime japanese ending ED theme outro J-pop HabiHolic
BeatmapID:2087734
BeatmapSetID:997405

[Difficulty]
HPDrainRate:5
CircleSize:3.6
OverallDifficulty:6
ApproachRate:8
SliderMultiplier:1.4
SliderTickRate:1

[Events]
//Background and Video events
0,0,"bg.jpg",0,0
//Break Periods
//Storyboard Layer 0 (Background)
//Storyboard Layer 1 (Fail)
//Storyboard Layer 2 (Pass)
//Storyboard Layer 3 (Foreground)
//Storyboard Layer 4 (Overlay)
//Storyboard Sound Samples

[TimingPoints]
-303,329.67032967033,4,2,1,70,1,0
2499,-100,4,2,2,70,0,0
2581,-100,4,2,1,70,0,0
2828,-100,4,2,2,70,0,0
2911,-100,4,2,1,70,0,0
3642,329.67032967033,4,2,1,70,1,0
5620,-100,4,2,2,70,0,0
5702,-100,4,2,1,70,0,0
5949,-100,4,2,2,70,0,0
6032,-100,4,2,1,70,0,0
16828,-100,4,2,87,80,0,0
20774,329.67032967033,4,2,87,80,1,0
24235,-100,4,2,1,50,0,0
24730,-100,4,2,1,70,0,0
27367,-200,4,2,1,60,0,0
29510,-100,4,2,1,70,0,0
32642,-83.3333333333333,4,2,1,70,0,1
43109,-83.3333333333333,4,2,1,70,0,0
43191,-83.3333333333333,4,2,1,70,0,1
48466,-100,4,2,1,70,0,0
53741,-100,4,2,66,30,0,0
56543,-100,4,2,2,50,0,0
58026,402.684563758389,4,2,2,50,1,0
58227,294.117647058824,4,2,2,50,1,0
58521,329.67032967033,4,2,2,60,1,0

[Colours]
Combo1 : 255,128,255
Combo2 : 128,128,255
Combo3 : 87,163,255

[HitObjects]
229,88,521,6,0,L|156:80,2,70,8|8|8,0:0|0:0|0:0,0:0:0:0:
301,45,1015,6,0,P|315:77|311:116,1,70,4|0,0:0|0:0,0:0:0:0:
255,173,1345,2,0,P|252:207|266:239,1,70,8|0,0:0|0:0,0:0:0:0:
331,293,1675,2,0,L|408:284,1,70
475,247,2004,2,0,P|487:215|479:178,1,70,8|0,0:0|0:0,0:0:0:0:
399,204,2334,5,0,0:0:0:0:
399,204,2499,2,0,L|319:193,1,70,2|8,0:0|0:0,0:0:0:0:
250,167,2828,2,0,P|236:135|317:124,1,140,2|0,0:0|0:0,0:0:0:0:
329,194,3323,1,8,0:0:0:0:
164,225,3642,5,4,0:0:0:0:
329,194,3971,1,12,3:3:0:0:
408,178,4136,1,4,0:0:0:0:
289,59,4466,2,0,L|279:129,1,70,0|12,3:3|0:3,0:0:0:0:
260,295,4960,5,4,0:0:0:0:
474,160,5455,1,0,0:0:0:0:
498,240,5620,2,0,L|487:315,1,70,2|0,0:0|0:0,0:0:0:0:
424,363,5949,2,0,P|408:331|409:292,1,70,2|0,0:0|0:0,0:0:0:0:
488,309,6279,5,4,0:0:0:0:
326,357,6609,2,0,P|290:363|256:353,1,70,8|0,0:0|0:0,0:0:0:0:
186,310,6938,1,2,0:0:0:0:
114,264,7103,2,0,P|82:249|45:252,2,70,0|8|0,0:0|0:0|0:0,0:0:0:0:
186,310,7598,6,0,P|201:271|196:239,1,70,2|0,0:0|0:0,0:0:0:0:
242,172,7927,2,0,P|203:157|171:162,1,70,8|0,0:0|0:0,0:0:0:0:
104,114,8257,2,0,P|89:153|94:185,1,70,2|0,0:0|0:0,0:0:0:0:
48,252,8587,2,0,P|87:267|119:262,1,70,8|0,0:0|0:0,0:0:0:0:
197,243,8916,6,0,L|208:170,1,70,2|0,0:0|0:0,0:0:0:0:
170,97,9246,2,0,P|178:62|200:35,1,70,8|0,0:0|0:0,0:0:0:0:
283,31,9576,1,2,0:0:0:0:
326,102,9740,1,0,0:0:0:0:
393,52,9905,1,8,0:0:0:0:
438,122,10070,6,0,P|445:159|433:205,1,70,0|2,0:0|0:0,0:0:0:0:
324,314,10565,1,8,0:0:0:0:
241,327,10729,2,0,P|243:292|263:256,2,70,0|2|0,0:0|0:0|0:0,0:0:0:0:
324,314,11224,1,8,0:0:0:0:
340,231,11389,1,0,0:0:0:0:
402,287,11554,6,0,L|472:268,1,70,2|0,0:0|0:0,0:0:0:0:
439,190,11883,2,0,P|444:155|437:121,1,70,8|0,0:0|0:0,0:0:0:0:
392,49,12213,1,2,0:0:0:0:
326,102,12378,1,0,0:0:0:0:
283,31,12543,1,8,0:0:0:0:
218,84,12707,1,0,0:0:0:0:
147,37,12872,6,0,P|114:25|80:27,1,70,2|0,0:0|0:0,0:0:0:0:
4,64,13202,2,0,L|10:133,1,70,8|0,0:0|0:0,0:0:0:0:
58,203,13532,2,0,P|70:236|68:270,1,70,2|0,0:0|0:0,0:0:0:0:
27,344,13861,2,0,P|60:356|94:354,1,70,8|0,0:0|0:0,0:0:0:0:
174,326,14191,6,0,L|244:322,1,70,2|0,0:0|0:0,0:0:0:0:
319,284,14521,2,0,P|331:316|326:351,1,70,8|0,0:0|0:0,0:0:0:0:
243,322,14850,1,2,0:0:0:0:
247,240,15015,2,0,P|286:206|385:235,1,140
368,217,15510,5,2,0:0:0:0:
499,110,15839,1,8,0:0:0:0:
347,38,16169,2,0,L|359:2,4,35,8|0|8|8|8,3:3|3:3|3:3|0:0|0:0,0:0:0:0:
345,45,16828,5,4,0:0:0:0:
205,139,17158,1,8,0:0:0:0:
288,133,17323,1,8,0:0:0:0:
239,65,17488,1,0,0:0:0:0:
72,83,17817,1,8,0:0:0:0:
72,83,17982,6,0,L|-1:90,1,70,2|2,0:0|0:0,0:0:0:0:
64,248,18477,1,8,0:0:0:0:
128,193,18642,1,8,0:0:0:0:
50,166,18806,1,2,0:0:0:0:
161,291,19136,1,8,0:0:0:0:
161,291,19301,6,0,L|155:362,1,70,2|2,0:0|0:0,0:0:0:0:
319,324,19795,1,8,0:0:0:0:
268,256,19960,1,8,0:0:0:0:
239,335,20125,1,2,0:0:0:0:
405,314,20455,1,8,0:0:0:0:
488,300,20620,5,2,0:0:0:0:
488,300,20774,2,0,L|503:229,1,70,2|0,0:0|0:0,0:0:0:0:
497,147,21103,1,8,0:0:0:0:
452,74,21268,1,8,0:0:0:0:
371,52,21433,2,8,P|335:45|302:56,1,70,0|2,0:0|0:0,0:0:0:0:
239,109,21763,1,8,0:0:0:0:
239,109,22092,5,2,0:0:0:0:
204,273,22422,1,8,0:0:0:0:
244,199,22587,1,8,0:0:0:0:
289,269,22752,1,0,0:0:0:0:
239,109,23081,1,8,0:0:0:0:
239,109,23246,6,0,L|234:36,1,70,2|4,0:0|0:0,0:0:0:0:
74,92,23741,1,8,0:0:0:0:
74,92,23905,2,0,L|67:166,1,70,8|2,0:0|0:0,0:0:0:0:
40,242,24235,1,0,1:1:0:0:
48,257,24317,1,0,1:1:0:0:
59,270,24400,2,0,P|85:289|122:293,1,70,0|2,1:1|0:0,0:0:0:0:
205,278,24730,5,4,0:0:0:0:
271,329,24894,1,0,0:0:0:0:
355,326,25059,1,8,0:0:0:0:
416,269,25224,2,0,P|440:203|403:133,1,140,4|2,0:0|0:0,0:0:0:0:
356,204,25719,1,8,0:0:0:0:
356,204,26048,6,0,L|278:195,1,70,4|0,0:0|0:0,0:0:0:0:
212,158,26378,1,8,3:3:0:0:
149,214,26543,2,0,P|125:280|162:350,1,140,4|2,0:0|0:0,0:0:0:0:
211,280,27037,1,8,0:0:0:0:
211,280,27367,6,0,L|282:269,1,70,4|0,0:0|0:0,0:0:0:0:
364,274,28026,2,0,L|294:284,1,70,8|0,0:0|0:0,0:0:0:0:
211,280,28686,6,0,L|173:285,1,35,2|8,0:0|0:0,0:0:0:0:
140,267,29015,1,2,0:0:0:0:
118,231,29180,1,2,0:0:0:0:
161,66,29510,1,8,3:3:0:0:
219,125,29675,1,8,3:3:0:0:
138,146,29839,1,8,3:3:0:0:
247,44,30004,6,0,P|317:28|380:67,1,140,4|8,0:0|0:0,0:0:0:0:
427,158,30499,2,0,P|357:174|294:135,1,140,4|8,0:0|0:0,0:0:0:0:
373,59,30993,1,4,0:0:0:0:
479,254,31323,6,0,P|516:301|466:345,2,140,4|0|8,0:0|0:0|0:0,0:0:0:0:
373,290,32147,2,0,L|322:312,5,35,0|0|8|0|0|0,1:1|1:1|0:0|1:1|1:1|1:1,0:0:0:0:
387,283,32642,6,0,P|382:237|398:201,1,83.9999974365235,2|0,0:0|0:0,0:0:0:0:
466,129,32971,2,0,L|460:44,1,83.9999974365235,12|0,0:0|0:0,0:0:0:0:
361,25,33301,1,2,0:0:0:0:
302,107,33466,1,2,0:0:0:0:
376,175,33631,1,8,0:0:0:0:
302,107,33795,6,0,L|210:99,1,83.9999974365235,0|2,0:0|0:0,0:0:0:0:
90,261,34290,2,0,L|173:253,1,83.9999974365235,8|0,0:0|0:0,0:0:0:0:
262,301,34620,2,0,P|313:296|343:275,1,83.9999974365235,2|2,0:0|0:0,0:0:0:0:
276,199,34949,1,8,0:0:0:0:
435,79,35279,5,2,0:0:0:0:
480,168,35444,1,0,0:0:0:0:
439,261,35609,1,8,0:0:0:0:
340,278,35774,1,0,0:0:0:0:
302,185,35938,2,0,P|345:177|389:196,2,83.9999974365235,2|2|8,0:0|0:0|0:0,0:0:0:0:
242,266,36433,6,0,L|235:362,1,83.9999974365235,0|2,0:0|0:0,0:0:0:0:
135,363,36763,1,0,0:0:0:0:
59,296,36927,1,8,0:0:0:0:
157,120,37257,2,0,L|149:213,1,83.9999974365235,12|2,0:0|0:0,0:0:0:0:
69,141,37587,2,0,P|66:95|88:61,1,83.9999974365235,12|2,0:0|0:0,0:0:0:0:
178,21,37916,6,0,L|262:27,1,83.9999974365235,4|0,0:0|0:0,0:0:0:0:
331,101,38246,2,0,P|299:124|254:125,1,83.9999974365235,8|0,0:0|0:0,0:0:0:0:
261,26,38576,1,2,0:0:0:0:
363,9,38741,1,2,0:0:0:0:
428,85,38905,1,8,0:0:0:0:
392,179,39070,6,0,P|433:187|479:172,1,83.9999974365235,0|2,0:0|0:0,0:0:0:0:
279,232,39565,2,0,P|238:224|192:239,1,83.9999974365235,8|0,0:0|0:0,0:0:0:0:
117,297,39894,2,0,P|77:306|35:293,1,83.9999974365235,2|2,0:0|0:0,0:0:0:0:
79,202,40224,1,8,0:0:0:0:
242,321,40554,6,0,L|325:327,1,83.9999974365235,2|2,0:0|0:0,0:0:0:0:
400,257,40883,2,0,P|366:230|321:227,1,83.9999974365235,8|0,0:0|0:0,0:0:0:0:
325,327,41213,1,2,0:0:0:0:
424,352,41378,2,0,B|466:346|488:309|488:309|497:222,1,167.999994873047,8|2,0:0|0:0,0:0:0:0:
428,148,41872,5,12,0:0:0:0:
359,223,42037,1,2,0:0:0:0:
278,162,42202,2,0,L|267:79,1,83.9999974365235,12|0,0:0|0:0,0:0:0:0:
176,32,42532,1,12,0:0:0:0:
89,84,42697,2,0,L|63:46,2,41.9999987182618,0|0|8,1:1|1:1|0:0,0:0:0:0:
86,185,43026,1,0,1:1:0:0:
84,214,43108,1,0,1:1:0:0:
82,243,43191,6,0,L|76:338,1,83.9999974365235,4|8,0:0|0:0,0:0:0:0:
175,301,43521,2,0,P|216:296|258:311,1,83.9999974365235,0|8,1:1|0:0,0:0:0:0:
346,354,43850,2,0,P|385:367|426:362,1,83.9999974365235,0|8,1:1|0:0,1:1:0:0:
394,266,44180,2,0,L|390:178,1,83.9999974365235,0|8,1:1|0:0,0:0:0:0:
468,28,44510,6,0,P|472:70|458:109,1,83.9999974365235,4|8,0:0|0:0,1:1:0:0:
370,61,44839,2,0,P|329:56|286:71,1,83.9999974365235,0|8,1:1|0:0,0:0:0:0:
212,135,45169,2,0,P|171:145|118:131,1,83.9999974365235,0|8,1:1|0:0,1:1:0:0:
173,43,45499,1,0,1:1:0:0:
343,151,45828,6,0,L|347:236,1,83.9999974365235,0|8,1:1|0:0,0:0:0:0:
442,266,46158,2,0,B|429:307|429:307|390:326,1,83.9999974365235,0|8,1:1|0:0,0:0:0:0:
290,318,46488,1,0,1:1:0:0:
198,357,46653,1,8,0:0:0:0:
100,332,46817,1,0,1:1:0:0:
46,246,46982,6,0,P|88:228|130:236,2,83.9999974365235,8|0|8,0:0|1:1|0:0,0:0:0:0:
100,332,47477,1,0,1:1:0:0:
151,136,47806,2,0,L|103:116,3,41.9999987182618,8|0|0|0,3:3|1:1|3:3|3:3,0:0:0:0:
159,141,48136,2,0,P|200:146|237:128,1,83.9999974365235,4|0,0:0|0:0,0:0:0:0:
185,48,48466,5,8,0:0:0:0:
267,37,48631,1,8,0:0:0:0:
350,27,48795,1,12,0:0:0:0:
422,226,49290,5,8,0:0:0:0:
428,142,49455,1,8,0:0:0:0:
435,58,49620,1,12,0:0:0:0:
480,308,50114,6,0,P|415:330|352:298,1,140
254,201,50774,1,0,0:0:0:0:
342,92,51103,6,0,P|284:54|208:67,1,140,4|0,0:0|0:0,0:0:0:0:
80,29,51763,2,0,P|72:97|109:154,1,140,8|0,0:0|0:0,0:0:0:0:
23,265,52422,6,0,P|81:303|157:290,1,140,4|0,0:0|0:0,0:0:0:0:
285,326,53081,2,0,P|292:257|255:200,1,140,8|4,0:0|3:3,0:0:0:0:
148,294,53741,5,10,0:0:0:0:
285,326,54071,1,2,0:0:0:0:
404,252,54400,1,2,0:0:0:0:
425,113,54730,2,0,L|436:36,2,70,2|2|2,0:0|0:0|0:0,0:0:0:0:
414,182,55224,1,2,0:0:0:0:
393,320,55553,5,2,0:0:0:0:
232,273,55883,1,2,0:0:0:0:
291,214,56048,1,2,0:0:0:0:
308,297,56212,1,2,0:0:0:0:
148,242,56543,6,0,L|135:171,1,70,0|2,0:0|0:0,0:0:0:0:
242,43,57038,2,0,L|255:114,1,70,0|2,0:0|0:0,0:0:0:0:
337,258,57532,2,0,L|324:187,1,70,0|2,0:0|0:0,0:0:0:0:
417,88,58026,5,2,0:0:0:0:
417,88,58227,1,2,0:0:0:0:
337,258,58521,6,0,L|350:332,2,70,0|0|4,1:1|1:1|1:2,0:0:0:0:
