osu file format v14

[General]
AudioFilename: audio.mp3
AudioLeadIn: 0
PreviewTime: 32642
Countdown: 0
SampleSet: Soft
StackLeniency: 0.7
Mode: 0
LetterboxInBreaks: 0
WidescreenStoryboard: 0

[Editor]
DistanceSpacing: 0.8
BeatDivisor: 4
GridSize: 4
TimelineZoom: 2.85

[Metadata]
Title:Dame wa Dame (TV Size)
TitleUnicode:ダメハダメ (TV Size)
Artist:Suzuki Minori
ArtistUnicode:鈴木みのり
Creator:EmPao
Version:Magical Extra
Source:手品先輩
Tags:magical sempai tejina senpai anime japanese ending ED theme outro J-pop HabiHolic
BeatmapID:2086326
BeatmapSetID:997405

[Difficulty]
HPDrainRate:7
CircleSize:4
OverallDifficulty:8.5
ApproachRate:9.2
SliderMultiplier:1.8
SliderTickRate:1

[Events]
//Background and Video events
0,0,"bg.jpg",0,0
//Break Periods
//Storyboard Layer 0 (Background)
//Storyboard Layer 1 (Fail)
//Storyboard Layer 2 (Pass)
//Storyboard Layer 3 (Foreground)
//Storyboard Layer 4 (Overlay)
//Storyboard Sound Samples

[TimingPoints]
-303,329.67032967033,4,2,1,70,1,0
2499,-100,4,2,2,70,0,0
2581,-100,4,2,1,70,0,0
2828,-100,4,2,2,70,0,0
2911,-100,4,2,1,70,0,0
3642,329.67032967033,4,2,1,70,1,0
5620,-100,4,2,2,70,0,0
5702,-100,4,2,1,70,0,0
5949,-100,4,2,2,70,0,0
6032,-100,4,2,1,70,0,0
16828,-100,4,2,87,80,0,0
20774,329.67032967033,4,2,87,80,1,0
24235,-100,4,2,1,50,0,0
24730,-100,4,2,1,70,0,0
27367,-200,4,2,1,60,0,0
29510,-100,4,2,1,70,0,0
32642,-83.3333333333333,4,2,1,70,0,1
43109,-83.3333333333333,4,2,1,70,0,0
43191,-83.3333333333333,4,2,1,70,0,1
48466,-100,4,2,1,70,0,0
53741,-100,4,2,66,30,0,0
56543,-100,4,2,2,50,0,0
56872,-100,4,2,2,5,0,0
57037,-100,4,2,2,50,0,0
57367,-100,4,2,2,5,0,0
57532,-100,4,2,2,50,0,0
57861,-100,4,2,2,5,0,0
58026,402.684563758389,4,2,2,50,1,0
58227,294.117647058824,4,2,2,50,1,0
58374,-100,4,2,2,5,0,0
58521,329.67032967033,4,2,2,60,1,0

[Colours]
Combo1 : 255,128,255
Combo2 : 128,128,255
Combo3 : 87,163,255

[HitObjects]
107,235,521,5,8,0:0:0:0:
107,235,686,1,8,0:0:0:0:
107,235,850,1,8,0:0:0:0:
293,346,1015,6,0,L|305:252,1,90,4|0,0:0|0:0,0:0:0:0:
381,70,1345,2,0,L|369:166,1,90,8|0,0:0|0:0,0:0:0:0:
222,295,1675,2,0,P|176:296|137:273,1,90,2|0,0:0|0:0,0:0:0:0:
224,96,2004,2,0,P|257:63|307:52,1,90,8|0,0:0|0:0,0:0:0:0:
489,157,2334,5,2,0:0:0:0:
323,266,2499,2,0,P|278:261|243:233,1,90,2|8,0:0|0:0,0:0:0:0:
369,159,2828,2,0,L|343:351,1,180,2|0,0:0|0:0,0:0:0:0:
344,337,3323,1,8,0:0:0:0:
96,315,3642,5,4,0:0:0:0:
96,315,3971,5,12,0:3:0:0:
440,307,4136,1,4,0:0:0:0:
440,307,4466,5,0,3:3:0:0:
152,229,4631,1,12,0:3:0:0:
292,345,4960,5,4,0:0:0:0:
209,125,5455,5,0,0:0:0:0:
344,73,5620,2,0,P|385:87|413:123,1,90,2|0,0:0|0:0,0:0:0:0:
310,299,5949,2,0,L|321:207,1,90,2|8,0:0|0:0,0:0:0:0:
323,188,6196,1,0,1:0:0:0:
326,168,6279,5,4,0:0:0:0:
93,67,6609,2,0,L|101:162,1,90,8|0,0:0|0:0,0:0:0:0:
115,301,6938,1,2,0:0:0:0:
229,213,7103,1,0,0:0:0:0:
35,249,7268,2,0,P|19:295|26:339,1,90,8|0,0:0|0:0,0:0:0:0:
229,213,7598,5,2,0:0:0:0:
271,39,7762,1,0,0:0:0:0:
404,231,7927,1,8,0:0:0:0:
361,55,8092,1,0,0:0:0:0:
174,123,8257,1,2,0:0:0:0:
180,303,8422,1,0,0:0:0:0:
345,164,8587,1,8,0:0:0:0:
271,347,8751,1,0,0:0:0:0:
107,236,8916,6,0,P|146:219|195:226,1,90,2|0,0:0|0:0,0:0:0:0:
360,361,9246,2,0,L|269:347,1,90,8|0,0:0|0:0,0:0:0:0:
192,224,9576,1,2,0:0:0:0:
264,121,9740,2,0,L|261:30,1,90,0|8,0:0|0:0,0:0:0:0:
383,65,10070,1,0,0:0:0:0:
493,207,10235,6,0,P|440:256|332:239,1,180,2|8,0:0|0:0,0:0:0:0:
154,131,10729,1,0,0:0:0:0:
398,151,10894,1,2,0:0:0:0:
154,131,11059,1,0,0:0:0:0:
338,244,11224,2,0,L|329:335,1,90,8|0,0:0|0:0,0:0:0:0:
455,346,11554,5,2,0:0:0:0:
218,182,11883,2,0,L|230:88,1,90,8|0,0:0|0:0,0:0:0:0:
82,22,12213,1,2,0:0:0:0:
105,218,12378,1,0,0:0:0:0:
183,16,12543,1,8,0:0:0:0:
17,152,12707,1,0,0:0:0:0:
162,312,12872,6,0,P|208:314|257:292,1,90,2|0,0:0|0:0,0:0:0:0:
479,248,13202,2,0,L|381:237,1,90,8|0,0:0|0:0,0:0:0:0:
176,132,13532,2,0,P|175:179|196:227,1,90,2|0,0:0|0:0,0:0:0:0:
400,131,13861,2,0,L|413:42,1,90,8|0,0:0|0:0,0:0:0:0:
291,159,14191,5,2,0:0:0:0:
389,237,14356,1,0,0:0:0:0:
413,42,14521,2,0,L|400:131,1,90,8|0,0:0|0:0,0:0:0:0:
283,279,14850,1,2,0:0:0:0:
173,218,15015,2,0,P|158:175|163:131,1,90,0|8,0:0|0:0,0:0:0:0:
291,159,15345,1,0,0:0:0:0:
291,159,15510,5,2,0:0:0:0:
51,81,15839,1,8,0:0:0:0:
1,197,16004,1,0,0:0:0:0:
125,183,16169,1,8,3:3:0:0:
151,191,16251,1,0,3:3:0:0:
178,192,16334,1,8,3:3:0:0:
205,188,16416,1,8,0:0:0:0:
229,175,16499,1,8,0:0:0:0:
169,43,16828,5,4,0:0:0:0:
233,179,17158,1,8,0:0:0:0:
233,179,17323,1,8,0:0:0:0:
262,262,17488,2,0,P|214:268|176:244,1,90,0|2,0:0|0:0,0:0:0:0:
372,143,17817,1,8,0:0:0:0:
408,282,17982,1,2,0:0:0:0:
289,172,18147,6,0,P|283:124|307:86,1,90,2|0,0:0|0:0,0:0:0:0:
408,282,18477,1,8,0:0:0:0:
269,318,18642,1,8,0:0:0:0:
379,198,18806,2,0,P|422:192|461:213,1,90,2|0,0:0|0:0,0:0:0:0:
269,318,19136,1,8,0:0:0:0:
233,179,19301,1,2,0:0:0:0:
379,199,19466,5,2,0:0:0:0:
233,179,19795,1,8,0:0:0:0:
269,318,19960,1,8,0:0:0:0:
379,199,20125,2,0,L|389:106,1,90,0|2,0:0|0:0,0:0:0:0:
226,254,20455,1,8,0:0:0:0:
190,115,20620,1,2,0:0:0:0:
83,235,20774,6,0,B|80:307|80:307|120:357,1,135,2|0,0:0|0:0,0:0:0:0:
135,371,21103,1,8,0:0:0:0:
177,230,21268,2,0,P|131:147|54:142,1,180,8|2,0:0|0:0,0:0:0:0:
40,276,21763,1,8,0:0:0:0:
178,239,21927,1,2,0:0:0:0:
320,211,22092,6,0,B|332:74,1,135,2|0,0:0|0:0,0:0:0:0:
334,54,22422,1,8,0:0:0:0:
442,148,22587,1,8,0:0:0:0:
357,286,22752,2,0,P|315:299|274:281,1,90,0|2,0:0|0:0,0:0:0:0:
95,313,23081,1,8,0:0:0:0:
73,170,23246,1,2,0:0:0:0:
227,220,23411,6,0,L|234:130,1,90,4|2,0:0|0:0,0:0:0:0:
452,118,23741,1,8,0:0:0:0:
474,261,23905,1,8,0:0:0:0:
320,211,24070,2,0,L|313:301,1,90,2|0,0:0|1:1,0:0:0:0:
312,318,24317,1,0,1:1:0:0:
310,336,24400,1,0,1:1:0:0:
100,63,24730,5,4,0:0:0:0:
191,259,24894,1,0,0:0:0:0:
315,82,25059,1,8,0:0:0:0:
62,172,25224,2,0,L|40:354,1,180,4|0,0:0|0:0,0:0:0:0:
257,339,25719,2,0,P|289:305|300:257,1,90,8|0,0:0|0:0,0:0:0:0:
315,82,26048,5,4,0:0:0:0:
136,88,26213,1,0,0:0:0:0:
202,255,26378,1,8,3:3:0:0:
408,191,26543,2,0,B|440:104|440:104|432:15,1,180,4|2,0:0|0:0,0:0:0:0:
432,18,27037,1,8,0:0:0:0:
171,219,27367,6,0,P|167:267|180:310,1,90,4|0,0:0|0:0,0:0:0:0:
234,377,27861,1,2,0:0:0:0:
171,219,28026,2,0,P|167:267|180:310,1,90,8|0,0:0|0:0,0:0:0:0:
234,377,28521,1,2,0:0:0:0:
386,300,28686,6,0,L|392:256,1,45,2|8,0:0|0:0,0:0:0:0:
332,193,29015,1,2,0:0:0:0:
332,193,29180,2,0,L|338:148,1,45,2|8,0:0|0:0,0:0:0:0:
109,50,29510,1,8,3:0:0:0:
171,219,29675,1,8,3:0:0:0:
287,83,29839,1,8,3:0:0:0:
68,162,30004,6,0,L|99:344,1,180,4|8,0:0|0:0,0:0:0:0:
313,359,30499,2,0,L|343:179,1,180,4|0,0:0|0:0,0:0:0:0:
139,104,30993,2,0,L|154:192,1,90,4|0,0:0|0:0,0:0:0:0:
344,90,31323,6,0,P|283:27|197:42,2,180,4|0|8,0:0|0:0|0:0,0:0:0:0:
377,303,32147,1,0,1:0:0:0:
413,308,32230,1,0,1:0:0:0:
449,300,32312,1,8,0:0:0:0:
480,281,32394,1,0,1:0:0:0:
495,247,32477,1,0,1:0:0:0:
498,211,32559,1,0,1:0:0:0:
484,175,32642,6,0,L|500:66,1,107.999996704102,2|0,0:0|0:0,0:0:0:0:
239,88,32971,2,0,P|290:20|395:41,1,161.999995056153,12|0,0:0|0:0,0:0:0:0:
401,34,33301,2,0,L|405:144,1,107.999996704102,2|2,0:0|0:0,0:0:0:0:
239,88,33631,1,8,0:0:0:0:
499,68,33795,1,0,0:0:0:0:
317,117,33960,2,0,L|308:227,1,107.999996704102,2|0,0:0|0:0,0:0:0:0:
91,333,34290,6,0,P|30:277|49:199,1,161.999995056153,8|0,0:0|0:0,0:0:0:0:
73,175,34620,1,2,0:0:0:0:
240,130,34784,1,2,0:0:0:0:
173,380,34949,2,0,B|184:326|184:326|162:274,1,107.999996704102,8|0,0:0|0:0,0:0:0:0:
64,38,35279,5,2,0:0:0:0:
287,170,35444,1,0,0:0:0:0:
28,187,35609,1,8,0:0:0:0:
232,27,35774,1,0,0:0:0:0:
163,277,35938,1,2,0:0:0:0:
232,27,36103,1,2,0:0:0:0:
37,50,36268,1,8,0:0:0:0:
213,128,36433,2,0,P|236:83|232:27,1,107.999996704102,0|2,0:0|0:0,0:0:0:0:
37,50,36763,5,0,0:0:0:0:
163,277,36927,2,0,L|272:268,1,107.999996704102,8|0,0:0|0:0,0:0:0:0:
451,113,37257,1,6,0:0:0:0:
487,369,37422,1,2,0:0:0:0:
366,163,37587,1,12,0:0:0:0:
319,373,37752,1,2,0:0:0:0:
119,211,37916,6,0,P|169:230|224:219,1,107.999996704102,4|0,0:0|0:0,0:0:0:0:
385,19,38246,2,0,L|220:42,1,161.999995056153,8|0,0:0|0:0,0:0:0:0:
182,50,38576,1,2,0:0:0:0:
119,211,38741,1,2,0:0:0:0:
290,188,38905,1,8,0:0:0:0:
182,50,39070,1,0,0:0:0:0:
44,269,39235,2,0,P|86:302|138:304,1,107.999996704102,2|0,0:0|0:0,0:0:0:0:
138,303,39565,6,0,L|313:283,1,161.999995056153,8|0,0:0|0:0,0:0:0:0:
342,278,39894,1,2,0:0:0:0:
325,106,40059,1,2,0:0:0:0:
409,349,40224,2,0,P|364:374|302:365,1,107.999996704102,8|0,0:0|0:0,0:0:0:0:
139,331,40554,5,2,0:0:0:0:
211,59,40719,1,2,0:0:0:0:
309,368,40883,1,8,0:0:0:0:
285,112,41048,1,0,0:0:0:0:
139,331,41213,1,2,0:0:0:0:
211,59,41378,2,0,P|252:25|308:25,1,107.999996704102,8|2,0:0|0:0,0:0:0:0:
409,190,41708,1,2,0:0:0:0:
96,123,41872,5,12,0:0:0:0:
401,90,42037,1,2,0:0:0:0:
401,90,42120,1,0,0:0:0:0:
401,90,42202,1,12,0:0:0:0:
124,38,42367,1,0,0:0:0:0:
409,190,42532,1,12,0:0:0:0:
130,231,42697,1,0,1:1:0:0:
131,285,42779,1,0,1:1:0:0:
167,328,42861,1,8,0:0:0:0:
220,329,42944,1,0,1:1:0:0:
260,292,43026,1,0,1:1:0:0:
310,283,43109,1,0,1:1:0:0:
357,308,43191,6,0,L|472:290,1,107.999996704102,4|8,0:0|0:0,0:0:0:0:
254,37,43521,2,0,L|139:55,1,107.999996704102,0|8,1:1|0:0,0:0:0:0:
273,257,43850,2,0,P|308:214|310:163,1,107.999996704102,0|8,1:1|0:0,0:0:0:0:
147,53,44180,1,0,1:1:0:0:
403,92,44345,1,8,0:0:0:0:
92,243,44510,6,0,B|199:237,1,107.999996704102,4|8,0:0|0:0,0:0:0:0:
332,21,44839,1,0,1:1:0:0:
83,88,45004,1,8,0:0:0:0:
292,276,45169,2,0,P|302:220|279:176,1,107.999996704102,0|8,1:1|0:0,0:0:0:0:
83,88,45499,1,0,1:1:0:0:
219,333,45664,1,8,0:0:0:0:
413,73,45828,6,0,L|305:87,1,107.999996704102,0|8,1:1|0:0,0:0:0:0:
111,346,46158,2,0,L|225:332,1,107.999996704102,0|8,1:1|0:0,0:0:0:0:
458,230,46488,1,0,1:1:0:0:
253,175,46653,1,8,0:0:0:0:
350,368,46817,1,0,1:1:0:0:
287,88,46982,6,0,P|228:82|186:111,1,107.999996704102,8|0,0:0|1:1,0:0:0:0:
111,346,47312,1,8,0:0:0:0:
370,152,47477,2,0,P|395:104|387:52,1,107.999996704102,4|8,0:0|0:0,0:0:0:0:
136,183,47806,2,0,L|129:240,1,53.9999983520508,8|0,3:3|1:1,0:0:0:0:
186,328,47971,1,0,3:3:0:0:
186,328,48054,1,0,3:3:0:0:
186,328,48136,2,0,P|237:352|297:336,1,107.999996704102,4|0,0:0|0:0,0:0:0:0:
188,108,48466,5,8,0:0:0:0:
35,308,48631,1,8,0:0:0:0:
285,342,48795,1,12,0:0:0:0:
151,327,49290,5,8,0:0:0:0:
318,138,49455,1,8,0:0:0:0:
69,94,49620,1,12,0:0:0:0:
69,94,50114,6,0,L|78:186,1,90
43,286,50444,2,0,L|-11:293,2,45
151,276,50774,1,0,0:0:0:0:
151,276,51103,6,0,P|206:330|305:325,1,180,4|0,0:0|0:0,0:0:0:0:
378,275,51598,1,2,0:0:0:0:
444,214,51763,2,0,L|462:29,1,180,8|0,0:0|0:0,0:0:0:0:
375,8,52257,1,2,0:0:0:0:
357,96,52422,6,0,L|378:277,1,180,4|0,0:0|0:0,0:0:0:0:
214,351,53081,2,0,P|126:336|88:255,1,180,8|4,0:0|3:3,0:0:0:0:
107,81,53741,5,10,0:0:0:0:
87,260,54070,1,2,0:0:0:0:
252,189,54400,1,2,0:0:0:0:
107,81,54730,2,0,L|97:170,1,90,2|2,0:0|0:0,0:0:0:0:
265,64,55059,2,0,P|223:32|181:30,1,90,2|2,0:0|0:0,0:0:0:0:
170,208,55554,5,2,0:0:0:0:
289,342,55883,1,2,0:0:0:0:
376,363,56048,1,2,0:0:0:0:
447,308,56213,1,2,0:0:0:0:
447,308,56543,5,0,0:0:0:0:
447,308,56708,2,0,L|461:216,1,90,2|0,0:0|0:0,0:0:0:0:
189,238,57037,1,0,0:0:0:0:
189,238,57202,2,0,L|175:138,1,90,2|0,0:0|0:0,0:0:0:0:
359,197,57532,1,0,0:0:0:0:
359,197,57697,2,0,L|372:108,1,90,2|0,0:0|0:0,0:0:0:0:
101,124,58026,5,2,0:0:0:0:
101,124,58227,2,0,L|88:34,1,90,2|0,0:0|0:0,0:0:0:0:
340,10,58521,5,0,1:1:0:0:
233,238,58686,1,0,1:1:0:0:
88,34,58850,1,4,1:2:0:0:
