osu file format v14

[General]
AudioFilename: audio.mp3
AudioLeadIn: 0
PreviewTime: 32642
Countdown: 0
SampleSet: Soft
StackLeniency: 0.7
Mode: 0
LetterboxInBreaks: 0
WidescreenStoryboard: 1

[Editor]
DistanceSpacing: 2
BeatDivisor: 4
GridSize: 4
TimelineZoom: 2.850001

[Metadata]
Title:Dame wa Dame (TV Size)
TitleUnicode:ダメハダメ (TV Size)
Artist:Suzuki Minori
ArtistUnicode:鈴木みのり
Creator:EmPao
Version:Habi's Magical Insane
Source:手品先輩
Tags:magical sempai tejina senpai anime japanese ending ED theme outro J-pop HabiHolic
BeatmapID:2089130
BeatmapSetID:997405

[Difficulty]
HPDrainRate:6
CircleSize:4
OverallDifficulty:7
ApproachRate:9
SliderMultiplier:1.66
SliderTickRate:1

[Events]
//Background and Video events
0,0,"bg.jpg",0,0
//Break Periods
//Storyboard Layer 0 (Background)
//Storyboard Layer 1 (Fail)
//Storyboard Layer 2 (Pass)
//Storyboard Layer 3 (Foreground)
//Storyboard Layer 4 (Overlay)
//Storyboard Sound Samples

[TimingPoints]
-303,329.67032967033,4,2,1,70,1,0
2499,-100,4,2,2,70,0,0
2581,-100,4,2,1,70,0,0
2828,-100,4,2,2,70,0,0
2911,-100,4,2,1,70,0,0
3642,329.67032967033,4,2,1,70,1,0
16828,-100,4,2,87,80,0,0
20774,329.67032967033,4,2,87,80,1,0
24235,-100,4,2,1,50,0,0
24730,-100,4,2,1,70,0,0
27367,-200,4,2,1,60,0,0
29510,-100,4,2,1,70,0,0
32642,-83.3333333333333,4,2,1,70,0,1
43109,-83.3333333333333,4,2,1,70,0,0
43191,-83.3333333333333,4,2,1,70,0,1
48466,-100,4,2,1,70,0,0
53741,-100,4,2,66,30,0,0
56543,-100,4,2,2,50,0,0
58026,402.684563758389,4,2,2,50,1,0
58227,294.117647058824,4,2,2,50,1,0
58521,329.67032967033,4,2,2,60,1,0

[Colours]
Combo1 : 255,128,255
Combo2 : 128,128,255
Combo3 : 87,163,255

[HitObjects]
149,46,521,5,8,0:0:0:0:
129,134,686,1,8,0:0:0:0:
215,108,851,1,8,0:0:0:0:
54,73,1015,6,0,P|85:149|82:231,1,166,4|8,0:0|0:0,0:0:0:0:
41,317,1510,1,0,0:0:0:0:
120,363,1675,2,0,L|208:346,1,83,2|0,0:0|0:0,0:0:0:0:
345,290,2004,2,0,L|257:273,1,83,8|0,0:0|0:0,0:0:0:0:
153,169,2334,5,2,0:0:0:0:
297,79,2499,2,0,P|306:120|299:161,1,83,2|0,0:0|0:0,0:0:0:0:
221,24,2829,2,0,L|387:51,1,166,2|0,0:0|0:0,0:0:0:0:
504,157,3323,2,0,P|463:158|427:137,1,83,8|0,0:0|0:0,0:0:0:0:
277,204,3642,6,0,P|338:203|386:244,1,124.5,4|0,0:0|0:0,0:0:0:0:
399,263,3971,1,4,0:3:0:0:
199,301,4136,2,0,L|173:135,1,166,4|0,0:0|3:3,0:0:0:0:
328,22,4631,2,0,L|309:153,1,124.5,4|0,0:3|0:0,0:0:0:0:
307,171,4960,5,4,0:0:0:0:
305,170,6279,6,0,P|383:191|449:145,1,166,4|8,0:0|0:0,0:0:0:0:
366,91,6774,1,0,0:0:0:0:
226,109,6938,2,0,P|213:151|213:190,1,83,2|0,0:0|0:0,0:0:0:0:
284,352,7268,2,0,P|297:310|297:271,1,83,8|0,0:0|0:0,0:0:0:0:
39,320,7598,6,0,B|103:309|103:309|135:315|135:315|201:297,1,166,2|8,0:0|0:0,0:0:0:0:
155,216,8092,1,0,0:0:0:0:
54,93,8257,2,0,L|72:179,1,83,2|0,0:0|0:0,0:0:0:0:
145,234,8587,1,8,0:0:0:0:
181,30,8752,1,0,0:0:0:0:
350,192,8916,6,0,P|270:201|212:145,1,166,2|8,0:0|0:0,0:0:0:0:
303,111,9411,1,0,0:0:0:0:
416,35,9576,2,0,L|400:120,1,83,2|0,0:0|0:0,0:0:0:0:
483,215,9905,2,0,L|499:130,1,83,8|0,0:0|0:0,0:0:0:0:
264,202,10235,6,0,B|351:223|317:266|407:278,1,166,2|8,0:0|0:0,0:0:0:0:
408,184,10730,1,0,0:0:0:0:
175,248,10894,2,0,P|165:206|172:162,1,83,2|0,0:0|0:0,0:0:0:0:
253,107,11224,1,8,0:0:0:0:
113,34,11389,1,0,0:0:0:0:
318,36,11554,6,0,B|405:57|371:100|461:112,1,166,2|8,0:0|0:0,0:0:0:0:
463,24,12048,1,0,0:0:0:0:
320,142,12213,2,0,P|281:136|235:128,1,83,2|0,0:0|0:0,0:0:0:0:
114,59,12543,2,0,P|153:53|199:45,1,83,8|0,0:0|0:0,0:0:0:0:
368,60,12872,6,0,L|345:229,1,166,2|8,0:0|0:0,0:0:0:0:
332,326,13367,1,0,0:0:0:0:
497,302,13532,2,0,P|458:278|422:275,1,83,2|0,0:0|0:0,0:0:0:0:
312,346,13861,1,8,0:0:0:0:
254,188,14026,1,0,0:0:0:0:
213,366,14191,6,0,B|149:351|149:351|115:357|115:357|42:343,1,166,2|8,0:0|0:0,0:0:0:0:
98,261,14686,1,0,0:0:0:0:
194,115,14850,2,0,P|204:156|194:197,1,83,2|0,0:0|0:0,0:0:0:0:
19,170,15180,2,0,L|105:163,1,83,8|0,0:0|0:0,0:0:0:0:
281,71,15510,6,0,P|201:85|138:36,2,166,2|8|8,0:0|0:0|0:3,0:0:0:0:
373,29,16334,1,8,3:3:0:0:
373,29,16416,1,8,0:0:0:0:
373,29,16499,1,8,0:0:0:0:
373,29,16828,6,0,L|353:194,1,166,4|8,0:0|0:0,0:0:0:0:
268,250,17323,1,8,0:0:0:0:
328,330,17488,2,0,P|373:331|409:319,1,83,0|2,0:0|0:0,0:0:0:0:
262,232,17817,2,0,P|217:231|181:243,1,83,8|2,0:0|0:0,0:0:0:0:
105,354,18147,5,2,0:0:0:0:
34,149,18312,2,0,L|51:235,1,83,0|8,0:0|0:0,0:0:0:0:
226,109,18642,2,0,P|146:121|86:67,1,166,8|2,0:0|0:0,0:0:0:0:
175,29,19136,1,8,0:0:0:0:
175,29,19466,6,0,L|156:199,1,166,2|8,0:0|0:0,0:0:0:0:
211,290,19960,1,8,0:0:0:0:
422,164,20125,2,0,B|332:158|358:209|262:201,1,166,0|8,0:0|0:0,0:0:0:0:
281,112,20620,1,2,0:0:0:0:
402,269,20774,6,0,L|483:254,1,83,2|0,0:0|0:0,0:0:0:0:
429,147,21103,1,8,0:0:0:0:
259,207,21268,2,0,P|284:286|259:363,1,166,8|2,0:0|0:0,0:0:0:0:
182,284,21763,1,8,0:0:0:0:
182,284,22092,6,0,L|101:269,1,83,2|0,0:0|0:0,0:0:0:0:
0,189,22422,2,0,L|81:174,1,83,8|8,0:0|0:0,0:0:0:0:
204,15,22752,1,0,0:0:0:0:
228,114,22917,2,0,L|147:99,1,83,2|8,0:0|0:0,0:0:0:0:
357,23,23246,1,2,0:0:0:0:
357,23,23411,6,0,L|340:195,1,166,4|8,0:0|0:0,0:0:0:0:
271,256,23906,1,8,0:0:0:0:
400,355,24070,2,0,P|399:312|407:272,1,83,2|0,0:0|1:1,0:0:0:0:
406,272,24318,1,0,1:1:0:0:
406,272,24400,1,0,1:1:0:0:
475,169,24565,1,2,0:0:0:0:
318,123,24730,6,0,L|334:213,1,83,4|0,0:0|0:0,0:0:0:0:
483,149,25059,1,8,0:0:0:0:
377,42,25224,2,0,B|311:31|311:31|281:40|281:40|213:28,1,166,4|0,0:0|0:0,0:0:0:0:
126,82,25719,1,8,0:0:0:0:
224,212,25884,1,0,0:0:0:0:
224,212,25966,1,0,0:0:0:0:
224,212,26048,6,0,P|232:170|224:130,1,83,4|0,0:0|0:0,0:0:0:0:
113,106,26378,1,8,3:3:0:0:
150,314,26543,2,0,L|316:291,1,166,4|2,0:0|0:0,0:0:0:0:
375,218,27037,1,8,0:0:0:0:
375,218,27367,6,0,P|366:177|372:136,1,83,4|0,0:0|0:0,0:0:0:0:
460,86,27862,1,2,0:0:0:0:
460,86,28026,2,0,P|468:126|462:167,1,83,8|0,0:0|0:0,0:0:0:0:
288,265,28686,6,0,L|245:255,1,41.5,2|8,0:0|0:0,0:0:0:0:
160,236,29015,1,2,0:0:0:0:
215,117,29180,2,0,P|221:136|224:157,1,41.5,2|8,0:0|0:0,0:0:0:0:
40,181,29510,1,8,3:0:0:0:
179,244,29675,1,8,3:0:0:0:
101,112,29840,1,8,3:0:0:0:
127,327,30004,6,0,P|206:339|269:284,1,166,4|0,0:0|0:0,0:0:0:0:
395,177,30499,2,0,B|334:166|334:166|292:174|292:174|231:160,1,166,4|0,0:0|0:0,0:0:0:0:
47,83,30993,6,0,L|170:66,1,124.5,4|0,0:0|0:0,0:0:0:0:
205,60,31323,1,4,0:0:0:0:
256,192,31406,12,8,32312,0:0:0:0:
227,125,32642,5,2,0:0:0:0:
97,47,32807,1,0,0:0:0:0:
177,214,32971,2,0,P|273:215|327:136,1,199.199993920899,12|2,0:0|0:0,0:0:0:0:
207,27,33466,2,0,L|227:127,1,99.5999969604493,2|8,0:0|0:0,0:0:0:0:
186,322,33796,1,0,0:0:0:0:
319,217,33960,6,0,B|397:239|397:239|424:267|424:267|508:290,1,199.199993920899,2|8,0:0|0:0,0:0:0:0:
480,188,34455,1,0,0:0:0:0:
266,117,34620,2,0,P|216:201|240:295,1,199.199993920899,2|8,0:0|0:0,0:0:0:0:
320,217,35114,1,0,0:0:0:0:
383,130,35280,6,0,L|366:29,1,99.5999969604493,2|0,0:0|0:0,0:0:0:0:
498,147,35609,2,0,L|480:254,1,99.5999969604493,8|0,0:0|0:0,0:0:0:0:
320,217,35939,1,2,0:0:0:0:
363,341,36103,1,2,0:0:0:0:
393,150,36269,1,8,0:0:0:0:
230,247,36433,6,0,P|134:256|71:183,1,199.199993920899
175,2,36928,2,0,P|200:70|180:141,1,149.399995440674,8|0,0:0|0:0,0:0:0:0:
159,170,37257,5,6,0:0:0:0:
304,103,37422,1,2,0:0:0:0:
100,74,37587,1,12,0:0:0:0:
329,108,37752,1,2,0:0:0:0:
195,281,37917,6,0,L|92:259,1,99.5999969604493,4|0,0:0|0:0,0:0:0:0:
18,314,38247,1,8,0:0:0:0:
166,172,38411,1,0,0:0:0:0:
15,83,38576,2,0,P|32:132|34:182,1,99.5999969604493,2|2,0:0|0:0,0:0:0:0:
8,331,38906,1,8,0:0:0:0:
146,262,39070,1,0,0:0:0:0:
112,368,39236,6,0,L|223:350,1,99.5999969604493,2|0,0:0|0:0,0:0:0:0:
376,268,39565,2,0,L|275:248,1,99.5999969604493,8|0,0:0|0:0,0:0:0:0:
183,178,39895,1,2,0:0:0:0:
279,92,40059,1,2,0:0:0:0:
99,20,40224,2,0,P|115:68|112:117,1,99.5999969604493
39,184,40554,5,2,0:0:0:0:
214,175,40719,1,2,0:0:0:0:
26,85,40884,1,8,0:0:0:0:
240,184,41048,1,0,0:0:0:0:
113,292,41213,2,0,L|128:193,1,99.5999969604493,2|8,0:0|0:0,0:0:0:0:
142,94,41543,1,2,0:0:0:0:
16,343,41708,6,0,P|107:315|183:374,1,199.199993920899,6|2,0:0|0:0,0:0:0:0:
332,284,42202,2,0,L|229:268,1,99.5999969604493,12|0,0:0|0:0,0:0:0:0:
151,191,42532,5,12,0:0:0:0:
143,183,42614,1,0,0:0:0:0:
131,171,42697,2,0,L|117:113,1,49.7999984802247,0|0,1:1|1:1,0:0:0:0:
198,38,42862,2,0,L|212:96,1,49.7999984802247,8|0,0:0|1:1,0:0:0:0:
321,146,43026,2,0,L|307:88,1,49.7999984802247,0|0,1:1|1:1,0:0:0:0:
377,29,43192,5,4,0:0:0:0:
341,239,43357,1,8,0:0:0:0:
498,161,43521,2,0,P|447:153|402:129,1,99.5999969604493,0|8,1:1|0:0,0:0:0:0:
238,74,43851,1,0,1:1:0:0:
191,259,44015,1,8,0:0:0:0:
88,103,44180,2,0,L|112:200,1,99.5999969604493,0|8,1:1|0:0,0:0:0:0:
257,325,44510,6,0,B|358:308|344:374|457:349,1,199.199993920899,4|0,0:0|1:1,0:0:0:0:
478,252,45004,1,8,0:0:0:0:
372,127,45169,2,0,P|368:176|376:226,1,99.5999969604493,0|8,1:1|0:0,0:0:0:0:
490,134,45499,2,0,P|494:85|486:35,1,99.5999969604493,0|8,1:1|0:0,0:0:0:0:
257,97,45829,6,0,P|160:99|91:30,1,199.199993920899,0|0,1:1|1:1,0:0:0:0:
339,28,46324,1,8,0:0:0:0:
375,210,46488,2,0,L|396:109,1,99.5999969604493,0|8,1:1|0:0,0:0:0:0:
339,28,46818,1,0,1:1:0:0:
270,262,46982,6,0,P|366:250|443:310,1,199.199993920899,8|8,0:0|0:0,0:0:0:0:
184,340,47477,2,0,L|159:237,1,99.5999969604493,0|8,1:1|0:0,0:0:0:0:
221,149,47807,1,8,3:3:0:0:
70,71,47971,1,0,3:3:0:0:
70,71,48054,1,0,0:0:0:0:
70,71,48136,2,0,L|56:224,1,149.399995440674,4|0,0:0|0:0,0:0:0:0:
56,250,48466,5,8,0:0:0:0:
213,203,48631,1,8,0:0:0:0:
176,360,48796,1,12,0:0:0:0:
114,148,49291,5,8,0:0:0:0:
298,80,49455,1,8,0:0:0:0:
270,280,49620,1,12,0:0:0:0:
270,280,50114,5,0,0:0:0:0:
361,241,50444,1,0,0:0:0:0:
347,338,50774,1,0,0:0:0:0:
246,57,51103,6,0,B|378:58|330:160|476:157,1,249,4|2,0:0|0:0,0:0:0:0:
443,60,51763,1,8,0:0:0:0:
267,147,51928,2,0,L|288:233,1,83,2|0,0:0|0:0,0:0:0:0:
416,368,52258,1,0,0:0:0:0:
416,368,52422,6,0,P|415:288|439:198,1,166,4|0,0:0|0:0,0:0:0:0:
365,127,52917,1,0,0:0:0:0:
229,255,53081,2,0,B|166:243|166:243|128:249|128:249|64:234,1,166,8|4,0:0|3:3,0:0:0:0:
120,159,53576,1,0,0:0:0:0:
165,331,53741,5,10,0:0:0:0:
229,255,54070,1,2,0:0:0:0:
259,349,54400,1,2,0:0:0:0:
203,152,54729,1,2,0:0:0:0:
203,152,54894,1,2,0:0:0:0:
389,96,55059,5,2,0:0:0:0:
389,96,55224,2,0,L|226:64,1,166,2|2,0:0|0:0,0:0:0:0:
57,35,55883,1,2,0:0:0:0:
36,130,56048,1,2,0:0:0:0:
126,101,56213,1,2,0:0:0:0:
112,321,56543,6,0,L|98:238,1,83,0|2,0:0|0:0,0:0:0:0:
256,42,57037,2,0,L|256:126,1,83,0|2,0:0|0:0,0:0:0:0:
400,321,57532,2,0,L|414:238,1,83,0|2,0:0|0:0,0:0:0:0:
255,24,58026,5,2,0:0:0:0:
255,24,58227,1,2,0:0:0:0:
256,348,58521,5,0,1:1:0:0:
136,142,58686,1,0,1:1:0:0:
375,145,58851,1,4,1:2:0:0:
