osu file format v14

[General]
AudioFilename: audio.mp3
AudioLeadIn: 0
PreviewTime: 32559
Countdown: 0
SampleSet: Soft
StackLeniency: 0.2
Mode: 0
LetterboxInBreaks: 0
WidescreenStoryboard: 1

[Editor]
Bookmarks: 6880
DistanceSpacing: 0.9
BeatDivisor: 4
GridSize: 16
TimelineZoom: 1

[Metadata]
Title:Dame wa Dame (TV Size)
TitleUnicode:ダメハダメ (TV Size)
Artist:Suzuki Minori
ArtistUnicode:鈴木みのり
Creator:Agatsu
Version:Akito's Insane
Source:手品先輩
Tags:-akito akito newton- tejina magical senpai ed ending japanese anime
BeatmapID:2125384
BeatmapSetID:1015507

[Difficulty]
HPDrainRate:6
CircleSize:4
OverallDifficulty:8
ApproachRate:9
SliderMultiplier:1.8
SliderTickRate:1

[Events]
//Background and Video events
0,0,"cropped-1920-1080-1027653.jpg",0,0
//Break Periods
//Storyboard Layer 0 (Background)
//Storyboard Layer 1 (Fail)
//Storyboard Layer 2 (Pass)
//Storyboard Layer 3 (Foreground)
//Storyboard Layer 4 (Overlay)
//Storyboard Sound Samples

[TimingPoints]
-303,329.67032967033,4,2,1,80,1,0
3642,329.67032967033,4,2,1,70,1,0
6279,-100,4,2,1,50,0,0
16828,-100,4,2,1,55,0,0
20774,329.67032967033,4,2,1,55,1,0
24730,-100,4,2,1,70,0,0
27367,-100,4,2,1,55,0,0
30004,-100,4,2,1,70,0,0
32642,-83.3333333333333,4,2,1,80,0,0
43191,-83.3333333333333,4,2,1,80,0,0
49620,-100,4,2,1,80,0,0
49702,-100,4,2,1,70,0,0
53741,-200,4,2,1,50,0,0
58026,402.684563758389,4,2,1,50,1,0
58227,294.117647058824,4,2,1,50,1,0
58521,329.67032967033,4,2,1,60,1,0

[Colours]
Combo1 : 220,213,118
Combo2 : 118,147,182
Combo3 : 249,134,134

[HitObjects]
169,138,521,5,8,0:2:0:0:
290,194,685,1,8,0:2:0:0:
351,135,850,1,8,0:2:0:0:
137,224,1015,6,0,P|128:268|134:312,1,90,6|0,3:2|0:2,0:2:0:0:
201,156,1345,2,0,P|209:111|203:67,1,90,10|0,0:2|0:2,0:2:0:0:
231,249,1675,2,0,B|292:222|292:222|417:250,1,180,2|10,3:2|0:2,0:2:0:0:
489,268,2169,1,0,0:2:0:0:
386,273,2334,5,2,3:2:0:0:
434,160,2499,2,0,P|440:115|429:72,1,90,2|12,0:2|0:2,0:2:0:0:
289,192,2828,2,0,B|178:198|238:136|117:142,1,180,2|0,0:2|0:2,0:2:0:0:
143,316,3323,2,0,B|128:278|128:278|143:232,1,90,8|0,0:2|0:2,0:2:0:0:
271,103,3642,6,0,L|408:122,1,135,4|0,3:2|0:2,0:2:0:0:
433,126,3971,1,8,0:2:0:0:
504,250,4136,2,0,P|450:240|368:278,1,135,4|0,3:2|0:2,0:2:0:0:
357,294,4466,1,0,3:2:0:0:
213,174,4631,1,12,0:2:0:0:
216,186,4960,1,12,0:2:0:0:
256,192,5043,12,2,5949,0:2:0:0:
139,87,6279,6,0,B|112:127|112:127|118:172,1,90,6|0,3:2|0:2,0:2:0:0:
177,274,6609,2,0,B|204:234|204:234|198:189,1,90,8|0,0:2|0:2,0:2:0:0:
52,224,6938,1,0,3:2:0:0:
95,294,7103,1,2,0:2:0:0:
45,245,7268,1,10,0:2:0:0:
88,315,7433,1,2,0:2:0:0:
199,193,7598,6,0,P|240:208|285:209,1,90,2|0,3:2|0:2,0:2:0:0:
347,288,7927,2,0,P|302:288|260:304,1,90,10|0,0:2|0:2,0:2:0:0:
376,207,8257,1,2,3:2:0:0:
411,347,8422,1,0,0:2:0:0:
459,234,8587,2,0,B|467:189|467:189|443:151,1,90,10|0,0:2|0:2,0:2:0:0:
282,113,8916,6,0,P|367:99|421:26,2,180,2|10|2,3:2|0:2|3:2,0:2:0:0:
210,63,9740,1,2,0:2:0:0:
127,175,9905,2,0,P|163:150|208:149,1,90,8|2,0:2|0:2,0:2:0:0:
309,227,10235,6,0,B|207:209|241:282|135:259,1,180,0|8,3:2|0:2,0:2:0:0:
278,308,10729,1,2,0:2:0:0:
404,250,10894,2,0,P|389:208|389:164,1,90,2|2,3:2|0:2,0:2:0:0:
303,133,11224,2,0,P|318:90|318:46,1,90,10|2,0:2|0:2,0:2:0:0:
491,83,11554,6,0,B|450:68|450:68|404:79,1,90,2|0,3:2|0:2,0:2:0:0:
275,145,11883,2,0,B|234:159|234:159|188:148,1,90,8|0,0:2|0:2,0:2:0:0:
143,26,12213,1,0,3:2:0:0:
117,102,12378,1,2,0:2:0:0:
126,26,12543,1,10,0:2:0:0:
100,102,12707,1,2,0:2:0:0:
185,180,12872,6,0,P|140:180|98:195,1,90,2|0,3:2|0:2,0:2:0:0:
184,263,13202,2,0,P|226:278|270:278,1,90,10|0,0:2|0:2,0:2:0:0:
392,155,13532,2,0,P|349:226|404:303,1,180,2|10,3:2|0:2,0:2:0:0:
457,235,14026,1,0,0:2:0:0:
474,341,14191,6,0,B|358:315|420:383|291:354,1,180,2|10,3:2|0:2,0:2:0:0:
71,292,14850,1,2,3:2:0:0:
86,370,15015,1,2,0:2:0:0:
56,300,15180,2,0,P|56:255|71:213,1,90,8|2,0:2|0:2,0:2:0:0:
140,103,15510,6,0,P|155:145|154:189,1,90,2|0,3:2|0:2,0:2:0:0:
80,51,15839,2,0,L|223:73,1,135,10|0,0:2|0:2,0:2:0:0:
247,78,16169,1,2,3:2:0:0:
310,225,16334,1,8,0:2:0:0:
310,225,16416,1,8,0:2:0:0:
310,225,16499,2,0,B|264:215|264:215|226:237,1,90,10|8,0:2|0:2,0:2:0:0:
39,256,16828,6,0,B|168:255|61:324|228:320,1,180,6|8,3:2|0:2,0:2:0:0:
279,306,17323,1,2,3:2:0:0:
388,374,17488,2,0,P|362:289|386:203,1,180,2|8,0:2|0:2,0:2:0:0:
445,139,17982,1,2,3:2:0:0:
453,259,18147,5,6,3:2:0:0:
356,118,18312,1,2,0:2:0:0:
414,52,18477,1,8,0:2:0:0:
365,228,18642,2,0,B|314:268|314:268|186:242,1,180,10|0,0:2|3:2,0:2:0:0:
116,225,19136,1,10,0:2:0:0:
86,240,19466,6,0,B|118:138|45:173|96:54,1,180,2|8,3:2|0:2,0:2:0:0:
168,29,19960,1,10,0:2:0:0:
253,130,20125,2,0,P|204:119|157:124,1,90,2|0,0:2|3:2,0:2:0:0:
261,211,20455,1,8,0:2:0:0:
330,164,20620,1,2,0:2:0:0:
439,285,20774,6,0,B|397:231|397:231|427:105,1,180,6|8,3:2|0:2,0:2:0:0:
442,30,21268,2,0,B|345:12|366:83|272:71,1,180,10|0,0:2|3:2,0:2:0:0:
198,46,21763,1,8,0:2:0:0:
187,68,22092,6,0,P|201:113|199:166,1,90,2|0,3:2|0:2,0:2:0:0:
129,223,22422,1,10,0:2:0:0:
50,177,22587,1,10,0:2:0:0:
40,366,22752,1,2,0:2:0:0:
106,313,22916,2,0,P|151:299|204:301,1,90,2|8,3:2|0:2,0:2:0:0:
259,353,23246,1,2,0:2:0:0:
353,182,23411,6,0,P|329:249|362:359,1,180,6|10,3:2|0:2,0:2:0:0:
420,311,23905,1,8,0:2:0:0:
287,241,24070,1,2,3:2:0:0:
438,167,24235,1,8,0:2:0:0:
438,167,24317,1,8,0:2:0:0:
442,171,24400,1,10,0:2:0:0:
165,362,24730,6,0,B|207:308|207:308|177:182,1,180,6|10,3:2|0:2,0:2:0:0:
31,172,25224,2,0,B|137:170|80:113|222:108,1,180,6|0,3:2|3:2,0:2:0:0:
242,170,25719,1,10,0:2:0:0:
442,111,25883,1,10,0:2:0:0:
442,111,25966,1,8,0:2:0:0:
442,111,26048,6,0,P|354:124|276:82,1,180,6|8,3:2|3:0,0:2:0:0:
160,45,26543,2,0,B|196:157|129:109|170:233,1,180,4|0,3:2|3:2,0:2:0:0:
222,291,27037,1,8,0:2:0:0:
233,303,27367,6,0,P|303:268|414:276,1,180,6|2,3:2|0:2,0:2:0:0:
450,333,27861,1,0,3:2:0:0:
483,163,28026,2,0,P|493:229|489:272,1,90,10|0,0:2|0:2,0:2:0:0:
404,90,28356,2,0,P|394:156|398:199,1,90,2|0,0:2|3:2,0:2:0:0:
460,28,28686,6,0,B|423:2|423:2|358:14,1,90,2|8,3:2|0:2,0:2:0:0:
317,76,29015,1,2,3:2:0:0:
239,32,29180,1,2,3:2:0:0:
124,113,29345,2,0,P|118:68|96:29,1,90,8|2,3:0|0:2,0:2:0:0:
65,180,29675,1,4,3:0:0:0:
208,142,29839,1,2,0:2:0:0:
141,264,30004,6,0,B|236:275|207:208|314:217,1,180,6|8,3:2|0:2,0:2:0:0:
433,310,30499,2,0,P|392:234|443:166,1,180,6|0,3:2|0:2,0:2:0:0:
467,54,30993,2,0,B|429:74|429:74|383:66,1,90,6|0,3:2|0:2,0:2:0:0:
256,36,31323,1,6,3:2:0:0:
256,348,31982,5,8,0:2:0:0:
227,363,32065,1,8,0:2:0:0:
193,361,32147,1,8,0:2:0:0:
166,342,32229,1,8,0:2:0:0:
151,312,32312,1,8,0:2:0:0:
153,279,32394,1,8,0:2:0:0:
172,251,32476,1,8,0:2:0:0:
202,237,32559,1,8,0:2:0:0:
236,240,32642,6,0,P|296:236|339:209,1,107.999996704102,2|2,3:2|0:2,0:2:0:0:
499,302,32971,2,0,B|468:256|405:266|405:266|435:215|406:158,1,215.999993408203,14|0,0:2|3:2,0:2:0:0:
332,313,33466,1,2,0:2:0:0:
268,149,33631,1,10,0:2:0:0:
173,305,33795,6,0,P|185:199|130:109,1,215.999993408203,2|0,0:2|0:2,0:2:0:0:
0,44,34290,2,0,B|54:55|54:55|96:23,1,107.999996704102,10|0,0:2|0:2,0:2:0:0:
285,24,34620,2,0,B|231:13|231:13|189:45,1,107.999996704102,2|0,3:2|0:2,0:2:0:0:
43,139,34949,1,10,0:2:0:0:
25,153,35279,6,0,P|39:217|36:263,1,107.999996704102,2|2,3:2|0:2,0:2:0:0:
124,361,35609,2,0,P|122:308|140:252,1,107.999996704102,10|2,0:2|0:2,0:2:0:0:
273,278,35938,1,2,3:2:0:0:
216,216,36103,1,2,0:2:0:0:
208,340,36268,1,10,0:2:0:0:
378,184,36433,6,0,B|252:196|317:111|162:131,1,215.999993408203,2|2,0:2|0:2,0:2:0:0:
1,183,36927,2,0,P|48:158|74:112,1,107.999996704102,10|0,0:2|0:2,0:2:0:0:
212,254,37257,2,0,P|167:225|113:225,1,107.999996704102,0|0,3:2|0:2,0:2:0:0:
163,39,37587,1,8,0:2:0:0:
176,54,37916,6,0,P|223:78|277:79,1,107.999996704102,6|2,3:2|0:2,0:2:0:0:
459,190,38246,2,0,B|395:144|395:144|261:178,1,215.999993408203,10|0,0:2|3:2,0:2:0:0:
367,318,38741,1,2,0:2:0:0:
379,236,38905,1,10,0:2:0:0:
187,323,39070,6,0,B|224:190|147:256|189:112,1,215.999993408203,2|0,0:2|0:2,0:2:0:0:
75,24,39565,2,0,P|96:83|89:134,1,107.999996704102,10|0,0:2|0:2,0:2:0:0:
50,305,39894,2,0,P|29:246|36:195,1,107.999996704102,2|0,3:2|0:2,0:2:0:0:
190,131,40224,1,10,0:2:0:0:
194,150,40554,6,0,P|284:204|387:184,1,215.999993408203,2|10,3:2|0:2,0:2:0:0:
461,133,41048,1,2,0:2:0:0:
320,4,41213,2,0,P|337:54|338:108,1,107.999996704102,2|10,3:2|0:2,0:2:0:0:
477,212,41543,2,0,P|459:262|458:316,1,107.999996704102,0|2,0:2|3:2,0:2:0:0:
305,287,41872,6,0,B|193:247|215:347|89:340,1,215.999993408203,8|12,3:2|0:2,0:2:0:0:
39,306,42367,1,0,3:2:0:0:
134,245,42532,1,12,0:2:0:0:
47,183,42697,1,0,3:2:0:0:
50,156,42779,1,0,3:2:0:0:
54,129,42861,1,12,0:2:0:0:
130,18,43026,1,0,3:2:0:0:
133,45,43109,1,0,3:2:0:0:
137,72,43191,6,0,P|197:68|240:41,1,107.999996704102,6|10,3:2|0:2,0:2:0:0:
308,183,43521,2,0,P|261:156|207:154,1,107.999996704102,2|8,3:2|0:2,0:2:0:0:
122,193,43850,1,0,3:2:0:0:
238,239,44015,1,10,0:2:0:0:
97,334,44180,2,0,B|140:303|140:303|193:317,1,107.999996704102,2|10,3:2|0:2,0:2:0:0:
365,329,44510,6,0,P|338:225|369:123,1,215.999993408203,0|2,3:2|3:2,0:2:0:0:
438,66,45004,1,8,0:2:0:0:
285,89,45169,2,0,P|236:67|182:69,1,107.999996704102,2|8,3:2|0:2,0:2:0:0:
114,175,45499,2,0,P|167:177|216:155,1,107.999996704102,2|8,3:2|0:2,0:2:0:0:
181,292,45828,6,0,B|112:243|39:288|39:288|64:316|104:303,1,215.999993408203,2|2,3:2|3:2,0:2:0:0:
256,244,46323,1,8,0:2:0:0:
265,334,46488,1,2,3:2:0:0:
423,270,46653,1,10,0:2:0:0:
339,280,46817,1,2,3:2:0:0:
501,326,46982,6,0,B|538:193|463:250|503:115,1,215.999993408203,10|10,0:2|0:2,0:2:0:0:
385,30,47477,2,0,P|402:80|403:134,1,107.999996704102,2|8,3:2|0:2,0:2:0:0:
296,201,47806,2,0,P|296:147|313:96,1,107.999996704102,8|8,0:2|0:2,0:2:0:0:
242,45,48136,1,8,0:2:0:0:
226,58,48465,5,10,0:2:0:0:
77,32,48630,1,10,0:2:0:0:
142,102,48795,1,14,0:2:0:0:
261,52,49290,5,10,0:2:0:0:
45,15,49455,1,10,0:2:0:0:
139,116,49620,2,0,B|188:197|172:286|80:286|50:235|68:190|96:185|133:215,1,270,14|2,0:2|0:2,0:2:0:0:
205,335,50444,2,0,P|252:264|335:283,1,180,6|2,0:2|0:2,0:2:0:0:
356,307,51103,6,0,P|321:226|348:142,1,180,6|0,3:2|0:2,0:2:0:0:
422,189,51598,1,0,3:2:0:0:
371,54,51763,2,0,B|253:48|304:103|198:107,1,180,10|0,0:2|0:2,0:2:0:0:
35,36,52422,6,0,B|76:75|76:75|54:201,1,180,2|0,3:2|0:2,0:2:0:0:
35,282,52916,1,0,3:2:0:0:
144,214,53081,2,0,P|211:272|298:266,1,180,10|8,0:2|3:0,0:2:0:0:
431,189,53741,6,0,P|425:249|443:296,2,90,6|2|2,3:2|0:2|0:2,0:2:0:0:
495,136,54730,1,2,0:2:0:0:
487,128,54894,1,2,0:2:0:0:
447,48,55059,5,2,0:2:0:0:
455,40,55224,1,2,0:2:0:0:
342,172,55554,1,2,0:2:0:0:
324,154,55883,1,2,0:2:0:0:
239,163,56048,1,2,0:2:0:0:
154,172,56213,1,2,0:2:0:0:
154,172,58521,5,10,0:2:0:0:
255,311,58686,1,10,0:2:0:0:
324,154,58851,1,14,0:2:0:0:
