osu file format v14

[General]
AudioFilename: audio.mp3
AudioLeadIn: 0
PreviewTime: 54455
Countdown: 0
SampleSet: Soft
StackLeniency: 0.7
Mode: 0
LetterboxInBreaks: 0
WidescreenStoryboard: 1

[Editor]
Bookmarks: 153,3873,18757,35501,55966,70850,75269,84106,85734,88757
DistanceSpacing: 1.2
BeatDivisor: 4
GridSize: 8
TimelineZoom: 0.9999998

[Metadata]
Title:Love Dramatic feat. Rikka Ihara (TV Size)
TitleUnicode:ラブ・ドラマティック feat.伊原六花(TV Size)
Artist:Suzuki Masayuki
ArtistUnicode:鈴木雅之
Creator:[Mad]
Version:Normal
Source:かぐや様は告らせたい~天才たちの恋愛頭脳戦~
Tags:Kaguya-sama: Love is War Kaguya Wants to be Confessed To: The Geniuses' War of Love and Brains tv anime size
BeatmapID:1936958
BeatmapSetID:910113

[Difficulty]
HPDrainRate:3
CircleSize:3.5
OverallDifficulty:4
ApproachRate:5
SliderMultiplier:1
SliderTickRate:1

[Events]
//Background and Video events
Video,-220,"love is war.mp4"
0,0,"okawaii koto.jpg",0,0
//Break Periods
//Storyboard Layer 0 (Background)
//Storyboard Layer 1 (Fail)
//Storyboard Layer 2 (Pass)
//Storyboard Layer 3 (Foreground)
//Storyboard Sound Samples

[TimingPoints]
153,465.116279069767,4,2,1,70,1,0
153,-100,4,2,1,70,0,0
618,-100,4,2,1,40,0,0
2013,-100,4,2,1,70,0,0
2478,-100,4,2,1,30,0,0
2943,-100,4,2,1,30,0,0
3525,-100,4,2,1,30,0,0
3873,-100,4,2,1,50,0,0
14339,-100,4,2,1,60,0,0
18757,-100,4,2,1,40,0,0
19687,-100,4,2,1,60,0,0
20385,-100,4,2,1,60,0,0
21083,-100,4,2,1,40,0,0
28525,-100,4,2,1,45,0,0
30850,-100,4,2,1,45,0,0
35269,-100,4,2,1,30,0,0
42711,-100,4,2,1,40,0,0
44804,-100,4,2,1,40,0,0
46664,-100,4,2,1,40,0,0
50385,-100,4,2,1,60,0,0
54106,-100,4,2,1,70,0,1
54571,-100,4,2,1,50,0,0
55036,-100,4,2,1,50,0,0
55617,-100,4,2,1,50,0,0
55966,-100,4,2,1,70,0,1
61315,-100,4,2,1,70,0,1
62246,-100,4,2,1,70,0,1
62711,-100,4,2,1,70,0,0
63408,-100,4,2,1,70,0,1
69222,-100,4,2,1,70,0,1
70850,-100,4,2,1,70,0,0
81315,-100,4,2,1,70,0,0
85966,-100,4,2,1,50,0,0
87362,-100,4,2,1,50,0,0
88525,-100,4,2,1,70,0,0

[Colours]
Combo1 : 0,128,192
Combo2 : 255,128,128
Combo3 : 0,128,255
Combo4 : 255,0,0

[HitObjects]
299,108,153,5,6,0:0:0:0:
299,108,618,2,0,L|278:226,2,100,8|8|8,0:3|0:3|0:3,0:0:0:0:
205,182,2013,2,0,P|205:232|243:276,1,100,6|2,1:0|0:0,0:0:0:0:
461,337,3873,6,0,B|454:302|454:302|460:279|460:279|453:235,1,100,10|2,0:3|1:0,0:0:0:0:
389,137,4804,2,0,L|377:72,2,50,10|10|2,0:3|0:3|1:0,0:0:0:0:
372,194,5501,2,0,L|274:211,1,100,10|10,0:3|0:3,0:0:0:0:
225,175,6199,1,0,1:0:0:0:
106,190,6664,2,0,L|116:134,2,50,10|10|2,0:3|0:3|1:0,0:0:0:0:
146,235,7362,6,0,L|164:338,1,100,10|2,0:3|0:0,0:0:0:0:
108,357,8059,1,2,1:0:0:0:
51,376,8292,2,0,L|33:277,1,100,2|10,0:0|0:3,0:0:0:0:
19,219,8990,1,2,1:0:0:0:
5,160,9222,6,0,P|57:147|104:160,1,100,10|10,0:3|0:3,0:0:0:0:
202,222,10152,1,10,0:3:0:0:
308,168,10618,2,0,P|333:168|358:175,2,50,2|2|2,0:0|1:0|1:0,0:0:0:0:
258,138,11315,6,0,L|277:24,1,100,10|2,1:3|1:0,0:0:0:0:
327,70,12013,2,0,P|377:84|436:70,1,100,10|2,0:3|0:0,0:0:0:0:
462,29,12711,1,2,1:0:0:0:
501,73,12943,2,0,L|483:174,1,100,10|10,0:3|0:3,0:0:0:0:
363,178,13873,1,10,0:3:0:0:
289,272,14339,6,0,P|282:321|257:364,1,100,2|10,0:0|0:3,0:0:0:0:
138,378,15269,2,0,P|95:352|64:313,1,100,10|10,0:3|0:3,0:0:0:0:
60,193,16199,2,0,B|114:171|158:195|158:195|197:156|249:162,1,200,10|8,0:3|0:3,0:0:0:0:
281,112,17362,6,0,L|268:43,1,50,0|8,1:0|0:3,0:0:0:0:
220,32,17827,2,0,P|169:28|113:47,1,100,2|2,1:0|1:0,0:0:0:0:
66,147,18757,5,8,0:3:0:0:
166,213,19222,1,0,1:0:0:0:
91,306,19687,2,0,P|128:326|151:326,1,50,2|10,0:0|0:3,0:0:0:0:
245,278,20385,2,0,P|293:257|345:264,1,100,2|0,1:0|0:0,0:0:0:0:
390,293,21083,1,2,1:0:0:0:
475,209,21548,6,0,L|483:159,2,50,10|8|2,0:3|0:3|0:0,0:0:0:0:
470,269,22246,2,0,P|467:323|438:363,1,100,2|10,1:0|0:3,0:0:0:0:
382,367,22943,1,0,1:0:0:0:
341,253,23408,2,0,L|396:243,2,50,10|10|2,0:3|0:3|1:0,0:0:0:0:
280,248,24106,6,0,L|262:346,1,100,10|0,0:3|0:0,0:0:0:0:
202,346,24804,1,2,1:0:0:0:
142,344,25036,2,0,L|159:245,1,100,2|8,0:0|0:3,0:0:0:0:
219,245,25734,1,2,1:0:0:0:
280,248,25966,2,0,L|298:150,1,100,2|10,0:0|0:3,0:0:0:0:
176,147,26897,2,0,L|158:245,1,100,10|10,0:3|0:3,0:0:0:0:
9,346,28059,1,8,0:3:0:0:
40,230,28525,6,0,P|50:173|41:127,1,100,2|10,1:0|0:3,0:0:0:0:
83,92,29222,2,0,L|72:26,1,50,10|2,0:3|1:0,0:0:0:0:
128,14,29687,2,0,P|191:12|245:34,1,100,10|2,0:3|0:0,0:0:0:0:
267,66,30385,1,2,1:0:0:0:
294,182,30850,2,0,P|298:207|290:242,2,50,10|10|2,0:3|0:3|1:0,0:0:0:0:
240,154,31548,6,0,P|195:142|123:162,1,100,10|0,0:3|0:0,0:0:0:0:
143,211,32246,1,2,1:0:0:0:
143,271,32478,2,0,P|188:283|260:263,1,100,2|10,0:0|0:3,0:0:0:0:
239,213,33176,1,2,1:0:0:0:
240,154,33408,2,0,P|284:139|336:215,1,150,10|2,0:3|1:0,0:0:0:0:
322,270,34339,1,10,0:3:0:0:
413,347,34804,1,2,0:0:0:0:
437,229,35269,5,10,0:3:0:0:
373,127,35734,2,0,L|309:115,2,50,0|0|8,0:0|0:0|0:3,0:0:0:0:
415,84,36432,2,0,L|491:98,2,75,2|2|2,0:0|0:0|0:0,0:0:0:0:
387,30,37362,2,0,L|271:9,1,100,10|2,0:3|0:0,0:0:0:0:
246,55,38059,2,0,L|130:34,1,100,10|2,0:3|0:0,0:0:0:0:
105,149,38990,6,0,P|119:206|108:268,1,100,2|2,0:0|0:0,0:0:0:0:
157,290,39687,2,0,P|185:292|214:288,1,50,2|10,0:0|0:3,0:0:0:0:
240,240,40152,2,0,P|236:196|248:156,2,75,2|2|2,0:0|0:0|0:0,0:0:0:0:
297,256,41083,1,10,0:3:0:0:
355,270,41315,2,0,B|380:261|407:270|407:270|432:278|462:265,1,100,2|10,0:0|0:3,0:0:0:0:
375,40,42711,6,0,P|317:37|278:76,2,100,10|2|10,0:3|0:0|0:3,0:0:0:0:
325,149,44106,2,0,L|312:219,2,50,2|2|2,0:0|1:0|0:0,0:0:0:0:
265,138,44804,2,0,L|191:151,2,75,10|0|10,0:3|0:0|0:3,0:0:0:0:
39,54,46432,5,2,0:0:0:0:
96,37,46664,2,0,P|138:28|183:32,2,75,10|2|10,0:3|0:0|0:3,0:0:0:0:
93,97,47594,2,0,B|102:121|92:148|92:148|82:177|90:198,1,100,2|2,0:0|1:0,0:0:0:0:
167,285,48525,6,0,P|201:298|252:283,2,75,10|2|10,0:3|0:0|0:3,0:0:0:0:
176,225,49455,2,0,L|192:125,1,100,2|2,0:0|1:0,0:0:0:0:
305,87,50385,6,0,P|322:141|315:187,1,100,6|10,1:0|0:3,0:0:0:0:
354,229,51083,2,0,P|337:283|344:329,1,100,6|10,1:0|0:3,0:0:0:0:
290,354,51780,2,0,B|238:344|238:344|194:355|194:355|127:343,1,150,6|6,1:0|1:0,0:0:0:0:
256,208,53176,2,0,L|256:100,1,100,6|6,1:0|1:0,0:0:0:0:
136,114,54106,1,6,1:0:0:0:
136,174,54339,1,6,1:0:0:0:
136,174,55966,6,0,P|120:228|137:287,1,100,10|2,0:3|1:0,0:0:0:0:
235,324,56897,2,0,L|292:313,2,50,10|10|2,0:3|0:3|1:0,0:0:0:0:
236,264,57594,2,0,L|257:151,1,100,10|10,0:3|0:3,0:0:0:0:
269,107,58292,1,0,1:0:0:0:
444,67,58990,2,0,L|436:119,1,50,2|2,1:0|1:0,0:0:0:0:
400,164,59455,6,0,P|386:223|401:273,1,100,2|2,0:0|0:0,0:0:0:0:
431,307,60152,1,2,1:0:0:0:
395,355,60385,2,0,L|284:335,1,100,2|10,0:0|0:3,0:0:0:0:
236,330,61083,1,2,1:0:0:0:
237,270,61315,2,0,B|233:241|233:241|238:204|238:204|231:161,3,100,10|10|10|2,0:3|0:3|0:3|0:0,0:0:0:0:
136,99,63176,6,0,P|133:146|105:195,1,100,2|2,0:0|0:0,0:0:0:0:
63,230,63873,1,2,1:0:0:0:
145,318,64339,2,0,P|139:346|146:385,2,50,10|10|2,0:3|0:3|1:0,0:0:0:0:
152,258,65036,2,0,P|191:242|256:257,1,100,10|10,0:3|0:3,0:0:0:0:
286,296,65734,1,0,1:0:0:0:
420,175,66432,2,0,L|408:111,1,50,10|2,0:3|1:0,0:0:0:0:
380,74,66897,6,0,B|358:63|328:71|328:71|304:78|278:70,1,100,10|2,0:3|0:0,0:0:0:0:
240,27,67594,1,2,1:0:0:0:
197,69,67827,2,0,P|186:119|197:169,1,100,2|10,0:0|0:3,0:0:0:0:
237,278,68757,2,0,B|205:272|205:272|170:279|170:279|135:273,1,100,10|10,0:3|0:3,0:0:0:0:
80,260,69455,1,2,1:0:0:0:
46,210,69687,2,0,P|35:163|46:108,1,100,10|2,0:3|1:0,0:0:0:0:
96,82,70385,1,2,1:0:0:0:
188,157,70850,6,0,L|246:167,1,50,10|2,0:3|0:0,0:0:0:0:
286,130,71315,1,2,1:0:0:0:
331,91,71548,2,0,P|382:79|441:102,1,100,10|10,0:3|0:3,0:0:0:0:
463,140,72246,1,2,1:0:0:0:
427,188,72478,2,0,L|408:293,1,100,10|10,0:3|0:3,0:0:0:0:
294,321,73408,1,10,0:3:0:0:
234,330,73641,1,2,1:0:0:0:
174,338,73873,2,0,L|110:327,1,50,2|2,0:0|1:0,0:0:0:0:
88,281,74339,6,0,P|74:231|85:178,1,100,10|10,0:3|0:3,0:0:0:0:
113,133,75036,2,0,L|100:64,1,50,2|10,1:0|0:3,0:0:0:0:
207,21,75734,2,0,P|236:17|273:21,1,50,10|2,0:3|1:0,0:0:0:0:
272,75,76199,2,0,B|280:101|270:129|270:129|260:155|271:192,2,100,10|10|10,0:3|0:3|0:3,0:0:0:0:
350,165,77594,6,0,L|363:223,2,50,2|2|10,0:0|1:0|0:3,0:0:0:0:
371,108,78292,2,0,P|398:106|429:110,1,50,2|10,1:0|0:3,0:0:0:0:
460,153,78757,2,0,P|484:154|509:152,1,50,2|10,1:0|0:3,0:0:0:0:
462,262,79455,2,0,L|450:325,1,50,10|2,0:3|1:0,0:0:0:0:
395,326,79920,2,0,P|347:333|278:318,1,100,10|10,0:3|0:3,0:0:0:0:
180,295,80850,1,10,0:3:0:0:
120,283,81083,1,2,1:0:0:0:
62,268,81315,6,0,P|69:317|94:360,1,100,2|10,0:0|0:3,0:0:0:0:
213,374,82246,2,0,P|256:348|287:309,1,100,10|10,0:3|0:3,0:0:0:0:
291,189,83176,2,0,B|237:167|193:191|193:191|154:152|102:158,1,200,10|2,0:3|0:0,0:0:0:0:
44,170,84339,1,10,1:3:0:0:
8,121,84571,1,2,0:0:0:0:
110,58,85036,6,0,P|169:37|217:50,1,100,10|14,0:3|0:3,0:0:0:0:
288,129,85966,2,0,P|333:148|382:143,1,100,2|14,0:0|0:3,0:0:0:0:
472,63,86897,1,2,0:0:0:0:
416,40,87129,1,2,0:0:0:0:
256,192,87362,12,14,88757,0:3:0:0:
