osu file format v14

[General]
AudioFilename: audio.mp3
AudioLeadIn: 0
PreviewTime: 54455
Countdown: 0
SampleSet: Soft
StackLeniency: 0.2
Mode: 0
LetterboxInBreaks: 0
WidescreenStoryboard: 0

[Editor]
Bookmarks: 153,3873,12943,18757,35501,55966,70850,75269,84106,85734,88757
DistanceSpacing: 0.7
BeatDivisor: 4
GridSize: 8
TimelineZoom: 2.6

[Metadata]
Title:Love Dramatic feat. Rikka Ihara (TV Size)
TitleUnicode:ラブ・ドラマティック feat.伊原六花(TV Size)
Artist:Suzuki Masayuki
ArtistUnicode:鈴木雅之
Creator:[Mad]
Version:Love Is War
Source:かぐや様は告らせたい~天才たちの恋愛頭脳戦~
Tags:Kaguya-sama: Love is War Kaguya Wants to be Confessed To: The Geniuses' War of Love and Brains tv anime size
BeatmapID:1899240
BeatmapSetID:910113

[Difficulty]
HPDrainRate:5
CircleSize:4.5
OverallDifficulty:8.5
ApproachRate:8.5
SliderMultiplier:2
SliderTickRate:1

[Events]
//Background and Video events
Video,-220,"love is war.mp4"
0,0,"okawaii koto.jpg",0,0
//Break Periods
//Storyboard Layer 0 (Background)
//Storyboard Layer 1 (Fail)
//Storyboard Layer 2 (Pass)
//Storyboard Layer 3 (Foreground)
//Storyboard Sound Samples

[TimingPoints]
153,465.116279069767,4,2,1,70,1,0
153,-50,4,2,1,70,0,0
618,-200,4,2,1,40,0,0
2013,-50,4,2,1,70,0,0
2478,-200,4,2,1,30,0,0
2943,-133.333333333333,4,2,1,30,0,0
3525,-100,4,2,1,30,0,0
3873,-66.6666666666667,4,2,1,50,0,0
14339,-40,4,2,1,60,0,0
18757,-100,4,2,1,40,0,0
19687,-66.6666666666667,4,2,1,60,0,0
20385,-50,4,2,1,60,0,0
21083,-100,4,2,1,40,0,0
28525,-66.6666666666667,4,2,1,45,0,0
30850,-100,4,2,1,45,0,0
35269,-133.333333333333,4,2,1,30,0,0
42711,-100,4,2,1,40,0,0
44804,-80,4,2,1,40,0,0
46664,-66.6666666666667,4,2,1,40,0,0
50385,-40,4,2,1,60,0,0
54106,-33.3333333333333,4,2,1,70,0,1
54571,-100,4,2,1,50,0,0
55036,-66.6666666666667,4,2,1,50,0,0
55617,-50,4,2,1,50,0,0
55966,-50,4,2,1,70,0,1
61315,-33.3333333333333,4,2,1,70,0,1
62246,-25,4,2,1,70,0,1
62711,-200,4,2,1,70,0,0
63408,-50,4,2,1,70,0,1
69222,-40,4,2,1,70,0,1
70850,-50,4,2,1,70,0,0
81315,-33.3333333333333,4,2,1,70,0,0
85966,-50,4,2,1,50,0,0
87362,-57.1428571428571,4,2,1,50,0,0
88525,-33.3333333333333,4,2,1,70,0,0

[Colours]
Combo1 : 0,128,192
Combo2 : 255,128,128
Combo3 : 0,128,255
Combo4 : 255,0,0

[HitObjects]
105,59,153,6,0,B|55:157|81:280|184:267|240:244,1,300,6|0,0:0|0:0,0:0:0:0:
280,305,618,6,0,L|336:289,1,50,8|0,0:3|0:0,0:0:0:0:
404,181,967,1,0,0:0:0:0:
404,181,1084,2,0,L|364:169,2,25,8|0|0,0:3|0:0|0:0,0:0:0:0:
286,290,1549,2,0,L|342:274,1,50,8|0,0:3|0:0,0:0:0:0:
511,176,1898,1,0,0:0:0:0:
510,106,2014,6,0,B|427:163|536:280|444:350|355:335,1,300,6|0,1:0|0:0,0:0:0:0:
214,343,2479,6,0,P|204:310|212:258,1,75,2|0,0:0|0:0,0:0:0:0:
298,343,2944,6,0,P|308:310|300:258,1,75,2|8,0:0|0:3,0:0:0:0:
256,40,3409,1,2,1:2:0:0:
256,112,3525,6,0,L|255:223,1,100,8|0,0:3|0:0,0:0:0:0:
97,363,3874,6,0,L|81:276,1,75.0000028610231,10|0,0:3|0:0,0:0:0:0:
93,276,4107,2,0,L|106:349,1,75.0000028610231,2|0,0:0|0:0,0:0:0:0:
12,250,4339,2,0,P|4:194|59:90,1,150.000005722046,2|0,1:0|0:0,0:0:0:0:
165,215,4688,1,8,0:3:0:0:
168,291,4804,2,0,P|196:322|223:371,1,75.0000028610231,10|0,0:3|0:0,0:0:0:0:
134,123,5037,2,0,P|170:110|226:113,1,75.0000028610231,10|0,0:3|0:0,0:0:0:0:
100,259,5270,2,0,P|87:223|105:172,1,75.0000028610231,2|0,1:0|0:0,0:0:0:0:
277,273,5502,6,0,B|356:312|423:238|503:269,1,225.000008583069,10|0,0:3|0:0,0:0:0:0:
500,250,5967,2,0,P|508:194|480:121,1,75.0000028610231,10|0,0:3|0:0,0:0:0:0:
344,291,6200,2,0,P|316:322|289:371,1,75.0000028610231,0|0,1:0|0:0,0:0:0:0:
256,160,6432,1,2,0:0:0:0:
329,179,6549,1,10,0:3:0:0:
378,123,6665,2,0,P|342:110|286:113,1,75.0000028610231,10|0,0:3|0:0,0:0:0:0:
412,259,6898,2,0,P|425:223|407:172,1,75.0000028610231,10|0,0:3|0:0,0:0:0:0:
256,248,7130,2,0,L|256:323,1,75.0000028610231,2|0,1:0|0:0,0:0:0:0:
33,199,7363,6,0,L|222:164,1,150.000005722046,10|0,0:3|0:0,0:0:0:0:
193,181,7828,2,0,L|287:164,1,75.0000028610231,2|0,0:0|0:0,0:0:0:0:
161,331,8060,2,0,L|255:314,1,75.0000028610231,2|0,1:0|0:0,0:0:0:0:
278,246,8293,1,2,0:0:0:0:
278,246,8409,1,8,0:3:0:0:
278,246,8525,2,0,L|369:229,1,75.0000028610231,8|0,0:3|0:0,0:0:0:0:
308,99,8758,2,0,L|399:82,1,75.0000028610231,10|0,0:3|0:0,0:0:0:0:
380,303,8991,2,0,L|471:286,1,75.0000028610231,2|0,1:0|0:0,0:0:0:0:
479,199,9223,6,0,L|289:164,1,150.000005722046,10|0,0:3|0:0,0:0:0:0:
319,181,9688,2,0,L|224:164,1,75.0000028610231,10|0,0:3|0:0,0:0:0:0:
382,271,9921,2,0,L|287:254,1,75.0000028610231,2|0,1:0|0:0,0:0:0:0:
273,95,10153,2,0,L|43:53,1,225.000008583069,10|0,0:3|0:0,0:0:0:0:
235,246,10618,2,0,L|143:229,1,75.0000028610231,2|0,0:0|0:0,0:0:0:0:
256,0,10851,5,2,1:0:0:0:
256,72,10967,1,0,1:0:0:0:
256,145,11084,1,2,1:0:0:0:
256,218,11200,1,0,1:0:0:0:
256,292,11316,6,0,L|256:372,1,75.0000028610231,10|0,1:3|0:0,0:0:0:0:
80,272,11549,2,0,L|96:182,1,75.0000028610231,10|0,0:3|0:0,0:0:0:0:
93,115,11781,2,0,L|108:205,1,75.0000028610231,2|0,1:0|0:0,0:0:0:0:
164,341,12014,2,0,B|148:277|214:180|160:97,1,225.000008583069,10|0,0:3|0:0,0:0:0:0:
431,272,12479,2,0,L|415:182,1,75.0000028610231,2|0,0:0|0:0,0:0:0:0:
419,115,12711,2,0,L|405:188,1,75.0000028610231,2|0,1:0|0:0,0:0:0:0:
348,341,12944,6,0,B|364:277|298:180|352:97,1,225.000008583069,10|0,0:3|0:0,0:0:0:0:
423,191,13409,2,0,B|355:240|312:249|261:231,1,150.000005722046,10|0,0:3|1:0,0:0:0:0:
67,150,13874,2,0,P|101:139|153:137,1,75.0000028610231,10|0,0:3|0:0,0:0:0:0:
254,321,14107,2,0,P|217:318|182:307,1,75.0000028610231,10|0,0:3|0:0,0:0:0:0:
400,282,14339,6,0,P|451:246|487:196,1,125,2|0,0:0|0:0,0:0:0:0:
267,158,14572,2,0,P|274:194|349:291,1,125,2|0,1:0|0:0,0:0:0:0:
509,120,14804,2,0,B|451:77|388:114|388:114|341:57|280:79,1,250,10|0,0:3|1:0,0:0:0:0:
127,384,15270,6,0,P|75:348|39:298,1,125,10|0,0:3|0:0,0:0:0:0:
260,259,15502,2,0,P|252:295|177:392,1,125,2|0,1:0|0:0,0:0:0:0:
18,221,15735,2,0,B|75:178|138:215|138:215|185:158|246:180,1,250,10|0,0:3|1:0,0:0:0:0:
364,334,16200,6,0,P|405:276|438:164,1,125,10|0,0:3|0:0,0:0:0:0:
86,226,16432,2,0,P|111:283|148:334,1,125,2|0,1:0|0:0,0:0:0:0:
424,80,16665,2,0,B|344:24|256:107|256:107|168:24|88:80,1,375,10|0,0:3|0:0,0:0:0:0:
64,152,17130,5,8,0:3:0:0:
256,368,17363,1,0,1:0:0:0:
296,304,17479,1,0,1:0:0:0:
216,304,17595,1,8,0:3:0:0:
448,152,17828,6,0,B|355:135|326:250|192:216,1,250,2|8,1:0|0:3,0:0:0:0:
160,17,18293,2,0,B|281:-5|409:68|347:261|218:233|142:156,1,375,2|0,1:0|0:0,0:0:0:0:
142,106,18758,6,0,P|218:111|268:134,1,100,8|0,0:3|0:0,0:0:0:0:
256,344,19223,1,0,1:0:0:0:
467,244,19572,1,0,1:0:0:0:
424,176,19688,6,0,P|400:205|381:238,1,75.0000028610231,2|0,0:0|0:0,0:0:0:0:
87,176,19921,2,0,P|111:205|157:313,1,150.000005722046,10|0,0:3|0:0,0:0:0:0:
56,96,20386,6,0,B|192:56|312:56|456:104,1,400,2|0,1:0|0:0,0:0:0:0:
210,167,21084,6,8,P|216:237|227:266,1,100,2|0,1:0|0:0,0:0:0:0:
374,341,21432,1,8,0:3:0:0:
377,268,21549,2,8,P|379:235|398:194,1,50,10|0,0:3|0:0,0:0:0:0:
471,130,21781,2,8,P|469:163|389:218,1,100,8|2,0:3|0:0,0:0:0:0:
415,198,22246,6,0,P|357:181|266:181,1,150,2|0,1:0|0:0,0:0:0:0:
209,222,22711,1,10,0:3:0:0:
402,113,22944,2,0,P|342:101|273:105,1,100,0|0,1:0|0:0,0:0:0:0:
160,80,23293,1,8,0:3:0:0:
96,112,23409,6,0,L|86:185,1,50,10|0,0:3|0:0,0:0:0:0:
114,236,23642,2,0,L|104:163,1,50,10|0,0:3|0:0,0:0:0:0:
89,53,23874,2,0,L|79:126,1,50,2|0,1:0|0:0,0:0:0:0:
263,146,24107,6,0,L|285:302,1,150,10|0,0:3|0:0,0:0:0:0:
345,154,24572,2,0,L|351:203,1,50,0|0,0:0|0:0,0:0:0:0:
214,358,24804,2,0,L|204:285,1,50,2|0,1:0|0:0,0:0:0:0:
263,146,25037,6,0,L|285:302,1,150,2|0,0:0|0:0,0:0:0:0:
345,154,25502,2,0,L|351:203,1,50,8|0,0:3|0:0,0:0:0:0:
214,358,25735,2,0,L|204:285,1,50,2|0,1:0|0:0,0:0:0:0:
263,146,25967,6,0,B|248:213|297:229|285:302,1,150,2|0,0:0|0:0,0:0:0:0:
214,358,26432,2,0,B|229:291|180:275|192:202,1,150,10|0,0:3|0:0,0:0:0:0:
263,146,26898,6,0,B|231:217|313:225|285:302,1,150,10|0,0:3|0:0,0:0:0:0:
214,358,27363,2,0,L|207:308,1,50,10|0,0:3|0:0,0:0:0:0:
345,154,27595,1,0,1:0:0:0:
357,227,27711,1,0,0:0:0:0:
363,151,27828,1,0,1:0:0:0:
421,103,27944,1,0,1:0:0:0:
351,137,28060,6,0,B|317:143|307:143|231:130,1,100,8|0,0:3|0:0,0:0:0:0:
245,114,28525,6,0,B|187:101|151:166|85:140,1,150.000005722046,2|0,1:0|0:0,0:0:0:0:
238,270,28874,1,10,0:3:0:0:
229,192,28991,2,0,P|193:204|160:221,1,75.0000028610231,10|0,0:3|0:0,0:0:0:0:
238,351,29223,2,0,P|273:338|306:321,1,75.0000028610231,10|0,0:3|0:0,0:0:0:0:
376,137,29456,1,2,1:0:0:0:
388,203,29572,1,0,0:0:0:0:
424,261,29688,6,0,B|389:190|452:153|406:35,1,225.000008583069,10|0,0:3|0:0,0:0:0:0:
228,73,30153,2,0,P|239:127|266:162,1,75.0000028610231,2|0,0:0|0:0,0:0:0:0:
294,338,30386,2,0,B|319:311|325:278|303:186,1,150.000005722046,2|0,1:0|0:0,0:0:0:0:
134,170,30735,1,10,0:3:0:0:
93,236,30851,6,0,P|145:253|171:253,1,50,10|0,0:3|0:0,0:0:0:0:
210,233,31084,2,0,P|172:235|148:245,1,50,10|0,0:3|0:0,0:0:0:0:
39,280,31316,2,0,P|93:269|119:251,1,50,2|0,1:0|0:0,0:0:0:0:
269,118,31549,6,0,P|184:148|84:151,1,150,10|0,0:3|0:0,0:0:0:0:
304,213,32014,2,0,P|265:207|225:207,1,50,0|0,0:0|0:0,0:0:0:0:
50,86,32246,2,0,B|74:81|101:77|157:76,1,100,2|2,1:0|0:0,0:0:0:0:
269,118,32595,1,10,0:3:0:0:
202,144,32711,6,0,P|177:149|152:151,1,50,10|0,0:3|0:0,0:0:0:0:
304,213,32944,2,0,P|279:208|254:206,1,50,10|0,0:3|0:0,0:0:0:0:
49,86,33177,2,0,P|74:81|99:79,1,50,2|0,1:0|0:0,0:0:0:0:
269,118,33409,6,0,B|186:185|185:108|57:151|56:234,1,250,10|0,0:3|0:0,0:0:0:0:
50,86,34107,2,0,P|74:82|124:81,1,50,2|0,1:0|0:0,0:0:0:0:
269,118,34339,6,0,B|198:122|178:175|84:147,1,150,10|0,0:3|0:0,0:0:0:0:
173,328,34804,2,0,B|236:295|280:331|349:264,1,150,2|0,0:0|0:0,0:0:0:0:
447,163,35270,6,0,L|318:132,1,112.500004291535,10|0,0:3|0:0,0:0:0:0:
131,196,35735,2,0,L|211:214,2,75.0000028610231,0|0|8,0:0|0:0|0:3,0:0:0:0:
337,122,36432,2,0,L|254:105,1,75.0000028610231,2|0,0:0|0:0,0:0:0:0:
226,227,36781,1,2,0:0:0:0:
256,238,36898,2,0,L|332:249,1,75.0000028610231,0|2,1:0|0:0,0:0:0:0:
258,92,37363,6,0,L|91:61,1,150.000005722046,10|2,0:3|0:0,0:0:0:0:
346,266,38060,2,0,L|508:288,1,150.000005722046,10|2,0:3|0:0,0:0:0:0:
394,127,38758,2,0,P|356:129|306:142,1,75.0000028610231,0|2,1:0|0:0,0:0:0:0:
191,246,39223,6,0,P|155:255|118:257,1,75.0000028610231,8|2,0:3|0:0,0:0:0:0:
217,119,39688,2,0,P|235:162|259:193,1,75.0000028610231,2|10,0:0|0:3,0:0:0:0:
327,353,40153,2,0,P|277:270|242:247,1,112.500004291535,2|2,0:0|0:0,0:0:0:0:
231,97,40618,2,0,P|281:180|316:203,1,112.500004291535,0|0,1:0|0:0,0:0:0:0:
362,284,41084,6,0,P|321:268|265:266,2,75.0000028610231,10|2|0,0:3|0:0|1:0,0:0:0:0:
178,135,41781,2,0,P|262:181|304:184,1,112.500004291535,10|0,0:3|0:0,0:0:0:0:
360,180,42246,1,0,0:0:0:0:
83,84,42479,1,0,1:0:0:0:
75,155,42595,1,0,0:0:0:0:
94,224,42711,6,0,B|128:171|77:130|130:74,1,150,10|0,0:3|0:0,0:0:0:0:
195,87,43177,1,2,0:0:0:0:
236,242,43409,1,0,0:0:0:0:
418,160,43642,2,0,B|384:213|435:254|382:310,1,150,10|0,0:3|0:0,0:0:0:0:
317,297,44107,2,0,P|311:239|334:182,2,100,2|2|2,0:0|1:0|0:0,0:0:0:0:
382,88,44804,6,0,B|316:88|324:159|225:123,1,125,10|2,0:3|0:0,0:0:0:0:
204,83,45153,2,0,P|237:138|230:223,1,125,0|0,0:0|0:0,0:0:0:0:
308,301,45502,2,0,P|275:246|282:161,1,125,10|0,0:3|0:0,0:0:0:0:
130,296,45967,1,0,0:0:0:0:
282,86,46200,1,0,1:0:0:0:
278,162,46316,1,0,0:0:0:0:
344,202,46432,2,0,B|356:161|344:117,1,62.5,2|0,0:0|0:0,0:0:0:0:
512,70,46665,6,0,B|432:92|434:49|355:67,1,150.000005722046,10|0,0:3|0:0,0:0:0:0:
274,177,47014,2,0,P|174:209|99:202,1,150.000005722046,2|0,0:0|0:0,0:0:0:0:
54,170,47363,1,10,0:3:0:0:
234,77,47595,1,2,0:0:0:0:
144,281,47828,2,0,L|164:361,1,75.0000028610231,0|0,0:0|0:0,0:0:0:0:
364,212,48060,2,0,L|344:292,1,75.0000028610231,2|0,1:0|0:0,0:0:0:0:
209,229,48293,2,0,P|204:191|203:154,1,75.0000028610231,2|0,0:0|0:0,0:0:0:0:
379,65,48525,6,0,B|401:100|409:134|380:216,1,150.000005722046,10|0,0:3|0:0,0:0:0:0:
294,381,48874,2,0,P|300:269|367:252,1,150.000005722046,2|0,0:0|0:0,0:0:0:0:
355,329,49223,1,10,0:3:0:0:
157,302,49456,1,2,0:0:0:0:
313,184,49688,1,0,0:0:0:0:
60,168,49921,1,2,1:0:0:0:
206,111,50153,1,2,0:0:0:0:
80,335,50386,6,0,B|51:268|119:215|81:87,1,250,6|10,1:0|0:3,0:0:0:0:
97,344,50851,1,10,0:3:0:0:
430,88,51084,6,0,B|393:215|461:268|432:335,1,250,6|10,1:0|0:3,0:0:0:0:
418,75,51549,1,10,0:3:0:0:
203,368,51781,6,0,B|153:257|252:245|203:126,2,250,6|10|8,1:0|0:3|0:3,0:0:0:0:
309,16,52479,6,0,B|359:127|260:139|309:258,1,250,6|8,1:0|0:3,0:0:0:0:
291,10,52944,1,8,0:3:0:0:
27,85,53177,6,0,B|78:48|173:59|219:206,1,250,6|8,1:0|0:3,0:0:0:0:
485,85,53642,2,0,B|434:48|339:59|293:206,1,250,6|8,1:0|0:3,0:0:0:0:
17,241,54107,6,0,P|52:315|129:369,1,150.000005722046,6|0,1:0|0:0,0:0:0:0:
495,241,54339,2,0,P|460:315|383:369,1,150.000005722046,6|0,1:0|0:0,0:0:0:0:
184,48,54572,6,0,P|128:96|136:200,1,150,2|0,0:0|0:0,0:0:0:0:
327,47,55037,6,0,P|383:95|391:168,1,150,2|8,0:0|0:3,0:0:0:0:
256,384,55502,1,2,1:0:0:0:
256,312,55618,6,0,B|256:96,1,200,8|0,0:3|0:0,0:0:0:0:
64,72,55967,6,0,L|82:174,1,100,10|0,0:3|0:0,0:0:0:0:
86,283,56200,2,0,L|67:180,1,100,2|0,0:0|0:0,0:0:0:0:
132,19,56432,2,0,P|180:115|128:238,1,200,2|0,1:0|0:0,0:0:0:0:
71,362,56781,1,8,0:3:0:0:
111,300,56898,2,0,P|142:283|228:276,1,100,10|0,0:3|0:0,0:0:0:0:
214,165,57130,2,0,P|169:186|120:179,1,100,10|0,0:3|0:0,0:0:0:0:
138,32,57363,2,0,P|187:35|216:77,1,100,2|0,1:0|0:0,0:0:0:0:
379,325,57595,6,0,B|303:220|476:184|367:3,1,300,10|0,0:3|0:0,0:0:0:0:
380,19,58060,2,0,P|332:115|351:184,1,100,10|0,0:3|0:0,0:0:0:0:
306,272,58293,2,0,P|356:278|401:300,1,100,0|0,1:0|0:0,0:0:0:0:
455,157,58525,1,2,0:0:0:0:
376,142,58642,1,2,0:0:0:0:
298,165,58758,2,0,P|342:186|392:179,1,100,10|0,0:3|0:0,0:0:0:0:
374,32,58991,1,2,1:0:0:0:
269,60,59107,1,0,1:0:0:0:
188,131,59223,1,2,1:0:0:0:
204,155,59456,6,0,B|126:122|88:215|13:167,1,200,2|8,0:0|0:3,0:0:0:0:
0,178,59921,2,0,P|36:196|84:234,1,100,2|0,0:0|0:0,0:0:0:0:
251,284,60153,2,0,P|215:266|167:228,1,100,2|0,1:0|0:0,0:0:0:0:
308,155,60386,6,0,B|386:122|424:215|499:167,1,200,2|8,0:0|0:3,0:0:0:0:
512,178,60851,2,0,P|476:196|428:234,1,100,10|0,0:3|0:0,0:0:0:0:
261,284,61084,2,0,P|297:266|345:228,1,100,2|0,1:0|0:0,0:0:0:0:
184,144,61316,6,0,B|120:215|120:215|-5:39,1,300.000011444092,10|0,0:3|0:0,0:0:0:0:
328,144,61781,2,0,B|392:215|392:215|517:39,1,300.000011444092,10|0,0:3|1:0,0:0:0:0:
64,296,62246,6,0,B|176:328|176:328|256:296|256:296|336:328|336:328|448:304,1,400,10|0,0:3|0:0,0:0:0:0:
256,144,62711,6,0,L|256:232,1,75,2|0,0:0|0:0,0:0:0:0:
376,88,63177,1,2,0:0:0:0:
256,56,63293,1,0,1:0:0:0:
135,88,63409,6,0,B|104:124|95:176|135:288,1,200,8|2,0:3|0:0,0:0:0:0:
135,298,63874,2,0,P|94:272|108:379,1,200,2|0,1:0|0:0,0:0:0:0:
202,333,64223,1,8,0:3:0:0:
217,264,64339,2,0,P|195:213|199:149,1,100,10|0,0:3|0:0,0:0:0:0:
215,27,64572,2,0,P|169:47|120:49,1,100,10|0,0:3|0:0,0:0:0:0:
366,76,64804,1,2,1:0:0:0:
377,88,65037,6,0,B|408:124|429:178|379:291|360:343|467:362,1,300,10|0,0:3|0:0,0:0:0:0:
376,297,65502,2,0,P|417:271|403:378,1,200,10|0,0:3|1:0,0:0:0:0:
310,333,65851,1,0,0:0:0:0:
276,266,65967,1,2,0:0:0:0:
205,235,66084,1,10,0:3:0:0:
295,264,66200,2,0,P|317:213|313:149,1,100,10|0,0:3|0:0,0:0:0:0:
297,27,66432,2,0,P|342:47|391:49,1,100,10|0,0:3|0:0,0:0:0:0:
503,218,66665,2,0,P|457:197|408:195,1,100,2|0,1:0|0:0,0:0:0:0:
111,361,66898,6,0,B|236:269|84:238|242:155,1,200,10|0,0:3|0:0,0:0:0:0:
208,183,67363,2,0,P|214:237|166:277,1,100,2|0,0:0|0:0,0:0:0:0:
39,368,67595,2,0,P|9:329|17:281,1,100,2|0,1:0|0:0,0:0:0:0:
401,361,67828,6,0,B|276:269|428:238|270:155,1,200,2|8,0:0|0:3,0:0:0:0:
304,183,68293,2,0,P|298:237|346:277,1,100,10|0,0:3|0:0,0:0:0:0:
473,368,68525,2,0,P|502:329|494:281,1,100,0|0,1:0|0:0,0:0:0:0:
116,50,68758,6,0,P|79:145|175:311,1,300,10|0,0:3|0:0,0:0:0:0:
352,104,69223,6,0,P|315:64|231:51,1,125,10|0,0:3|0:0,0:0:0:0:
258,259,69456,2,0,P|310:246|364:180,1,125,2|0,1:0|0:0,0:0:0:0:
170,100,69688,2,0,P|154:151|184:231,1,125,10|0,0:3|0:0,0:0:0:0:
434,183,69921,5,8,0:3:0:0:
432,91,70037,1,0,1:0:0:0:
378,14,70153,1,2,1:0:0:0:
144,289,70386,5,2,1:0:0:0:
224,333,70502,1,0,1:0:0:0:
318,325,70618,2,0,B|355:273|279:213|389:152,1,125,10|0,0:3|0:0,0:0:0:0:
425,111,70851,2,0,P|295:173|232:172,1,200,10|2,0:3|0:0,0:0:0:0:
24,74,71316,2,0,B|61:65|82:65|126:76,1,100,2|0,1:0|0:0,0:0:0:0:
277,250,71549,2,0,B|237:259|217:259|179:250,1,100,10|0,0:3|0:0,0:0:0:0:
132,170,71781,1,0,1:0:0:0:
140,151,72014,6,0,P|176:144|222:192,1,100,10|0,0:3|0:0,0:0:0:0:
300,342,72246,2,0,P|336:349|382:301,1,100,2|0,1:0|0:0,0:0:0:0:
480,93,72479,2,0,B|437:93|385:85|282:173,1,200,10|0,0:3|1:0,0:0:0:0:
300,178,72944,2,0,B|245:188|226:179|177:152,1,100,10|0,0:3|0:0,0:0:0:0:
50,181,73177,2,0,P|104:185|142:224,1,100,2|0,1:0|0:0,0:0:0:0:
364,331,73409,2,0,P|359:280|364:231,1,100,10|0,0:3|0:0,0:0:0:0:
148,330,73642,2,0,P|151:280|148:231,1,100,2|0,1:0|0:0,0:0:0:0:
14,61,73874,6,0,P|69:64|117:74,1,100,2|0,0:0|0:0,0:0:0:0:
159,218,74107,2,0,P|214:215|262:205,1,100,2|0,1:0|0:0,0:0:0:0:
193,30,74339,2,0,P|295:22|441:59,1,200,10|0,0:3|1:0,0:0:0:0:
404,51,74804,2,0,P|453:49|503:40,1,100,10|0,0:3|0:0,0:0:0:0:
265,187,75037,2,0,B|308:191|323:169|363:175,1,100,2|0,1:0|0:0,0:0:0:0:
123,88,75270,2,0,B|221:147|289:48|381:69|386:186,1,300,10|0,0:3|0:0,0:0:0:0:
392,173,75735,6,0,P|337:170|289:160,1,100,10|0,0:3|0:0,0:0:0:0:
499,318,75967,2,0,P|444:321|396:331,1,100,2|0,1:0|0:0,0:0:0:0:
289,177,76200,2,0,B|201:159|148:210|68:149,1,200,10|0,0:3|1:0,0:0:0:0:
380,252,76665,2,0,B|292:270|239:219|159:280,1,200,10|0,0:3|1:0,0:0:0:0:
390,324,77130,2,0,B|351:334|336:333|270:328,1,100,10|0,0:3|0:0,0:0:0:0:
481,179,77363,2,0,B|442:169|427:170|361:175,1,100,2|0,1:0|0:0,0:0:0:0:
186,343,77595,6,0,P|175:298|176:223,1,100,2|0,0:0|0:0,0:0:0:0:
160,58,77828,2,0,P|158:107|147:156,1,100,2|0,1:0|0:0,0:0:0:0:
72,346,78060,1,10,0:3:0:0:
30,284,78177,1,0,0:0:0:0:
50,213,78293,2,0,P|93:189|141:174,1,100,2|0,1:0|0:0,0:0:0:0:
64,34,78525,2,0,P|39:143|5:144,1,100,10|0,0:3|0:0,0:0:0:0:
193,329,78758,2,0,B|125:293|121:252|129:203,1,100,2|0,1:0|0:0,0:0:0:0:
204,39,78991,2,0,B|124:119|242:138|188:339|63:270,1,300,10|0,0:3|0:0,0:0:0:0:
293,134,79456,6,0,P|319:175|332:244,1,100,10|0,0:3|0:0,0:0:0:0:
375,377,79688,2,0,P|387:328|413:286,1,100,2|0,1:0|0:0,0:0:0:0:
511,108,79921,2,0,B|437:183|515:219|412:314,1,200,10|0,0:3|1:0,0:0:0:0:
341,50,80386,2,0,B|367:151|282:144|323:277,1,200,10|0,0:3|1:0,0:0:0:0:
453,33,80851,2,0,B|428:59|421:74|413:145,1,100,10|0,0:3|0:0,0:0:0:0:
289,350,81084,2,0,B|314:324|321:309|329:238,1,100,2|0,1:0|0:0,0:0:0:0:
80,233,81316,6,0,P|37:171|17:100,1,150.000005722046,2|0,0:0|0:0,0:0:0:0:
281,145,81549,2,0,P|258:182|134:260,1,150.000005722046,2|0,1:0|0:0,0:0:0:0:
24,5,81781,2,0,B|106:-19|162:47|162:47|238:2|298:52,1,300.000011444092,10|0,0:3|1:0,0:0:0:0:
432,367,82246,6,0,P|474:305|494:234,1,150.000005722046,10|0,0:3|0:0,0:0:0:0:
231,279,82479,2,0,P|253:316|377:394,1,150.000005722046,2|0,1:0|0:0,0:0:0:0:
488,139,82711,2,0,B|405:114|349:181|349:181|273:136|213:186,1,300.000011444092,10|0,0:3|1:0,0:0:0:0:
80,233,83177,6,0,P|37:171|17:100,1,150.000005722046,10|0,0:3|0:0,0:0:0:0:
281,145,83409,2,0,P|258:182|134:260,1,150.000005722046,2|0,1:0|0:0,0:0:0:0:
24,5,83642,2,0,B|106:-19|162:47|162:47|238:2|299:52|299:52|370:97|445:7,1,450.000017166138,10|0,0:3|0:0,0:0:0:0:
451,96,84107,6,0,B|393:40|364:105|311:69,1,150.000005722046,2|0,0:0|0:0,0:0:0:0:
278,133,84339,2,0,B|337:162|296:219|373:241,1,150.000005722046,10|0,1:3|0:0,0:0:0:0:
348,348,84572,2,0,B|388:282|414:334|467:269|453:188|453:188|502:172|512:126,1,300.000011444092,2|0,0:0|1:0,0:0:0:0:
205,69,85037,6,0,B|129:126|145:30|49:111,1,150.000005722046,10|0,0:3|0:0,0:0:0:0:
138,241,85270,2,0,B|229:219|161:158|241:139,1,150.000005722046,2|0,1:0|0:0,0:0:0:0:
1,128,85502,2,0,B|11:174|60:190|60:190|46:271|101:330|126:280|181:368,1,300.000011444092,14|0,0:3|0:0,0:0:0:0:
188,354,85967,6,0,P|165:315|158:226,1,100,2|0,0:0|0:0,0:0:0:0:
357,261,86200,2,0,P|348:310|324:354,1,100,2|0,0:0|0:0,0:0:0:0:
160,186,86432,2,0,B|211:162|251:194|251:194|291:162|349:186,1,200,14|0,0:3|0:0,0:0:0:0:
367,180,86898,6,0,P|401:162|457:111,1,100,2|0,0:0|0:0,0:0:0:0:
145,180,87130,2,0,P|111:162|55:111,1,100,2|0,0:0|0:0,0:0:0:0:
264,88,87363,6,0,B|320:16|400:32|456:176|256:282|256:282|56:176|112:32|192:16|248:88,1,787.500007510185,14|0,0:3|0:0,0:0:0:0:
34,267,88525,6,0,B|-34:253|23:358|54:276|110:369,1,150.000005722046,14|0,0:3|0:0,0:0:0:0:
53,256,88758,2,0,B|75:189|137:292|51:278|103:373,1,150.000005722046,14|0,0:3|0:0,0:0:0:0:
