osu file format v14

[General]
AudioFilename: audio.mp3
AudioLeadIn: 0
PreviewTime: 54455
Countdown: 0
SampleSet: Soft
StackLeniency: 0.2
Mode: 0
LetterboxInBreaks: 0
WidescreenStoryboard: 1

[Editor]
Bookmarks: 153,3873,12943,18757,35501,55966,70850,75269,84106,85734,88757
DistanceSpacing: 1.3
BeatDivisor: 4
GridSize: 8
TimelineZoom: 2.6

[Metadata]
Title:Love Dramatic feat. Rikka Ihara (TV Size)
TitleUnicode:ラブ・ドラマティック feat.伊原六花(TV Size)
Artist:Suzuki Masayuki
ArtistUnicode:鈴木雅之
Creator:[Mad]
Version:Insane
Source:かぐや様は告らせたい~天才たちの恋愛頭脳戦~
Tags:Kaguya-sama: Love is War Kaguya Wants to be Confessed To: The Geniuses' War of Love and Brains tv anime size
BeatmapID:1922567
BeatmapSetID:910113

[Difficulty]
HPDrainRate:5
CircleSize:4.2
OverallDifficulty:7
ApproachRate:8
SliderMultiplier:1.5
SliderTickRate:1

[Events]
//Background and Video events
Video,-220,"love is war.mp4"
0,0,"okawaii koto.jpg",0,0
//Break Periods
//Storyboard Layer 0 (Background)
//Storyboard Layer 1 (Fail)
//Storyboard Layer 2 (Pass)
//Storyboard Layer 3 (Foreground)
//Storyboard Sound Samples

[TimingPoints]
153,465.116279069767,4,2,1,70,1,0
153,-50,4,2,1,70,0,0
618,-200,4,2,1,40,0,0
2013,-50,4,2,1,70,0,0
2478,-200,4,2,1,30,0,0
2943,-133.333333333333,4,2,1,30,0,0
3525,-100,4,2,1,30,0,0
3873,-66.6666666666667,4,2,1,50,0,0
14339,-40,4,2,1,60,0,0
18757,-100,4,2,1,40,0,0
19687,-66.6666666666667,4,2,1,60,0,0
20385,-50,4,2,1,60,0,0
21083,-100,4,2,1,40,0,0
28525,-66.6666666666667,4,2,1,45,0,0
30850,-100,4,2,1,45,0,0
35269,-133.333333333333,4,2,1,30,0,0
42711,-100,4,2,1,40,0,0
44804,-80,4,2,1,40,0,0
46664,-66.6666666666667,4,2,1,40,0,0
50385,-40,4,2,1,60,0,0
54106,-33.3333333333333,4,2,1,70,0,1
54571,-100,4,2,1,50,0,0
55036,-66.6666666666667,4,2,1,50,0,0
55617,-50,4,2,1,50,0,0
55966,-50,4,2,1,70,0,1
61315,-33.3333333333333,4,2,1,70,0,1
62246,-25,4,2,1,70,0,1
62711,-200,4,2,1,70,0,0
63408,-50,4,2,1,70,0,1
69222,-40,4,2,1,70,0,1
70850,-50,4,2,1,70,0,0
81315,-33.3333333333333,4,2,1,70,0,0
85966,-50,4,2,1,50,0,0
87362,-57.1428571428571,4,2,1,50,0,0
88525,-33.3333333333333,4,2,1,70,0,0

[Colours]
Combo1 : 0,128,192
Combo2 : 255,128,128
Combo3 : 0,128,255
Combo4 : 255,0,0

[HitObjects]
65,55,153,6,0,P|164:63|194:178,1,225,6|0,0:0|0:0,0:0:0:0:
192,187,618,6,0,P|190:212|196:231,1,37.5,8|0,0:3|0:0,0:0:0:0:
268,240,966,1,0,0:0:0:0:
268,240,1083,2,0,P|270:265|267:274,2,18.75,8|0|0,0:3|0:0|0:0,0:0:0:0:
197,300,1548,2,0,P|195:325|201:344,1,37.5,8|0,0:3|0:0,0:0:0:0:
355,344,2013,6,0,B|381:300|357:256|357:256|322:192|365:122,1,225,6|0,1:0|0:0,0:0:0:0:
362,115,2478,6,0,P|372:84|362:38,1,75,2|2,0:0|0:0,0:0:0:0:
288,77,3176,1,8,0:3:0:0:
457,161,3408,1,2,1:2:0:0:
444,190,3525,2,0,P|416:204|339:208,1,75,8|0,0:3|0:0,0:0:0:0:
353,207,3873,6,0,L|284:193,1,56.2500021457673,10|0,0:3|0:0,0:0:0:0:
232,288,4106,2,0,L|300:274,1,56.2500021457673,2|0,0:0|0:0,0:0:0:0:
170,234,4339,2,0,P|153:307|191:359,1,112.500004291535,2|0,1:0|0:0,0:0:0:0:
322,354,4687,1,8,0:3:0:0:
347,333,4804,6,0,P|363:303|370:266,1,56.2500021457673,10|0,0:3|0:0,0:0:0:0:
253,233,5036,2,0,P|270:261|298:285,1,56.2500021457673,10|0,0:3|0:0,0:0:0:0:
386,201,5269,2,0,P|352:202|317:214,1,56.2500021457673,2|0,1:0|0:0,0:0:0:0:
238,153,5501,6,0,P|292:135|340:94,1,112.500004291535,10|0,0:3|0:0,0:0:0:0:
335,101,5966,1,10,0:3:0:0:
176,207,6199,2,0,P|121:189|73:148,1,112.500004291535,0|2,1:0|0:0,0:0:0:0:
109,62,6548,1,10,0:3:0:0:
141,57,6664,6,0,L|215:69,1,56.2500021457673,10|0,0:3|0:0,0:0:0:0:
279,137,6897,2,0,L|204:149,1,56.2500021457673,10|0,0:3|0:0,0:0:0:0:
286,1,7129,2,0,L|273:75,1,56.2500021457673,2|0,1:0|0:0,0:0:0:0:
283,225,7362,6,0,L|427:200,1,112.500004291535,10|0,0:3|0:0,0:0:0:0:
394,206,7827,2,0,L|462:195,1,56.2500021457673,2|0,0:0|0:0,0:0:0:0:
349,132,8059,2,0,L|417:121,1,56.2500021457673,2|0,1:0|0:0,0:0:0:0:
311,300,8292,1,2,0:0:0:0:
311,300,8408,1,8,0:3:0:0:
311,300,8525,2,0,L|379:289,1,56.2500021457673,8|0,0:3|0:0,0:0:0:0:
228,233,8757,2,0,L|296:222,1,56.2500021457673,10|0,0:3|0:0,0:0:0:0:
145,166,8990,2,0,L|213:155,1,56.2500021457673,2|0,1:0|0:0,0:0:0:0:
284,90,9222,6,0,L|139:65,1,112.500004291535,10|0,0:3|0:0,0:0:0:0:
174,71,9687,2,0,L|105:60,1,56.2500021457673,10|0,0:3|0:0,0:0:0:0:
256,166,9920,2,0,L|187:155,1,56.2500021457673,2|0,1:0|0:0,0:0:0:0:
151,290,10152,2,0,L|6:265,1,112.500004291535,10|0,0:3|0:0,0:0:0:0:
40,271,10618,1,2,0:0:0:0:
256,166,10850,5,2,1:0:0:0:
256,207,10966,1,0,1:0:0:0:
255,249,11083,1,2,1:0:0:0:
254,292,11199,1,0,1:0:0:0:
254,333,11315,6,0,P|284:333|321:323,1,56.2500021457673,10|0,1:3|0:0,0:0:0:0:
359,200,11548,2,0,P|344:225|333:263,1,56.2500021457673,10|0,0:3|0:0,0:0:0:0:
421,357,11780,2,0,P|406:331|378:303,1,56.2500021457673,2|0,1:0|0:0,0:0:0:0:
294,152,12013,2,0,P|276:102|299:35,1,112.500004291535,10|0,0:3|0:0,0:0:0:0:
290,46,12478,6,0,L|204:59,1,56.2500021457673,2|0,0:0|0:0,0:0:0:0:
149,191,12711,2,0,L|234:204,1,56.2500021457673,2|0,1:0|0:0,0:0:0:0:
167,5,12943,2,0,P|152:58|170:110,1,112.500004291535,10|0,0:3|0:0,0:0:0:0:
170,110,13408,2,0,P|184:163|166:215,1,112.500004291535,10|0,0:3|1:0,0:0:0:0:
166,215,13873,2,0,P|151:268|166:316,1,56.2500021457673,10|0,0:3|0:0,0:0:0:0:
248,368,14106,2,0,P|244:340|233:314,1,56.2500021457673,10|0,0:3|0:0,0:0:0:0:
48,277,14339,6,0,P|57:322|80:363,1,93.75,2|0,0:0|0:0,0:0:0:0:
158,376,14571,2,0,P|193:346|218:306,1,93.75,2|0,1:0|0:0,0:0:0:0:
232,232,14804,2,0,B|198:193|145:216|145:216|111:178|58:201,1,187.5,10|0,0:3|1:0,0:0:0:0:
342,133,15269,6,0,P|332:178|309:219,1,93.75,10|0,0:3|0:0,0:0:0:0:
232,232,15501,2,0,P|196:202|171:162,1,93.75,2|0,1:0|0:0,0:0:0:0:
158,88,15734,2,0,B|191:49|244:72|244:72|278:34|331:57,1,187.5,10|0,0:3|1:0,0:0:0:0:
321,241,16199,6,0,P|330:286|354:326,1,93.75,10|0,0:3|0:0,0:0:0:0:
432,338,16432,2,0,P|467:308|492:268,1,93.75,2|0,1:0|0:0,0:0:0:0:
496,193,16664,2,0,B|458:172|416:197|416:197|364:146|314:148|314:194|214:128,1,281.25,10|0,0:3|0:0,0:0:0:0:
222,128,17129,1,8,0:3:0:0:
360,84,17362,1,0,1:0:0:0:
360,84,17478,1,0,1:0:0:0:
360,84,17594,1,8,0:3:0:0:
166,195,17827,6,0,P|139:118|219:43,1,187.5,2|8,1:0|0:3,0:0:0:0:
315,263,18292,2,0,B|267:244|223:264|223:264|166:295|91:258|91:258|72:228|68:177,1,281.25,2|0,1:0|0:0,0:0:0:0:
67,191,18757,6,0,P|58:152|65:87,1,75,8|0,0:3|0:0,0:0:0:0:
279,6,19222,2,0,B|290:51|290:51|262:125,1,112.5,0|0,1:0|1:0,0:0:0:0:
260,135,19687,6,0,P|294:140|345:124,1,56.2500021457673,2|0,0:0|0:0,0:0:0:0:
425,232,19920,2,0,P|373:222|296:232,1,112.500004291535,10|0,0:3|0:0,0:0:0:0:
104,336,20385,6,0,P|256:304|408:336,1,300,2|0,1:0|0:0,0:0:0:0:
408,340,21083,6,0,B|401:313|411:286|411:286|419:261|409:229,1,112.5,2|8,1:0|0:3,0:0:0:0:
419,203,21548,1,10,0:3:0:0:
280,207,21780,1,8,0:3:0:0:
366,44,22013,1,2,0:0:0:0:
374,64,22129,1,0,0:0:0:0:
375,86,22246,6,0,P|330:108|280:104,1,75,2|0,1:0|0:0,0:0:0:0:
305,109,22711,1,10,0:3:0:0:
196,199,22943,2,0,P|241:221|291:217,1,75,0|0,1:0|0:0,0:0:0:0:
353,217,23292,1,8,0:3:0:0:
344,233,23408,2,0,L|337:277,1,37.5,10|0,0:3|0:0,0:0:0:0:
445,315,23641,2,0,L|409:286,1,37.5,10|0,0:3|0:0,0:0:0:0:
323,361,23873,2,0,L|364:344,1,37.5,2|0,1:0|0:0,0:0:0:0:
239,177,24106,6,0,L|259:293,1,112.5,10|0,0:3|0:0,0:0:0:0:
262,305,24571,1,0,0:0:0:0:
172,236,24804,2,0,L|163:186,1,37.5,2|0,1:0|0:0,0:0:0:0:
239,177,25036,6,0,L|259:293,1,112.5,2|0,0:0|0:0,0:0:0:0:
262,305,25501,1,8,0:3:0:0:
172,236,25734,2,0,L|163:186,1,37.5,2|0,1:0|0:0,0:0:0:0:
239,177,25966,6,0,B|253:207|250:238|250:238|245:268|260:294,1,112.5,2|0,0:0|0:0,0:0:0:0:
189,345,26432,6,0,B|175:315|178:284|178:284|183:254|168:228,1,112.5,10|0,0:3|0:0,0:0:0:0:
239,177,26897,6,0,B|253:207|250:238|250:238|245:268|260:294,1,112.5,10|0,0:3|0:0,0:0:0:0:
189,345,27362,6,0,L|179:293,1,37.5,10|0,0:3|0:0,0:0:0:0:
239,177,27594,1,0,1:0:0:0:
243,204,27711,1,0,0:0:0:0:
248,232,27827,1,0,1:0:0:0:
253,259,27943,1,0,1:0:0:0:
257,286,28059,1,8,0:3:0:0:
89,245,28292,1,0,0:0:0:0:
149,137,28525,6,0,L|170:258,1,112.500004291535,2|0,1:0|0:0,0:0:0:0:
174,331,28873,1,10,0:3:0:0:
192,324,28990,2,0,P|218:309|242:281,1,56.2500021457673,10|0,0:3|0:0,0:0:0:0:
89,245,29222,2,0,L|100:309,1,56.2500021457673,10|0,0:3|0:0,0:0:0:0:
245,213,29455,1,2,1:0:0:0:
240,186,29571,1,0,0:0:0:0:
234,161,29687,6,0,L|213:42,1,112.500004291535,10|0,0:3|0:0,0:0:0:0:
214,50,30152,1,2,0:0:0:0:
44,143,30385,2,0,P|83:157|155:130,1,112.500004291535,2|0,1:0|0:0,0:0:0:0:
113,29,30734,1,10,0:3:0:0:
99,39,30850,2,0,L|91:81,1,37.5,10|0,0:3|0:0,0:0:0:0:
222,177,31083,2,0,L|228:140,1,37.5,10|0,0:3|0:0,0:0:0:0:
185,28,31315,2,0,L|178:64,1,37.5,2|0,1:0|0:0,0:0:0:0:
373,50,31548,6,0,P|317:32|260:57,1,112.5,10|0,0:3|0:0,0:0:0:0:
255,66,32013,1,0,0:0:0:0:
398,127,32246,2,0,P|417:131|448:127,1,37.5,2|0,1:0|0:0,0:0:0:0:
373,50,32478,5,2,0:0:0:0:
339,34,32594,1,10,0:3:0:0:
302,34,32711,2,0,P|284:39|268:48,1,37.5,10|0,0:3|0:0,0:0:0:0:
317,150,32943,2,0,P|321:131|321:113,1,37.5,10|0,0:3|0:0,0:0:0:0:
209,105,33176,2,0,P|222:117|238:127,1,37.5,2|0,1:0|0:0,0:0:0:0:
373,50,33408,6,0,P|317:32|232:112,1,187.5,10|0,0:3|0:0,0:0:0:0:
238,127,34106,1,2,1:0:0:0:
373,50,34339,6,0,P|317:32|260:57,1,112.5,10|0,0:3|0:0,0:0:0:0:
248,35,34804,2,0,P|192:53|135:28,1,112.5,2|0,0:0|0:0,0:0:0:0:
129,51,35269,6,0,L|33:34,1,84.3750032186509,10|0,0:3|0:0,0:0:0:0:
52,116,35734,2,0,L|116:127,2,56.2500021457673,0|0|8,0:0|0:0|0:3,0:0:0:0:
273,125,36432,2,0,L|182:109,2,84.3750032186509,2|2|2,0:0|0:0|0:0,0:0:0:0:
345,18,37362,6,0,L|468:39,1,112.500004291535,10|2,0:3|0:0,0:0:0:0:
366,171,38059,2,0,L|477:191,1,112.500004291535,10|2,0:3|0:0,0:0:0:0:
497,343,38757,2,0,L|433:331,1,56.2500021457673,0|2,1:0|0:0,0:0:0:0:
335,254,39222,6,0,P|366:256|399:265,2,56.2500021457673,8|2|2,0:3|0:0|0:0,0:0:0:0:
257,290,39920,1,10,0:3:0:0:
180,335,40152,2,0,P|148:332|115:323,1,56.2500021457673,2|0,0:0|0:0,0:0:0:0:
148,202,40618,2,0,P|161:230|170:263,1,56.2500021457673,0|2,1:0|0:0,0:0:0:0:
50,298,41083,5,10,0:3:0:0:
69,171,41315,2,0,P|87:145|176:125,1,112.500004291535,2|10,0:0|0:3,0:0:0:0:
161,121,42246,1,0,0:0:0:0:
299,234,42478,1,0,1:0:0:0:
275,229,42594,1,0,0:0:0:0:
249,223,42711,6,0,P|233:177|289:94,2,150,10|2|10,0:3|0:0|0:3,0:0:0:0:
367,119,44106,2,0,P|347:150|316:172,2,75,2|2|2,0:0|1:0|0:0,0:0:0:0:
348,39,44804,6,0,P|419:51|450:116,2,140.625,10|0|10,0:3|0:0|0:3,0:0:0:0:
348,39,45966,1,0,0:0:0:0:
222,117,46199,1,0,1:0:0:0:
253,131,46315,1,0,0:0:0:0:
281,142,46432,2,0,L|291:78,1,46.875,2|0,0:0|0:0,0:0:0:0:
168,60,46664,6,0,P|143:116|211:193,2,168.750006437302,10|2|10,0:3|0:0|0:3,0:0:0:0:
222,117,47594,2,0,L|109:136,1,112.500004291535,2|0,0:0|0:0,0:0:0:0:
227,286,48059,2,0,L|339:266,1,112.500004291535,2|2,1:0|0:0,0:0:0:0:
306,189,48525,6,0,B|276:208|229:198|229:198|185:188|143:214,2,168.750006437302,10|2|10,0:3|0:0|0:3,0:0:0:0:
364,131,49455,2,0,P|387:190|364:248,1,112.500004291535,2|0,0:0|0:0,0:0:0:0:
257,125,49920,2,0,P|234:66|257:8,1,112.500004291535,2|2,1:0|0:0,0:0:0:0:
500,19,50385,5,6,1:0:0:0:
473,176,50618,1,10,0:3:0:0:
438,89,50850,1,10,0:3:0:0:
362,316,51083,5,6,1:0:0:0:
390,159,51315,1,10,0:3:0:0:
324,227,51548,1,10,0:3:0:0:
215,136,51780,6,0,L|247:320,2,187.5,6|10|8,1:0|0:3|0:3,0:0:0:0:
93,331,52478,5,6,1:0:0:0:
64,174,52711,1,8,0:3:0:0:
149,235,52943,1,8,0:3:0:0:
306,91,53176,5,6,1:0:0:0:
159,133,53408,1,8,0:3:0:0:
427,230,53641,6,0,L|237:196,1,187.5,6|8,1:0|0:3,0:0:0:0:
215,32,54106,5,6,1:0:0:0:
256,288,54339,1,6,1:0:0:0:
356,70,54571,6,0,P|291:68|336:125,1,150,2|2,0:0|0:0,0:0:0:0:
390,145,55269,1,8,0:3:0:0:
215,32,55501,1,2,1:0:0:0:
206,63,55618,6,0,B|192:101|206:141|206:141|223:181|206:225,1,150,8|0,0:3|0:0,0:0:0:0:
51,197,55966,6,0,P|50:159|65:119,1,75,10|0,0:3|0:0,0:0:0:0:
132,238,56199,2,0,P|133:276|117:315,1,75,2|0,0:0|0:0,0:0:0:0:
48,47,56432,2,0,P|125:20|190:60,1,150,2|0,1:0|0:0,0:0:0:0:
239,187,56780,1,8,0:3:0:0:
264,207,56897,6,0,P|303:217|349:207,1,75,10|0,0:3|0:0,0:0:0:0:
461,47,57129,2,0,P|432:75|418:120,1,75,10|0,0:3|0:0,0:0:0:0:
501,297,57362,2,0,P|490:258|458:223,1,75,2|0,1:0|0:0,0:0:0:0:
282,302,57594,6,0,P|359:329|424:289,1,150,10|0,0:3|0:0,0:0:0:0:
415,299,58059,1,10,0:3:0:0:
250,151,58292,2,0,L|263:232,1,75,0|0,1:0|0:0,0:0:0:0:
367,119,58525,1,2,0:0:0:0:
367,119,58641,1,2,0:0:0:0:
367,119,58757,2,0,L|379:44,1,75,10|0,0:3|0:0,0:0:0:0:
158,124,58990,1,2,1:0:0:0:
166,171,59106,1,0,1:0:0:0:
174,218,59222,1,2,1:0:0:0:
174,218,59455,6,0,P|126:174|47:202,1,150,2|8,0:0|0:3,0:0:0:0:
51,196,59920,2,0,L|74:294,1,75,2|0,0:0|0:0,0:0:0:0:
214,107,60152,2,0,L|191:9,1,75,2|0,1:0|0:0,0:0:0:0:
338,218,60385,6,0,P|386:174|465:202,1,150,2|8,0:0|0:3,0:0:0:0:
460,196,60850,2,0,L|438:294,1,75,10|0,0:3|0:0,0:0:0:0:
298,107,61083,2,0,L|320:9,1,75,2|0,1:0|0:0,0:0:0:0:
364,306,61315,6,0,B|278:292|278:292|214:326|214:326|145:264,1,225.000008583069,10|0,0:3|0:0,0:0:0:0:
93,165,61780,2,0,B|178:150|178:150|243:185|243:185|311:122,1,225.000008583069,10|0,0:3|1:0,0:0:0:0:
399,32,62246,6,0,B|289:17|289:17|210:48|210:48|90:33,1,300,10|0,0:3|0:0,0:0:0:0:
23,22,62711,6,0,P|22:54|45:95,1,75,2|2,0:0|0:0,0:0:0:0:
59,113,63292,1,0,1:0:0:0:
75,131,63408,6,0,P|104:214|75:294,1,150,8|2,0:3|0:0,0:0:0:0:
89,271,63873,2,0,B|125:255|164:270|164:270|206:284|239:268,1,150,2|0,1:0|0:0,0:0:0:0:
235,99,64222,1,8,0:3:0:0:
213,119,64339,2,0,L|198:201,1,75,10|0,0:3|0:0,0:0:0:0:
344,265,64571,2,0,L|358:347,1,75,10|0,0:3|0:0,0:0:0:0:
294,194,64804,2,0,P|334:178|392:193,1,75,2|0,1:0|0:0,0:0:0:0:
460,72,65036,6,0,P|353:88|279:55,1,150,10|0,0:3|0:0,0:0:0:0:
314,76,65501,1,10,0:3:0:0:
160,52,65734,2,0,P|200:36|258:51,1,75,0|0,1:0|0:0,0:0:0:0:
109,288,65966,1,2,0:0:0:0:
99,232,66083,1,10,0:3:0:0:
89,177,66199,2,0,L|102:99,1,75,10|0,0:3|0:0,0:0:0:0:
246,233,66432,2,0,P|206:249|148:234,1,75,10|0,0:3|0:0,0:0:0:0:
321,159,66664,2,0,L|333:232,1,75,2|0,1:0|0:0,0:0:0:0:
430,339,66897,6,0,B|417:308|430:266|430:266|443:225|428:187,1,150,10|0,0:3|0:0,0:0:0:0:
429,191,67362,2,0,P|437:160|426:105,1,75,2|0,0:0|0:0,0:0:0:0:
255,245,67594,2,0,P|277:267|330:285,1,75,2|0,1:0|0:0,0:0:0:0:
326,54,67827,2,0,B|310:99|325:133|325:133|340:168|325:204,1,150,2|8,0:0|0:3,0:0:0:0:
326,200,68292,2,0,L|343:291,1,75,10|0,0:3|0:0,0:0:0:0:
230,96,68525,2,0,L|247:4,1,75,0|0,1:0|0:0,0:0:0:0:
214,180,68757,6,0,P|131:182|72:109,1,150,10|0,0:3|0:0,0:0:0:0:
83,139,69222,2,0,P|69:85|76:41,1,93.75,10|0,0:3|0:0,0:0:0:0:
220,192,69455,2,0,P|180:231|138:247,1,93.75,2|0,1:0|0:0,0:0:0:0:
198,47,69687,2,0,P|251:61|286:89,1,93.75,10|0,0:3|0:0,0:0:0:0:
298,306,69920,1,8,0:3:0:0:
292,259,70036,1,0,1:0:0:0:
310,215,70152,2,0,P|364:175|449:200,1,93.75,2|0,1:0|0:0,0:0:0:0:
449,384,70385,1,2,1:0:0:0:
425,368,70501,1,0,1:0:0:0:
399,350,70618,2,0,L|381:253,1,93.75,10|0,0:3|0:0,0:0:0:0:
465,90,70850,6,0,B|475:141|475:141|461:179|461:179|472:235,1,150,10|2,0:3|0:0,0:0:0:0:
472,235,71315,2,0,P|440:251|385:245,1,75,2|0,1:0|0:0,0:0:0:0:
307,71,71548,2,0,P|308:138|410:163,1,150,10|0,0:3|1:0,0:0:0:0:
374,174,72013,2,0,P|337:164|287:179,1,75,10|0,0:3|0:0,0:0:0:0:
251,342,72246,2,0,P|214:352|164:337,1,75,2|0,1:0|0:0,0:0:0:0:
214,116,72478,6,0,B|227:157|214:193|214:193|200:234|214:273,1,150,10|0,0:3|1:0,0:0:0:0:
210,263,72943,2,0,P|139:263|90:339,1,150,10|2,0:3|1:0,0:0:0:0:
92,320,73408,2,0,L|105:240,1,75,10|0,0:3|0:0,0:0:0:0:
268,53,73641,2,0,L|253:132,1,75,2|0,1:0|0:0,0:0:0:0:
96,233,73873,2,0,P|90:196|109:148,1,75,2|0,0:0|0:0,0:0:0:0:
222,275,74106,2,0,P|228:312|209:360,1,75,2|0,1:0|0:0,0:0:0:0:
49,98,74339,6,0,P|114:80|185:140,1,150,10|0,0:3|1:0,0:0:0:0:
178,123,74804,2,0,P|210:151|283:150,1,75,10|0,0:3|0:0,0:0:0:0:
415,28,75036,2,0,P|374:41|339:105,1,75,2|0,1:0|0:0,0:0:0:0:
378,280,75269,2,0,P|386:238|298:142,1,150,10|0,0:3|1:0,0:0:0:0:
331,152,75734,2,0,L|316:235,1,75,10|0,0:3|0:0,0:0:0:0:
165,131,75966,2,0,L|150:47,1,75,2|0,1:0|0:0,0:0:0:0:
235,188,76199,6,0,P|169:221|91:182,1,150,10|0,0:3|1:0,0:0:0:0:
101,195,76664,2,0,B|116:236|102:276|102:276|91:310|102:343,1,150,10|0,0:3|1:0,0:0:0:0:
101,342,77129,2,0,P|141:348|188:339,1,75,10|0,0:3|0:0,0:0:0:0:
324,199,77362,2,0,P|284:193|237:202,1,75,2|0,1:0|0:0,0:0:0:0:
264,368,77594,2,0,P|330:379|389:319,2,150,2|2|10,0:0|1:0|0:3,0:0:0:0:
295,148,78292,6,0,B|305:206|305:206|298:250|298:250|309:309,1,150,2|10,1:0|0:3,0:0:0:0:
306,295,78757,2,0,P|319:270|386:244,1,75,2|0,1:0|0:0,0:0:0:0:
344,87,78990,2,0,P|249:105|202:38,1,150,10|0,0:3|1:0,0:0:0:0:
214,74,79455,2,0,P|119:56|72:123,1,150,10|2,0:3|1:0,0:0:0:0:
46,293,79920,6,0,B|97:302|97:302|198:283,1,150,10|0,0:3|1:0,0:0:0:0:
193,284,80385,2,0,B|244:274|244:274|345:293,1,150,10|0,0:3|1:0,0:0:0:0:
340,292,80850,2,0,L|414:278,1,75,10|0,0:3|0:0,0:0:0:0:
233,190,81083,2,0,L|158:203,1,75,2|0,1:0|0:0,0:0:0:0:
18,242,81315,6,0,P|29:298|58:350,1,112.500004291535,2|0,0:0|0:0,0:0:0:0:
156,366,81548,2,0,P|199:328|231:278,1,112.500004291535,2|0,1:0|0:0,0:0:0:0:
249,185,81780,2,0,B|206:135|139:164|139:164|96:117|30:146,1,225.000008583069,10|0,0:3|1:0,0:0:0:0:
460,144,82246,6,0,P|448:200|419:252,1,112.500004291535,10|0,0:3|0:0,0:0:0:0:
322,268,82478,2,0,P|278:230|246:180,1,112.500004291535,2|0,1:0|0:0,0:0:0:0:
229,87,82711,2,0,B|271:37|338:66|338:66|381:19|447:48,1,225.000008583069,10|0,0:3|1:0,0:0:0:0:
114,233,83176,6,0,P|125:288|154:336,1,112.500004291535,10|0,0:3|0:0,0:0:0:0:
249,351,83408,2,0,P|291:314|322:265,1,112.500004291535,2|0,1:0|0:0,0:0:0:0:
328,174,83641,2,0,B|281:148|230:178|230:178|166:116|105:118|105:175|-16:94,1,337.500012874604,10|0,0:3|0:0,0:0:0:0:
0,106,84106,6,0,P|-1:46|24:1,1,112.500004291535,2|0,0:0|0:0,0:0:0:0:
152,112,84339,2,0,P|153:171|128:217,1,112.500004291535,10|0,1:3|0:0,0:0:0:0:
104,37,84571,2,0,P|209:30|313:85,1,225.000008583069,2|0,0:0|1:0,0:0:0:0:
312,84,85036,6,0,B|334:116|334:116|344:155|327:187,1,112.500004291535,10|0,0:3|0:0,0:0:0:0:
112,320,85269,2,0,B|95:288|105:249|105:249|129:215,1,112.500004291535,2|0,1:0|0:0,0:0:0:0:
421,225,85501,2,0,P|321:280|240:221,1,225.000008583069,14|0,0:3|0:0,0:0:0:0:
240,222,85966,6,0,P|250:169|328:189,1,150,2|2,0:0|0:0,0:0:0:0:
438,374,86432,1,4,0:0:0:0:
438,374,86897,6,0,B|428:326|428:326|437:280|437:280|426:216,1,150,2|2,0:0|0:0,0:0:0:0:
228,260,87362,6,0,B|44:164|73:7|192:55|192:55|289:-29|353:107|261:168,1,590.625005632639,14|0,0:3|0:0,0:0:0:0:
349,250,88525,6,0,B|393:240|356:310|335:255|298:317,1,112.500004291535,14|0,0:3|0:0,0:0:0:0:
332,241,88758,2,0,B|317:196|276:264|333:255|299:318,1,112.500004291535,14|0,0:3|0:0,0:0:0:0:
