osu file format v14

[General]
AudioFilename: audio.mp3
AudioLeadIn: 0
PreviewTime: 54455
Countdown: 0
SampleSet: Soft
StackLeniency: 0.7
Mode: 0
LetterboxInBreaks: 0
WidescreenStoryboard: 1

[Editor]
Bookmarks: 153,3873,18757,35501,55966,70850,75269,84106,85734,88757
DistanceSpacing: 1.4
BeatDivisor: 4
GridSize: 8
TimelineZoom: 2

[Metadata]
Title:Love Dramatic feat. Rikka Ihara (TV Size)
TitleUnicode:ラブ・ドラマティック feat.伊原六花(TV Size)
Artist:Suzuki Masayuki
ArtistUnicode:鈴木雅之
Creator:[Mad]
Version:Hard
Source:かぐや様は告らせたい~天才たちの恋愛頭脳戦~
Tags:Kaguya-sama: Love is War Kaguya Wants to be Confessed To: The Geniuses' War of Love and Brains tv anime size
BeatmapID:1911611
BeatmapSetID:910113

[Difficulty]
HPDrainRate:4
CircleSize:4
OverallDifficulty:6
ApproachRate:7
SliderMultiplier:1.4
SliderTickRate:1

[Events]
//Background and Video events
Video,-220,"love is war.mp4"
0,0,"okawaii koto.jpg",0,0
//Break Periods
//Storyboard Layer 0 (Background)
//Storyboard Layer 1 (Fail)
//Storyboard Layer 2 (Pass)
//Storyboard Layer 3 (Foreground)
//Storyboard Sound Samples

[TimingPoints]
153,465.116279069767,4,2,1,70,1,0
153,-100,4,2,1,70,0,0
618,-100,4,2,1,40,0,0
2013,-100,4,2,1,70,0,0
2478,-100,4,2,1,30,0,0
2943,-100,4,2,1,30,0,0
3525,-100,4,2,1,30,0,0
3873,-100,4,2,1,50,0,0
14339,-100,4,2,1,60,0,0
18757,-100,4,2,1,40,0,0
19687,-100,4,2,1,60,0,0
20385,-100,4,2,1,60,0,0
21083,-100,4,2,1,40,0,0
28525,-100,4,2,1,45,0,0
30850,-100,4,2,1,45,0,0
35269,-100,4,2,1,30,0,0
42711,-100,4,2,1,40,0,0
44804,-100,4,2,1,40,0,0
46664,-100,4,2,1,40,0,0
50385,-100,4,2,1,60,0,0
54106,-100,4,2,1,70,0,1
54571,-100,4,2,1,50,0,0
55036,-100,4,2,1,50,0,0
55617,-100,4,2,1,50,0,0
55966,-100,4,2,1,70,0,1
61315,-100,4,2,1,70,0,1
62246,-100,4,2,1,70,0,1
62711,-100,4,2,1,70,0,0
63408,-100,4,2,1,70,0,1
69222,-100,4,2,1,70,0,1
70850,-100,4,2,1,70,0,0
81315,-100,4,2,1,70,0,0
85966,-100,4,2,1,50,0,0
87362,-100,4,2,1,50,0,0
88525,-100,4,2,1,70,0,0

[Colours]
Combo1 : 0,128,192
Combo2 : 255,128,128
Combo3 : 0,128,255
Combo4 : 255,0,0

[HitObjects]
142,220,153,6,0,P|177:224|224:213,1,70,6|0,0:0|0:0,0:0:0:0:
293,164,618,2,0,P|338:157|437:172,2,140,8|8|8,0:3|0:3|0:3,0:0:0:0:
279,260,1780,1,0,0:0:0:0:
352,324,2013,6,0,P|237:351|210:331,1,140,6|2,1:0|0:0,0:0:0:0:
227,345,3176,6,0,P|214:308|215:263,1,70,8|2,0:3|1:2,0:3:0:0:
222,229,3525,1,8,0:3:0:0:
270,90,3873,6,0,P|261:52|267:11,1,70,10|2,0:3|0:0,0:0:0:0:
350,67,4339,2,0,P|352:101|343:135,1,70,2|0,1:0|0:0,0:0:0:0:
320,178,4687,1,8,0:3:0:0:
320,178,4804,1,10,0:3:0:0:
384,251,5036,1,10,0:3:0:0:
452,181,5269,1,2,1:0:0:0:
475,275,5501,6,0,P|477:310|469:344,1,70,10|0,0:3|0:0,0:0:0:0:
372,351,5966,1,10,0:3:0:0:
279,383,6199,1,0,1:0:0:0:
290,285,6432,1,2,0:0:0:0:
290,285,6548,1,10,0:3:0:0:
290,285,6664,1,10,0:3:0:0:
192,272,6897,2,0,P|180:228|185:183,1,70,10|2,0:3|1:0,0:0:0:0:
240,126,7362,6,0,L|355:104,1,105,10|0,0:3|0:0,0:0:0:0:
391,96,7827,1,2,0:0:0:0:
343,181,8059,1,2,1:0:0:0:
292,265,8292,2,0,L|407:243,1,105,2|0,0:0|0:0,0:0:0:0:
444,242,8757,1,10,0:3:0:0:
502,320,8990,1,2,1:0:0:0:
424,380,9222,6,0,L|308:358,1,105,10|0,0:3|0:0,0:0:0:0:
272,352,9687,1,10,0:3:0:0:
196,289,9920,1,2,1:0:0:0:
113,340,10152,2,0,L|-3:318,1,105,10|0,0:3|0:0,0:0:0:0:
1,271,10618,1,2,0:0:0:0:
60,193,10850,1,2,1:0:0:0:
64,162,10966,1,0,1:0:0:0:
70,130,11083,1,2,1:0:0:0:
75,99,11199,1,0,1:0:0:0:
81,64,11315,6,0,L|172:80,1,70,10|10,1:3|0:3,0:0:0:0:
257,106,11780,1,2,1:0:0:0:
338,51,12013,2,0,P|354:87|336:168,1,105,10|0,0:3|0:0,0:0:0:0:
323,194,12478,2,0,P|306:230|317:285,1,70,2|2,0:0|1:0,0:0:0:0:
366,338,12943,6,0,P|309:358|224:309,2,140,10|10|10,0:3|0:3|0:3,0:0:0:0:
307,259,14106,1,10,0:3:0:0:
220,213,14339,5,2,0:0:0:0:
144,275,14571,1,2,1:0:0:0:
77,203,14804,2,0,P|109:170|158:152,1,70,10|0,0:3|1:0,0:0:0:0:
218,116,15269,5,10,0:3:0:0:
294,178,15501,1,2,1:0:0:0:
361,106,15734,2,0,P|329:73|280:55,1,70,10|0,0:3|1:0,0:0:0:0:
215,30,16199,5,10,0:3:0:0:
128,76,16432,1,2,1:0:0:0:
144,172,16664,2,0,B|152:199|144:224|144:224|135:250|144:278,1,105,10|0,0:3|0:0,0:0:0:0:
165,319,17129,5,8,0:3:0:0:
254,279,17362,1,0,1:0:0:0:
254,279,17478,1,0,1:0:0:0:
254,279,17594,1,8,0:3:0:0:
335,334,17827,6,0,P|349:299|345:240,1,70,2|8,1:0|0:3,0:0:0:0:
432,211,18292,2,0,P|446:246|442:305,1,70,2|0,1:0|0:0,0:0:0:0:
351,267,18757,6,0,P|329:216|348:146,1,105,8|0,0:3|0:0,0:0:0:0:
356,124,19222,2,0,L|245:143,1,105,0|0,1:0|1:0,0:0:0:0:
215,109,19687,1,2,0:0:0:0:
160,191,19920,1,10,0:3:0:0:
160,191,20385,6,0,B|145:155|160:119|160:119|175:82|160:37,1,140,2|0,1:0|0:0,0:0:0:0:
70,80,21083,2,0,P|54:135|57:193,1,105,2|8,1:0|0:3,0:0:0:0:
75,226,21548,1,10,0:3:0:0:
159,274,21780,2,0,P|195:269|241:274,1,70,8|2,0:3|0:0,0:0:0:0:
290,347,22246,6,0,P|261:293|293:206,1,140,2|10,1:0|0:3,0:0:0:0:
366,175,22943,2,0,P|395:121|381:56,1,105,0|8,1:0|0:3,0:0:0:0:
365,37,23408,1,10,0:3:0:0:
290,100,23641,1,10,0:3:0:0:
206,48,23873,1,2,1:0:0:0:
142,122,24106,6,0,P|117:194|142:253,1,140,10|0,0:3|0:0,0:0:0:0:
213,185,24804,1,2,1:0:0:0:
286,120,25036,6,0,P|311:192|286:251,1,140,2|8,0:0|0:3,0:0:0:0:
213,185,25734,1,2,1:0:0:0:
142,122,25966,6,0,P|117:194|128:232,1,105,2|0,0:0|0:0,0:0:0:0:
144,264,26432,2,0,P|219:249|246:221,1,105,10|0,0:3|0:0,0:0:0:0:
263,188,26897,2,0,P|212:130|174:120,1,105,10|0,0:3|0:0,0:0:0:0:
171,75,27362,2,0,P|224:43|311:46,1,140,10|0,0:3|1:0,0:0:0:0:
343,64,27943,1,0,1:0:0:0:
343,64,28059,6,0,P|335:102|343:138,1,70,8|0,0:3|0:0,0:0:0:0:
437,151,28525,2,0,P|445:189|437:225,1,70,2|0,1:0|0:0,0:0:0:0:
408,257,28873,1,10,0:3:0:0:
408,257,28990,2,0,L|324:242,1,70,10|10,0:3|0:3,0:0:0:0:
243,225,29455,1,2,1:0:0:0:
180,300,29687,6,0,P|145:250|161:174,1,140,10|2,0:3|0:0,0:0:0:0:
248,134,30385,2,0,B|293:141|293:141|312:138|312:138|373:147,1,105,2|10,1:0|0:3,0:0:0:0:
400,151,30850,1,10,0:3:0:0:
456,231,31083,1,10,0:3:0:0:
384,297,31315,1,2,1:0:0:0:
314,227,31548,6,0,P|242:252|183:227,1,140,10|0,0:3|0:0,0:0:0:0:
250,155,32246,1,2,1:2:0:0:
313,80,32478,1,2,0:0:0:0:
313,80,32594,1,10,0:3:0:0:
313,80,32711,6,0,P|283:61|246:55,1,70,10|10,0:3|0:3,0:0:0:0:
250,155,33176,1,2,1:0:0:0:
314,227,33408,6,0,P|242:252|183:227,1,140,10|0,0:3|0:0,0:0:0:0:
128,149,34106,1,2,1:0:0:0:
34,118,34339,2,0,B|22:152|32:176|32:176|41:202|34:231,1,105,10|0,0:3|0:0,0:0:0:0:
24,269,34804,2,0,P|67:294|134:277,1,105,2|0,0:0|0:0,0:0:0:0:
168,298,35269,5,10,0:3:0:0:
359,344,35734,2,0,L|435:358,2,70,0|0|8,0:0|0:0|0:3,0:0:0:0:
335,248,36432,2,0,L|450:268,2,105,2|2|2,0:0|0:0|0:0,0:0:0:0:
268,320,37362,6,0,L|118:293,1,140,10|2,0:3|0:0,0:0:0:0:
182,213,38059,2,0,L|32:186,1,140,10|2,0:3|0:0,0:0:0:0:
98,106,38757,2,0,L|207:124,1,105,0|0,1:0|0:0,0:0:0:0:
250,125,39222,6,0,P|246:173|268:222,2,70,8|2|2,0:3|0:0|0:0,0:0:0:0:
335,77,39920,1,10,0:3:0:0:
421,122,40152,2,0,P|431:70|421:19,2,105,2|2|2,0:0|0:0|0:0,0:0:0:0:
330,161,41083,5,10,0:3:0:0:
308,256,41315,2,0,B|276:269|241:257|241:257|204:244|167:260,1,140,2|10,0:0|0:3,0:0:0:0:
54,111,42246,1,0,0:0:0:0:
95,22,42478,1,0,1:0:0:0:
95,22,42594,1,0,0:0:0:0:
95,22,42711,6,0,B|143:30|143:30|171:50|171:50|231:61,2,140,10|2|10,0:3|0:0|0:3,0:0:0:0:
290,5,44106,2,0,L|358:17,2,70,2|2|2,0:0|1:0|0:0,0:0:0:0:
331,94,44804,6,0,P|305:132|234:157,2,105,10|0|10,0:3|0:0|0:3,0:0:0:0:
174,212,45966,1,0,0:0:0:0:
211,302,46199,1,0,1:0:0:0:
211,302,46315,1,0,0:0:0:0:
211,302,46432,1,2,0:0:0:0:
114,289,46664,6,0,P|82:236|92:168,2,105,10|2|10,0:3|0:0|0:3,0:0:0:0:
174,212,47594,2,0,P|173:165|94:99,1,140,2|2,0:0|1:0,0:0:0:0:
15,127,48292,1,2,0:0:0:0:
41,32,48525,6,0,L|156:11,2,105,10|2|10,0:3|0:0|0:3,0:0:0:0:
110,102,49455,2,0,L|254:127,1,140,2|2,0:0|1:0,0:0:0:0:
324,66,50152,1,2,0:0:0:0:
359,157,50385,6,0,P|377:200|376:254,1,70,6|10,1:0|0:3,0:0:0:0:
388,320,50850,1,10,0:3:0:0:
290,330,51083,6,0,P|243:324|197:296,1,70,6|10,1:0|0:3,0:0:0:0:
135,274,51548,1,10,0:3:0:0:
175,184,51780,6,0,P|203:146|250:120,2,70,6|10|8,1:0|0:3|0:3,0:0:0:0:
264,225,52478,6,0,P|310:219|356:191,1,70,6|10,1:0|0:3,0:0:0:0:
317,113,52943,1,10,0:3:0:0:
221,133,53176,6,0,P|187:139|156:154,1,70,6|8,1:0|0:3,0:0:0:0:
198,246,53641,2,0,P|232:240|264:224,1,70,6|8,1:0|0:3,0:0:0:0:
307,132,54106,5,6,1:0:0:0:
382,264,54339,1,6,1:0:0:0:
194,312,55269,6,0,P|237:308|274:292,1,70,8|2,0:3|1:2,0:0:0:0:
305,275,55618,1,8,0:3:0:0:
238,143,55966,6,0,P|267:113|317:102,1,70,10|2,0:3|0:0,0:0:0:0:
390,119,56432,2,0,P|407:157|387:247,1,105,2|8,1:0|0:3,0:0:0:0:
382,264,56897,1,10,0:3:0:0:
291,226,57129,1,10,0:3:0:0:
205,274,57362,1,2,1:0:0:0:
121,223,57594,6,0,P|132:173|121:113,1,105,10|0,0:3|0:0,0:0:0:0:
93,81,58059,1,10,0:3:0:0:
180,35,58292,1,0,1:0:0:0:
260,91,58525,2,0,P|256:109|255:137,2,35,2|2|10,0:0|0:0|0:3,0:0:0:0:
344,37,58990,1,2,1:0:0:0:
344,37,59106,1,0,1:0:0:0:
344,37,59222,1,2,1:0:0:0:
441,27,59455,6,0,B|433:67|433:67|441:96|441:96|431:148,1,105,2|0,0:0|0:0,0:0:0:0:
421,177,59920,1,2,0:0:0:0:
331,138,60152,1,2,1:0:0:0:
243,183,60385,2,0,B|250:223|250:223|242:252|242:252|252:304,1,105,2|0,0:0|0:0,0:0:0:0:
258,334,60850,1,10,0:3:0:0:
355,327,61083,1,2,1:0:0:0:
440,375,61315,6,0,P|453:319|426:262,1,105,10|0,0:3|0:0,0:0:0:0:
413,232,61780,2,0,P|400:176|427:119,1,105,10|0,0:3|0:0,0:0:0:0:
431,85,62246,2,0,L|325:103,1,105,10|0,0:3|0:0,0:0:0:0:
283,125,62711,2,0,P|240:134|189:114,1,70,2|0,0:0|1:0,0:0:0:0:
150,70,63176,1,2,0:0:0:0:
150,70,63292,1,0,1:0:0:0:
150,70,63408,6,0,P|132:109|141:178,1,105,8|0,0:3|0:0,0:0:0:0:
166,209,63873,2,0,P|184:248|175:317,1,105,2|8,1:0|0:3,0:0:0:0:
146,346,64339,1,10,0:3:0:0:
48,335,64571,1,10,0:3:0:0:
84,244,64804,1,2,1:0:0:0:
36,158,65036,6,0,P|17:115|62:16,1,140,10|10,0:3|0:3,0:0:0:0:
114,99,65734,1,0,1:0:0:0:
209,79,65966,1,2,0:0:0:0:
209,79,66083,1,10,0:3:0:0:
209,79,66199,1,10,0:3:0:0:
275,151,66432,2,0,P|311:163|348:163,1,70,10|2,0:3|1:0,0:0:0:0:
413,95,66897,6,0,B|408:123|419:147|419:147|432:177|419:221,1,105,10|0,0:3|0:0,0:0:0:0:
394,236,67362,1,2,0:0:0:0:
320,299,67594,1,2,1:0:0:0:
237,245,67827,6,0,B|209:250|185:239|185:239|155:226|111:239,1,105,2|0,0:0|0:0,0:0:0:0:
87,252,68292,1,10,0:3:0:0:
61,347,68525,1,0,1:0:0:0:
8,263,68757,6,0,P|2:196|33:147,1,105,10|0,0:3|0:0,0:0:0:0:
62,142,69222,1,10,0:3:0:0:
153,176,69455,1,2,1:0:0:0:
175,81,69687,6,0,P|236:109|248:128,1,70,10|8,0:3|0:3,0:0:0:0:
267,147,70036,1,0,1:0:0:0:
267,147,70152,1,2,1:0:0:0:
335,76,70385,2,0,L|341:37,2,35,2|0|10,1:0|1:0|0:3,0:0:0:0:
429,101,70850,6,0,P|404:146|371:164,1,70,10|2,0:3|0:0,0:0:0:0:
320,225,71315,1,2,1:0:0:0:
284,316,71548,2,0,B|320:329|360:316|360:316|396:305|435:316,1,140,10|10,0:3|0:3,0:0:0:0:
508,359,72246,1,2,1:0:0:0:
488,263,72478,6,0,P|470:211|488:139,1,105,10|0,0:3|0:0,0:0:0:0:
454,118,72943,2,0,P|472:66|467:24,1,70,10|2,0:3|1:0,0:0:0:0:
387,1,73408,1,10,0:3:0:0:
336,85,73641,1,2,1:0:0:0:
248,40,73873,2,0,P|239:78|246:121,1,70,2|2,0:0|1:0,0:0:0:0:
308,181,74339,6,0,B|297:224|308:259|308:259|319:291|308:324,1,140,10|10,0:3|0:3,0:0:0:0:
216,289,75036,1,2,1:0:0:0:
123,321,75269,2,0,B|113:293|124:261|124:261|135:226|124:183,1,140,10|10,0:3|0:3,0:0:0:0:
58,111,75966,1,2,1:0:0:0:
143,63,76199,6,0,P|180:57|229:63,1,70,10|0,0:3|1:0,0:0:0:0:
293,114,76664,2,0,P|330:120|379:114,1,70,10|0,0:3|1:0,0:0:0:0:
443,62,77129,1,10,0:3:0:0:
458,158,77362,1,2,1:0:0:0:
415,246,77594,2,0,P|458:256|501:249,2,70,2|2|10,0:0|1:0|0:3,0:0:0:0:
319,268,78292,6,0,P|282:262|233:268,1,70,2|10,1:0|0:3,0:0:0:0:
176,329,78757,1,2,1:0:0:0:
77,329,78990,2,0,B|83:292|83:292|100:271|100:271|115:189,1,140,10|10,0:3|0:3,0:0:0:0:
87,102,79687,1,2,1:0:0:0:
182,125,79920,6,0,P|206:81|170:-13,2,140,10|10|10,0:3|0:3|0:3,0:0:0:0:
113,196,81083,1,2,1:0:0:0:
190,255,81315,5,2,0:0:0:0:
263,189,81548,1,2,1:0:0:0:
337,252,81780,2,0,P|374:256|410:248,1,70,10|0,0:3|1:0,0:0:0:0:
444,158,82246,5,2,0:0:0:0:
392,74,82479,1,2,1:0:0:0:
299,105,82711,2,0,P|262:109|226:101,1,70,10|0,0:3|1:0,0:0:0:0:
134,124,83176,5,10,0:3:0:0:
177,211,83408,1,2,1:0:0:0:
93,261,83641,2,0,P|145:297|187:302,1,105,10|0,0:3|0:0,0:0:0:0:
233,292,84106,5,2,0:0:0:0:
321,334,84339,1,10,1:3:0:0:
385,260,84571,2,0,B|395:234|385:210|385:210|376:186|384:156,1,105,2|0,0:0|0:0,0:0:0:0:
408,114,85036,5,10,0:3:0:0:
311,133,85269,1,2,1:0:0:0:
337,38,85501,2,0,P|396:10|427:9,1,70,14|0,0:3|0:0,0:0:0:0:
483,60,85966,6,0,L|500:158,1,70,2|2,0:0|0:0,0:0:0:0:
441,211,86432,1,14,0:3:0:0:
441,211,86897,6,0,L|423:309,1,70,2|2,0:0|0:0,0:0:0:0:
354,214,87362,6,0,B|240:155|258:57|332:87|332:87|392:34|432:119|375:157,1,350,14|14,0:3|0:3,0:0:0:0:
448,223,88757,1,14,0:3:0:0:
