osu file format v14

[General]
AudioFilename: audio.mp3
AudioLeadIn: 0
PreviewTime: 679
Countdown: 0
SampleSet: Normal
StackLeniency: 0.7
Mode: 1
LetterboxInBreaks: 0
WidescreenStoryboard: 1

[Editor]
Bookmarks: 21874,58179,87961
DistanceSpacing: 0.8
BeatDivisor: 4
GridSize: 32
TimelineZoom: 4.899998

[Metadata]
Title:DADDY ! DADDY ! DO ! feat. Suzuki Airi (TV Size)
TitleUnicode:DADDY ! DADDY ! DO ! feat. 鈴木愛理 (TV Size)
Artist:Suzuki Masayuki
ArtistUnicode:鈴木雅之
Creator:radar
Version:Ultima Fox's Muzukashii !
Source:Kaguya-sama: Love Is War?
Tags:ultima fox idealism wants to be confessed to?: the geniuses' war of love and brains かぐや様は告らせたい?~天才たちの恋愛頭脳戦~ kaguya-sama wa kokurasetai? tensai-tachi no renai zunosen zunousen japanese groovy anime opening op season 2 水野良樹 本間昭光 mizuno yoshiki honma akimitsu j-pop pop
BeatmapID:2422428
BeatmapSetID:1161128

[Difficulty]
HPDrainRate:6
CircleSize:2
OverallDifficulty:4.5
ApproachRate:5
SliderMultiplier:1.4
SliderTickRate:1

[Events]
//Background and Video events
0,0,"fattestchika.jpg",0,0
//Break Periods
//Storyboard Layer 0 (Background)
//Storyboard Layer 1 (Fail)
//Storyboard Layer 2 (Pass)
//Storyboard Layer 3 (Foreground)
//Storyboard Layer 4 (Overlay)
//Storyboard Sound Samples

[TimingPoints]
-734,434.782608695652,4,1,0,75,1,0
2092,-97.5609756097561,4,1,0,75,0,0
2309,-93.2835820895522,4,1,0,75,0,0
2526,-90.9090909090909,4,1,0,75,0,1
14918,-90.9090909090909,4,1,0,75,0,0
15244,-100,4,1,0,75,0,0
57717,-97.5609756097561,4,1,0,75,0,0
57934,-93.2835820895522,4,1,0,75,0,0
58179,-90.9090909090909,4,1,0,75,0,1
70352,-90.9090909090909,4,1,0,75,0,0
71630,-88.8888888888889,4,1,0,75,0,0
71847,-85.3242320819113,4,1,0,75,0,0
72092,-83.3333333333333,4,1,0,75,0,1
87961,-83.3333333333333,4,1,0,75,0,0

[HitObjects]
254,192,787,5,4,0:0:0:0:
254,192,1222,1,12,0:0:0:0:
254,192,1657,1,4,0:0:0:0:
254,192,2092,1,0,0:0:0:0:
254,192,2309,1,8,0:0:0:0:
254,192,2526,1,4,0:0:0:0:
254,192,2961,1,0,0:0:0:0:
254,192,3179,1,8,0:0:0:0:
254,192,3396,1,8,0:0:0:0:
254,192,3613,1,0,0:0:0:0:
254,192,3831,1,8,0:0:0:0:
254,192,4048,1,8,0:0:0:0:
254,192,4265,1,4,0:0:0:0:
254,192,4700,1,0,0:0:0:0:
254,192,4918,1,0,0:0:0:0:
254,192,5135,1,8,0:0:0:0:
254,192,5352,1,8,0:0:0:0:
254,192,5570,1,0,0:0:0:0:
254,192,5787,1,8,0:0:0:0:
254,192,6005,1,4,0:0:0:0:
254,192,6439,1,0,0:0:0:0:
254,192,6657,1,8,0:0:0:0:
254,192,6874,1,0,0:0:0:0:
254,192,6983,1,0,0:0:0:0:
254,192,7092,1,0,0:0:0:0:
254,192,7309,1,0,0:0:0:0:
254,192,7526,1,8,0:0:0:0:
254,192,7744,1,4,0:0:0:0:
254,192,8396,1,8,0:0:0:0:
254,192,8613,1,8,0:0:0:0:
254,192,8831,1,8,0:0:0:0:
254,192,9048,1,0,0:0:0:0:
254,192,9265,1,8,0:0:0:0:
254,192,9483,1,0,0:0:0:0:
254,192,9918,1,0,0:0:0:0:
254,192,10135,1,8,0:0:0:0:
254,192,10352,1,0,0:0:0:0:
254,192,10787,1,12,0:0:0:0:
254,192,11222,1,8,0:0:0:0:
254,192,11657,1,4,0:0:0:0:
254,192,12092,1,0,0:0:0:0:
254,192,12526,1,12,0:0:0:0:
254,192,12961,1,8,0:0:0:0:
254,192,13396,1,8,0:0:0:0:
254,192,13831,1,4,0:0:0:0:
254,192,14265,1,0,0:0:0:0:
254,192,14483,1,8,0:0:0:0:
254,192,14700,1,0,0:0:0:0:
254,192,14918,1,0,0:0:0:0:
254,192,15352,1,8,0:0:0:0:
254,192,15570,1,0,0:0:0:0:
254,192,15679,1,0,0:0:0:0:
254,192,15787,1,0,0:0:0:0:
254,192,16005,1,0,0:0:0:0:
254,192,16222,1,8,0:0:0:0:
254,192,16439,1,0,0:0:0:0:
254,192,17092,1,8,0:0:0:0:
254,192,17309,1,0,0:0:0:0:
254,192,17418,1,0,0:0:0:0:
254,192,17526,1,0,0:0:0:0:
254,192,17744,1,8,0:0:0:0:
254,192,17961,1,8,0:0:0:0:
254,192,18179,1,0,0:0:0:0:
254,192,18831,1,8,0:0:0:0:
254,192,19048,1,8,0:0:0:0:
254,192,19157,1,8,0:0:0:0:
254,192,19265,1,8,0:0:0:0:
254,192,19483,1,0,0:0:0:0:
254,192,19700,1,8,0:0:0:0:
254,192,19918,1,4,0:0:0:0:
254,192,20352,1,0,0:0:0:0:
254,192,20570,1,8,0:0:0:0:
254,192,20787,1,4,0:0:0:0:
254,192,21222,1,2,0:0:0:0:
254,192,21439,1,2,0:0:0:0:
254,192,21874,1,2,0:0:0:0:
254,192,22092,1,0,0:0:0:0:
254,192,22309,1,8,0:0:0:0:
254,192,22526,1,0,0:0:0:0:
254,192,22635,1,0,0:0:0:0:
254,192,22744,1,0,0:0:0:0:
254,192,23179,1,8,0:0:0:0:
254,192,23396,1,0,0:0:0:0:
254,192,23613,1,12,0:0:0:0:
254,192,23939,1,4,0:0:0:0:
254,192,24265,1,12,0:0:0:0:
254,192,24918,1,8,0:0:0:0:
254,192,25352,1,0,0:0:0:0:
254,192,25787,1,8,0:0:0:0:
254,192,26005,1,0,0:0:0:0:
254,192,26113,1,0,0:0:0:0:
254,192,26222,1,0,0:0:0:0:
254,192,26439,1,0,0:0:0:0:
254,192,26657,1,8,0:0:0:0:
254,192,26874,1,4,0:0:0:0:
254,192,27309,1,0,0:0:0:0:
254,192,27526,1,2,0:0:0:0:
254,192,27744,1,0,0:0:0:0:
254,192,27961,1,4,0:0:0:0:
254,192,28396,1,4,0:0:0:0:
254,192,28831,1,8,0:0:0:0:
254,192,29048,1,0,0:0:0:0:
254,192,29265,1,8,0:0:0:0:
254,192,29483,1,8,0:0:0:0:
254,192,29592,1,8,0:0:0:0:
254,192,29700,1,8,0:0:0:0:
254,192,29918,1,0,0:0:0:0:
254,192,30135,1,0,0:0:0:0:
254,192,30244,1,0,0:0:0:0:
254,192,30352,1,0,0:0:0:0:
254,192,30570,1,12,0:0:0:0:
254,192,30896,1,4,0:0:0:0:
254,192,31222,1,12,0:0:0:0:
254,192,31874,1,8,0:0:0:0:
254,192,32092,1,4,0:0:0:0:
254,192,32526,1,0,0:0:0:0:
224,160,32744,1,0,0:0:0:0:
254,192,32961,1,12,0:0:0:0:
224,160,33396,1,0,0:0:0:0:
224,160,33613,1,8,0:0:0:0:
224,160,33831,1,0,0:0:0:0:
224,160,34265,1,0,0:0:0:0:
224,160,34483,1,8,0:0:0:0:
224,160,34700,1,8,0:0:0:0:
224,160,34918,1,0,0:0:0:0:
224,160,35135,1,0,0:0:0:0:
224,160,35570,1,8,0:0:0:0:
224,160,35787,1,12,0:0:0:0:
224,160,36005,1,0,0:0:0:0:
288,160,36222,1,8,0:0:0:0:
224,160,36439,1,0,0:0:0:0:
224,160,36874,1,0,0:0:0:0:
224,160,37092,1,8,0:0:0:0:
224,160,37309,1,8,0:0:0:0:
224,160,37526,1,0,0:0:0:0:
224,160,37744,1,0,0:0:0:0:
224,160,37961,1,8,0:0:0:0:
224,160,38179,1,0,0:0:0:0:
224,160,38613,1,0,0:0:0:0:
224,160,38831,1,8,0:0:0:0:
224,160,39265,1,12,0:0:0:0:
224,160,39483,1,0,0:0:0:0:
224,160,39700,1,8,0:0:0:0:
224,160,39918,1,0,0:0:0:0:
224,160,40352,1,0,0:0:0:0:
224,160,40570,1,8,0:0:0:0:
224,160,40787,1,0,0:0:0:0:
224,160,41005,1,8,0:0:0:0:
224,160,41331,1,0,0:0:0:0:
224,160,41439,1,8,0:0:0:0:
224,160,41657,1,4,0:0:0:0:
224,160,42092,1,0,0:0:0:0:
224,160,42309,1,8,0:0:0:0:
224,160,42526,1,0,0:0:0:0:
224,160,42635,1,0,0:0:0:0:
224,160,42744,1,0,0:0:0:0:
224,160,42961,1,8,0:0:0:0:
224,160,43396,1,4,0:0:0:0:
224,160,43831,1,0,0:0:0:0:
224,160,44048,1,8,0:0:0:0:
224,160,44265,1,0,0:0:0:0:
224,160,44483,1,0,0:0:0:0:
224,160,44700,1,8,0:0:0:0:
224,160,45135,1,4,0:0:0:0:
224,160,45787,1,8,0:0:0:0:
224,160,46005,1,0,0:0:0:0:
224,160,46113,1,0,0:0:0:0:
224,160,46222,1,0,0:0:0:0:
224,160,46657,1,8,0:0:0:0:
224,160,46874,1,8,0:0:0:0:
224,160,47092,1,0,0:0:0:0:
224,160,47309,1,0,0:0:0:0:
224,160,47744,1,0,0:0:0:0:
224,160,48179,1,0,0:0:0:0:
224,160,48396,1,8,0:0:0:0:
224,160,48613,1,0,0:0:0:0:
224,160,49048,1,0,0:0:0:0:
224,160,49265,1,8,0:0:0:0:
224,160,49374,1,8,0:0:0:0:
224,160,49483,1,8,0:0:0:0:
224,160,49700,1,4,0:0:0:0:
224,160,49918,1,0,0:0:0:0:
224,160,50135,1,12,0:0:0:0:
224,160,50352,1,0,0:0:0:0:
224,160,50787,1,0,0:0:0:0:
224,160,51005,1,8,0:0:0:0:
224,160,51439,1,12,0:0:0:0:
224,160,51657,1,8,0:0:0:0:
224,160,51874,1,4,0:0:0:0:
224,160,52092,1,0,0:0:0:0:
224,160,52526,1,8,0:0:0:0:
224,160,52744,1,8,0:0:0:0:
224,160,53179,1,4,0:0:0:0:
224,160,53396,1,0,0:0:0:0:
224,160,53613,1,8,0:0:0:0:
224,160,53831,1,4,0:0:0:0:
288,192,54048,1,8,0:0:0:0:
224,160,54265,1,4,0:0:0:0:
288,192,54483,1,8,0:0:0:0:
224,160,54700,1,4,0:0:0:0:
256,192,54918,12,0,56222,0:0:0:0:
224,192,56439,5,4,0:0:0:0:
224,192,56874,1,12,0:0:0:0:
224,192,57309,1,12,0:0:0:0:
224,192,57744,1,0,0:0:0:0:
224,192,57961,1,8,0:0:0:0:
224,192,58179,1,4,0:0:0:0:
254,192,58613,1,0,0:0:0:0:
254,192,58831,1,8,0:0:0:0:
254,192,59048,1,8,0:0:0:0:
254,192,59265,1,0,0:0:0:0:
254,192,59483,1,8,0:0:0:0:
254,192,59592,1,8,0:0:0:0:
254,192,59700,1,8,0:0:0:0:
254,192,59917,1,4,0:0:0:0:
254,192,60352,1,8,0:0:0:0:
254,192,60570,1,8,0:0:0:0:
254,192,60787,1,0,0:0:0:0:
254,192,61005,1,8,0:0:0:0:
254,192,61222,1,0,0:0:0:0:
254,192,61439,1,0,0:0:0:0:
254,192,61657,1,12,0:0:0:0:
254,192,62092,1,8,0:0:0:0:
254,192,62309,1,0,0:0:0:0:
254,192,62526,1,0,0:0:0:0:
254,192,62744,1,8,0:0:0:0:
254,192,62961,1,0,0:0:0:0:
254,192,63179,1,8,0:0:0:0:
254,192,63396,1,4,0:0:0:0:
254,192,64048,1,8,0:0:0:0:
254,192,64265,1,8,0:0:0:0:
254,192,64483,1,8,0:0:0:0:
254,192,64700,1,0,0:0:0:0:
254,192,64918,1,0,0:0:0:0:
254,192,65135,1,8,0:0:0:0:
254,192,65570,1,0,0:0:0:0:
254,192,65787,1,8,0:0:0:0:
254,192,66005,1,8,0:0:0:0:
254,192,66439,1,0,0:0:0:0:
254,192,66657,1,8,0:0:0:0:
254,192,66874,1,0,0:0:0:0:
254,192,67309,1,8,0:0:0:0:
254,192,67526,1,0,0:0:0:0:
254,192,67744,1,4,0:0:0:0:
254,192,68179,1,4,0:0:0:0:
254,192,68613,1,12,0:0:0:0:
254,192,69265,1,8,0:0:0:0:
254,192,69483,1,0,0:0:0:0:
254,192,69700,1,8,0:0:0:0:
254,192,69918,1,8,0:0:0:0:
254,192,70135,1,0,0:0:0:0:
254,192,70352,1,4,0:0:0:0:
254,192,70787,1,12,0:0:0:0:
254,192,71222,1,4,0:0:0:0:
254,192,71657,1,0,0:0:0:0:
254,192,71874,1,8,0:0:0:0:
254,192,72092,1,4,0:0:0:0:
254,192,72526,1,8,0:0:0:0:
254,192,72744,1,8,0:0:0:0:
254,192,72961,1,0,0:0:0:0:
254,192,73179,1,8,0:0:0:0:
254,192,73396,1,0,0:0:0:0:
254,192,73613,1,0,0:0:0:0:
254,192,73831,1,12,0:0:0:0:
254,192,74265,1,0,0:0:0:0:
254,192,74483,1,8,0:0:0:0:
254,192,74700,1,0,0:0:0:0:
254,192,74918,1,0,0:0:0:0:
254,192,75135,1,8,0:0:0:0:
254,192,75352,1,8,0:0:0:0:
254,192,75570,1,4,0:0:0:0:
254,192,76005,1,0,0:0:0:0:
254,192,76222,1,8,0:0:0:0:
254,192,76439,1,0,0:0:0:0:
254,192,76657,1,8,0:0:0:0:
254,192,76874,1,8,0:0:0:0:
254,192,77092,1,0,0:0:0:0:
254,192,77309,1,12,0:0:0:0:
254,192,77961,1,8,0:0:0:0:
254,192,78179,1,0,0:0:0:0:
254,192,78396,1,0,0:0:0:0:
254,192,78613,1,8,0:0:0:0:
254,192,78831,1,8,0:0:0:0:
254,192,79048,1,8,0:0:0:0:
254,192,79483,1,0,0:0:0:0:
254,192,79700,1,8,0:0:0:0:
254,192,79918,1,0,0:0:0:0:
254,192,80352,1,12,0:0:0:0:
254,192,80787,1,8,0:0:0:0:
254,192,81222,1,4,0:0:0:0:
254,192,81657,1,0,0:0:0:0:
254,192,82092,1,12,0:0:0:0:
254,192,82526,1,0,0:0:0:0:
254,192,82961,1,0,0:0:0:0:
254,192,83395,1,12,0:0:0:0:
254,192,83831,1,0,0:0:0:0:
254,192,84048,1,8,0:0:0:0:
254,192,84265,1,0,0:0:0:0:
254,192,84483,1,12,0:0:0:0:
254,192,84918,1,8,0:0:0:0:
254,192,85135,1,8,0:0:0:0:
254,192,85352,1,0,0:0:0:0:
254,192,85570,1,8,0:0:0:0:
254,192,86005,1,8,0:0:0:0:
254,192,86222,1,8,0:0:0:0:
254,192,86439,1,0,0:0:0:0:
254,192,86874,1,8,0:0:0:0:
254,192,87092,1,0,0:0:0:0:
254,192,87309,2,0,B|203:131|203:131|303:114,1,167.999994873047
254,192,87961,1,4,0:0:0:0:
